<?xml version="1.0" standalone="no"?>
<!DOCTYPE svg PUBLIC "-//W3C//DTD SVG 1.1//EN" "http://www.w3.org/Graphics/SVG/1.1/DTD/svg11.dtd" >
<svg xmlns="http://www.w3.org/2000/svg">
<metadata></metadata>
<defs>
<font id="media77bold" horiz-adv-x="1024" >
<font-face units-per-em="2048" ascent="1536" descent="-512" />
<missing-glyph horiz-adv-x="446" />
<glyph unicode="&#xfb00;" horiz-adv-x="1351" d="M1141 1401q-35 0 -55.5 -27.5t-20.5 -75.5q0 -39 7 -68.5t14.5 -60t14.5 -68.5t7 -91v-68h209v-80h-209v-594q0 -59 1 -98t10 -61.5t29.5 -31.5t57.5 -9h20.5t22.5 2v-76q-78 8 -148.5 11t-129.5 3t-132 -4t-143 -14v76q6 0 12.5 -1.5t12.5 -1.5q59 0 72.5 30t13.5 102 v667h-311v-594q0 -59 1 -98t10 -61.5t29.5 -31.5t57.5 -9h20.5t22.5 2v-76q-78 8 -148.5 11t-130.5 3q-59 0 -137 -4t-147 -14v76q6 0 17 -1.5t18 -1.5q59 0 72.5 30t13.5 102v667h-164v80h164v123q0 59 20.5 128t69.5 126t134 95t214 38q84 0 155.5 -16.5t118.5 -51.5 q41 39 106.5 64t166.5 25q147 0 229 -55.5t82 -141.5t-43 -118t-96 -32q-39 0 -63.5 13.5t-38 35t-18.5 48t-7 53.5q-2 25 -4 47.5t-10.5 39.5t-24.5 27.5t-45 10.5zM807 1135q0 123 -24.5 187t-102.5 64q-59 0 -95 -20t-56.5 -65.5t-26.5 -117t-6 -173.5v-68h311v193z" />
<glyph unicode="&#xfb01;" horiz-adv-x="1286" d="M1108 268q0 -59 1 -98t10 -61.5t29.5 -31.5t57.5 -9h20.5t22.5 2v-76q-78 8 -148.5 11t-129.5 3t-134 -4t-145 -14v76q6 0 12.5 -1.5t12.5 -1.5q33 0 51 10.5t27.5 35t10.5 63.5t1 96v437q0 57 -6 88.5t-26.5 47t-58.5 18.5t-100 3h-124v-594q0 -59 1 -98t10 -61.5 t29.5 -31.5t57.5 -9h20.5t22.5 2v-76q-78 8 -148.5 11t-130.5 3q-59 0 -137 -4t-147 -14v76q6 0 17 -1.5t17 -1.5q59 0 72.5 40t13.5 112v647h-151v80h151v143q0 72 27 141.5t83 124t144 88.5t211 34q111 0 190 -18.5t128 -50.5t72.5 -74t23.5 -89q0 -78 -46 -120t-118 -42 q-51 0 -80.5 18.5t-46 46t-21.5 59.5t-5 59q0 18 1 31.5t1 23.5q0 51 -31 66.5t-66 15.5q-59 0 -93 -40t-50 -99.5t-19 -129t-3 -126.5v-62h172t173 3t154.5 9.5t116.5 18.5v-705z" />
<glyph unicode="&#xfb02;" horiz-adv-x="1286" d="M338 1364q66 47 141.5 61.5t161.5 14.5q55 0 112.5 -3t116.5 -3q117 0 240 30v-1196q0 -59 1 -98t10 -61.5t29.5 -31.5t57.5 -9h20.5t22.5 2v-76q-78 8 -148.5 11t-129.5 3t-135 -4t-146 -14v76q6 0 12.5 -1.5t12.5 -1.5q63 0 77.5 47.5t14.5 157.5v959q0 37 -5 64.5 t-20.5 46t-44 26.5t-77.5 8q-20 0 -49 -6t-56 -30.5t-45 -76t-18 -141.5v-176h215v-80h-215v-594q0 -59 1 -98t10 -61.5t27.5 -31.5t53.5 -9h20t23 2v-76q-78 8 -145.5 11t-127.5 3q-59 0 -137 -4t-147 -14v76q6 0 17 -1.5t17 -1.5q61 0 74 50.5t13 154.5v594h-152v80h152 v127q0 74 31.5 155t113.5 140z" />
<glyph unicode="&#xfb03;" horiz-adv-x="1902" d="M1724 268q0 -59 1 -98t10.5 -61.5t30 -31.5t57.5 -9h20t23 2v-76q-78 8 -148.5 11t-130.5 3q-59 0 -134 -4t-144 -14v76q6 0 12 -1.5t12 -1.5q33 0 51.5 10.5t27.5 35t10 63.5t1 96v437q0 57 -6 88.5t-26.5 47t-58.5 18.5t-99 3h-125v-594q0 -59 1 -98t10 -61.5 t29.5 -31.5t57.5 -9h20.5t22.5 2v-76q-78 8 -148.5 11t-129.5 3t-137 -4t-148 -14v76q6 0 17.5 -1.5t17.5 -1.5q59 0 72.5 30t13.5 102v667h-311v-594q0 -59 1 -98t10 -61.5t29.5 -31.5t57.5 -9h20.5t22.5 2v-76q-78 8 -148.5 11t-130.5 3q-59 0 -137 -4t-147 -14v76 q6 0 17 -1.5t18 -1.5q59 0 72.5 30t13.5 102v667h-160v80h160v102q0 68 23.5 138.5t76.5 128t141 94.5t217 37q90 0 158 -19.5t121 -56.5q57 47 140 77t200 30q111 0 189.5 -18.5t127.5 -50.5t73 -74t24 -89q0 -78 -46.5 -120t-117.5 -42q-51 0 -81 18.5t-46.5 46 t-21.5 59.5t-5 59q0 18 1 31.5t1 23.5q0 51 -30.5 66.5t-65.5 15.5q-59 0 -93 -40t-50.5 -99.5t-19.5 -129t-3 -126.5v-62h172t173 3t154.5 9.5t116.5 18.5v-705zM807 1096q0 70 -3 121t-15.5 84.5t-38 50t-70.5 16.5q-59 0 -95 -17.5t-56.5 -59.5t-26.5 -110.5t-6 -170.5 v-68h311v154z" />
<glyph unicode="&#xfb04;" horiz-adv-x="1900" d="M1249 1444q53 -4 117 -7t119 -3q117 0 239 30v-1196q0 -59 1 -98t10.5 -61.5t30 -31.5t57.5 -9h20t23 2v-76q-78 8 -148.5 11t-130.5 3q-59 0 -135 -4t-145 -14v76q6 0 12 -1.5t12 -1.5q63 0 77.5 47.5t14.5 157.5v979q0 31 -5 54.5t-20.5 40t-44 24.5t-77.5 8 q-20 0 -49 -6t-55.5 -31.5t-45 -77t-18.5 -141.5v-176h215v-80h-215v-594q0 -59 1 -98t10 -61.5t27.5 -31.5t53.5 -9h20.5t22.5 2v-76q-78 8 -145.5 11t-126.5 3t-137 -4t-148 -14v76q6 0 17.5 -1.5t17.5 -1.5q61 0 73.5 50.5t12.5 154.5v594h-311v-594q0 -59 1 -98 t10 -61.5t29.5 -31.5t57.5 -9h20.5t22.5 2v-76q-78 8 -148.5 11t-130.5 3q-59 0 -137 -4t-147 -14v76q6 0 17 -1.5t18 -1.5q59 0 72.5 30t13.5 102v667h-160v80h160v102q0 68 23.5 138.5t76.5 128t141 94.5t217 37q94 0 165 -21.5t126 -62.5l8 6q51 37 124 58.5t173 21.5z M807 1096q0 70 -3 121t-15.5 84.5t-38 50t-70.5 16.5q-59 0 -95 -17.5t-56.5 -59.5t-26.5 -110.5t-6 -170.5v-68h311v154z" />
<glyph unicode="fb" horiz-adv-x="1847" d="M1108 997q0 -39 -6 -98t-15 -98l7 -2q37 76 105.5 121t160.5 45q193 0 302.5 -125t109.5 -369q0 -117 -34 -211t-94.5 -160.5t-143.5 -102.5t-181 -36q-53 0 -103.5 15.5t-115.5 52.5q-41 20 -74 20q-31 0 -60.5 -15.5t-52.5 -49.5h-102v1261q0 31 -5 54.5t-20.5 40 t-44 24.5t-77.5 8q-20 0 -49 -6t-56 -31.5t-45 -77t-18 -141.5v-174h215v-80h-215v-600q0 -59 1 -98t10 -61.5t27.5 -32t53.5 -9.5h20t23 2v-71q-78 8 -145.5 11t-127.5 3q-59 0 -137 -4t-147 -14v71q6 0 17 -1t18 -1q61 0 73.5 50.5t12.5 154.5v600h-160v80h160v125 q0 59 20.5 126t71.5 122t136 91t214 36q53 -4 116.5 -5t118.5 -1q59 0 118 5t120 21zM1462 498q0 70 -7 140.5t-25.5 127.5t-49 92t-75.5 35t-82 -36t-65 -98.5t-43 -146.5t-15 -178q0 -80 8 -151.5t28.5 -126t54.5 -87t87 -32.5q45 0 79 34.5t57.5 96t35.5 147t12 183.5z " />
<glyph unicode="ffb" horiz-adv-x="2457" d="M1718 997q0 -39 -6 -98t-14 -98l6 -2q37 76 105.5 121t160.5 45q193 0 302.5 -125t109.5 -369q0 -117 -34 -211t-94.5 -160.5t-143 -102.5t-181.5 -36q-53 0 -103 15.5t-116 52.5q-41 20 -74 20q-31 0 -60.5 -15.5t-51.5 -49.5h-103v1261q0 31 -5 54.5t-20.5 40t-44 24.5 t-77.5 8q-20 0 -49 -6t-55.5 -31.5t-45 -77t-18.5 -141.5v-174h215v-80h-215v-596q0 -59 1 -98t10 -61.5t27.5 -31.5t53.5 -9h20.5t22.5 2v-76q-78 8 -145.5 11t-126.5 3t-137 -4t-148 -14v75q6 0 17.5 -1t17.5 -1q61 0 73.5 50.5t12.5 154.5v596h-311v-596q0 -59 1 -98 t10 -61.5t29.5 -31.5t57.5 -9h20.5t22.5 2v-76q-78 8 -148.5 11t-130.5 3q-59 0 -137 -4t-147 -14v75q6 0 17 -1t17 -1q59 0 73 30t14 102v669h-160v80h160v100q0 68 23.5 138.5t76.5 128t141 94.5t217 37q182 0 291 -84q53 39 127 62.5t178 23.5q53 -4 116.5 -5t119.5 -1 q59 0 117.5 5t119.5 21zM2073 498q0 70 -7.5 140.5t-26 127.5t-49 92t-75.5 35t-82 -36t-64.5 -98.5t-43 -146.5t-15.5 -178q0 -80 8 -151.5t28.5 -126t54.5 -87t87 -32.5q45 0 79 34.5t57.5 96t36 147t12.5 183.5zM805 1094q0 70 -3 121t-15.5 84.5t-38 50t-70.5 16.5 q-59 0 -95 -17.5t-56.5 -59.5t-26.5 -110.5t-6 -170.5v-66h311v152z" />
<glyph unicode="ffh" horiz-adv-x="2502" d="M1423 1247q0 31 -5 54.5t-20.5 40t-44 24.5t-77.5 8q-20 0 -49 -6t-55.5 -31.5t-45 -77t-18.5 -141.5v-176h215v-80h-215v-594q0 -59 1 -98t10 -61.5t27.5 -31.5t53.5 -9h20.5t22.5 2v-76q-78 8 -145.5 11t-126.5 3t-137 -4t-148 -14v76q6 0 17.5 -1.5t17.5 -1.5 q61 0 73.5 50.5t12.5 154.5v594h-311v-594q0 -59 1 -98t10 -61.5t29.5 -31.5t57.5 -9h20.5t22.5 2v-76q-78 8 -148.5 11t-130.5 3q-59 0 -137 -4t-147 -14v76q6 0 17 -1.5t18 -1.5q59 0 72.5 30t13.5 102v667h-160v80h160v102q0 68 23.5 138.5t76.5 128t141 94.5t217 37 q182 0 291 -84q53 39 127 62.5t178 23.5q53 -4 117 -5t119 -1q59 0 118.5 5t120.5 21v-430q0 -39 -1 -96t-9 -96l8 -2q82 131 275 131q119 0 186.5 -33t101 -85t43 -115.5t9.5 -125.5v-344q0 -59 1 -98t10 -61.5t29.5 -31.5t57.5 -9h20.5t22.5 2v-76q-78 8 -148.5 11 t-129.5 3t-132 -4t-143 -14v76q6 0 12.5 -1.5t12.5 -1.5q33 0 50 10.5t25.5 35t9.5 63.5t1 96v303q0 90 -6.5 148.5t-20.5 93.5t-37.5 49.5t-58.5 14.5q-29 0 -62.5 -13.5t-61.5 -53.5t-46.5 -112.5t-18.5 -193.5v-236q0 -59 2.5 -98t11.5 -61.5t28.5 -31.5t56.5 -9h20t23 2 v-76q-78 8 -148.5 11t-130.5 3q-59 0 -137 -4t-147 -14v76q6 0 17 -1.5t17 -1.5q59 0 72.5 30t13.5 102v1052zM496 942h311v154q0 70 -3 121t-15.5 84.5t-38 50t-70.5 16.5q-59 0 -95 -17.5t-56.5 -59.5t-26.5 -110.5t-6 -170.5v-68z" />
<glyph unicode="fh" horiz-adv-x="1890" d="M811 1247q0 31 -5 54.5t-20.5 40t-44 24.5t-77.5 8q-20 0 -49 -6t-56 -31.5t-45 -77t-18 -141.5v-176h215v-80h-215v-594q0 -59 1 -98t10 -61.5t27.5 -31.5t53.5 -9h20t23 2v-76q-78 8 -145.5 11t-127.5 3q-59 0 -137 -4t-147 -14v76q6 0 17 -1.5t18 -1.5q61 0 73.5 50.5 t12.5 154.5v594h-160v80h160v127q0 59 20.5 126t71.5 122t136 91t214 36q53 -4 116.5 -5t118.5 -1q59 0 119 5t121 21v-479q0 -39 -1 -76t-9 -75l8 -3q35 66 107.5 104t168.5 38q119 0 186.5 -34t101.5 -86t42 -115.5t8 -125.5v-344q0 -59 1 -98t10.5 -61.5t30 -31.5 t57.5 -9h20t23 2v-76q-78 8 -148.5 11t-130.5 3q-59 0 -132 -4t-142 -14v76q6 0 12 -1.5t12 -1.5q33 0 50.5 10.5t25.5 35t9 63.5t1 96v303q0 90 -7 149.5t-22.5 94.5t-38 49.5t-55.5 14.5q-29 0 -62.5 -13.5t-61 -55.5t-46 -120t-18.5 -207v-215q0 -59 2 -98t11.5 -61.5 t29 -31.5t55.5 -9h20.5t22.5 2v-76q-78 8 -148.5 11t-129.5 3t-137 -4t-148 -14v76q6 0 17.5 -1.5t17.5 -1.5q59 0 72.5 30t13.5 102v1052z" />
<glyph unicode="fj" horiz-adv-x="1251" d="M807 705q0 57 -6 88.5t-26.5 47t-58.5 18.5t-100 3h-124v-594q0 -59 1 -98t10 -61.5t29.5 -31.5t57.5 -9h20.5t22.5 2v-76q-78 8 -148.5 11t-130.5 3q-59 0 -137 -4t-147 -14v76q6 0 17 -1.5t17 -1.5q59 0 72.5 30t13.5 102v667h-151v80h151v143q0 72 27 141.5t83 124 t144 88.5t211 34q111 0 190 -18.5t128 -50.5t72.5 -74t23.5 -89q0 -78 -46 -120t-118 -42q-51 0 -80.5 18.5t-46 46t-21.5 59.5t-5 59q0 18 1 31.5t1 23.5q0 51 -31 66.5t-66 15.5q-59 0 -93 -40t-50 -99.5t-19 -129t-3 -126.5v-62h172t173 3t154.5 9.5t116.5 18.5v-985 q0 -88 -8 -170t-42 -146.5t-101.5 -103.5t-184.5 -39q-61 0 -124.5 16.5t-96.5 38.5l31 68q29 -23 61.5 -30t56.5 -7q37 0 58.5 17.5t33 44t14.5 60.5t3 68z" />
<glyph unicode="fk" horiz-adv-x="1837" d="M1110 268q0 -59 1 -98t10 -61.5t29.5 -31.5t57.5 -9h20.5t22.5 2v-76q-78 8 -148.5 11t-129.5 3t-137 -4t-148 -14v76q6 0 17.5 -1.5t17.5 -1.5q59 0 72.5 30t13.5 102v1054q0 31 -4 54.5t-19.5 40t-44 24.5t-77.5 8q-20 0 -49 -6t-56 -31.5t-45 -77t-18 -141.5v-178h215 v-80h-215v-596q0 -59 1 -97t10 -60.5t27.5 -30.5t53.5 -8h20t23 2v-76q-78 8 -145.5 11t-127.5 3q-59 0 -137 -4t-147 -14v76q6 0 17 -1t18 -1q61 0 73.5 48t12.5 152v596h-160v80h160v129q0 59 20.5 126t71.5 122t136 91t214 36q53 -4 116.5 -5t118.5 -1q59 0 118 5t120 21 v-899q29 0 52.5 2t47 10.5t49 26t60.5 49.5l80 76q35 33 51 60.5t18 44.5q0 37 -79 36q-16 0 -31 -1t-35 -3v78q47 -4 99.5 -7t101.5 -3q66 0 137.5 5t132.5 17v-75h-35q-29 0 -52.5 -6.5t-49 -21.5t-54 -39.5t-67.5 -63.5l-178 -177q41 0 74.5 -16t64.5 -70l186 -329 q31 -53 55.5 -72.5t76.5 -19.5h21t22 2v-76q-33 4 -74 7t-82 3q-59 0 -133 -6t-119 -16q-12 27 -20.5 50t-19.5 47.5t-26.5 56.5t-42.5 75l-116 197q-18 31 -29.5 49t-23 28.5t-25.5 13.5t-37 3v-234z" />
<glyph unicode="ft" horiz-adv-x="1353" d="M496 862v-594q0 -59 1 -98t10 -61.5t27.5 -31.5t53.5 -9h20t23 2v-76q-78 8 -145.5 11t-127.5 3q-59 0 -137 -4t-147 -14v76q6 0 17 -1.5t18 -1.5q61 0 73.5 50.5t12.5 154.5v594h-160v80h160v127q0 106 38.5 179t103 116t150.5 61.5t183 18.5q113 0 227.5 -21.5 t214.5 -44.5v-436h215v-80h-217v-631q0 -68 10 -111.5t45 -43.5t65 37t50 90l70 -41q-31 -86 -106 -142.5t-173 -56.5q-127 0 -194.5 62.5t-67.5 220.5v616h-313zM811 942v311q0 31 -5 54.5t-20.5 40t-44 24.5t-77.5 8q-20 0 -49 -7t-56 -33.5t-45 -79t-18 -142.5v-176h315z " />
<glyph unicode="tt" horiz-adv-x="1337" d="M475 862v-624q0 -68 10.5 -112t44.5 -44q35 0 65 37t50 90l70 -41q-31 -86 -105.5 -142.5t-173.5 -56.5q-127 0 -194.5 62.5t-67.5 220.5v610h-147v80q172 0 261 79t89 239h98v-318h166q172 0 261 79t89 239h99v-318h227v-80h-227v-624q0 -68 10 -112t45 -44t64.5 37 t50.5 90l69 -41q-31 -86 -105.5 -142.5t-172.5 -56.5q-127 0 -195 62.5t-68 220.5v610h-313z" />
<glyph horiz-adv-x="0" />
<glyph unicode="&#xd;" />
<glyph horiz-adv-x="0" />
<glyph horiz-adv-x="0" />
<glyph unicode=" "  horiz-adv-x="446" />
<glyph unicode="&#x09;" horiz-adv-x="446" />
<glyph unicode="&#xa0;" horiz-adv-x="446" />
<glyph unicode="!" horiz-adv-x="614" d="M307 1470q90 0 137.5 -55t47.5 -143q0 -35 -3.5 -59.5t-7.5 -48t-11 -47t-15 -56.5q-14 -53 -31.5 -112.5t-33 -124t-27 -133t-11.5 -138.5q0 -61 6 -125h-102q6 63 6 125q0 70 -11 138.5t-26.5 133t-33 124t-31.5 112.5q-8 33 -15.5 56.5t-11.5 47t-7 48t-3 59.5 q0 88 47 143t137 55zM137 143q0 72 49.5 121t120.5 49q72 0 121 -49t49 -121t-49 -121t-121 -49t-121 49t-49 121z" />
<glyph unicode="&#x22;" horiz-adv-x="749" d="M221 1470q59 0 87 -35.5t28 -95.5q0 -37 -6 -83t-13.5 -95t-16.5 -99t-15 -95h-127l-15 96q-10 70 -23.5 145.5t-13.5 130.5q0 59 28 95t87 36zM528 1470q59 0 87 -35.5t28 -95.5q0 -37 -6 -83t-13.5 -95t-16.5 -99t-15 -95h-127q-6 37 -10 58.5t-5 31.5t-2.5 13t-1.5 5 q-12 66 -22 138.5t-10 125.5q0 59 27.5 95t86.5 36z" />
<glyph unicode="#" horiz-adv-x="1142" d="M211 1079h223l86 391h127l-86 -391h197l86 391h127l-86 -391h198l-41 -196h-200l-64 -283h197l-41 -197h-199l-96 -442h-127l96 442h-196l-97 -442h-127l97 442h-226l43 197h226l63 283h-223zM455 600h196l64 283h-197z" />
<glyph unicode="$" horiz-adv-x="1128" d="M621 1434q117 -4 196.5 -35t128.5 -74t70.5 -89t21.5 -81q0 -31 -8 -61.5t-26.5 -55t-48 -40t-72.5 -15.5q-41 0 -70 15.5t-45 39t-23.5 48t-7.5 42.5q0 27 3 40.5t7.5 24.5t7.5 25.5t3 43.5q0 45 -38 71.5t-99 30.5v-475q74 -31 151.5 -64.5t141 -86t103.5 -132.5 t40 -203q0 -96 -34 -167.5t-92.5 -120.5t-138 -77t-171.5 -36v-248h-97v246q-121 2 -207 30.5t-141 74t-80.5 98.5t-25.5 102q0 27 7 56.5t25.5 56t49 44t75.5 17.5q78 0 117 -42t39 -109q0 -31 -3 -48.5t-8 -32t-8.5 -28.5t-3.5 -37q0 -109 164 -110v526 q-72 29 -144.5 60.5t-132 80.5t-96 123t-36.5 187q0 166 109.5 265t299.5 116v188h97v-184zM791 319q0 90 -49.5 143.5t-120.5 90.5v-469q86 25 128 89t42 146zM358 1149q0 -86 47.5 -135t118.5 -84v430q-94 -18 -130 -78.5t-36 -132.5z" />
<glyph unicode="%" horiz-adv-x="1681" d="M1149 1556l104 -47l-764 -1724l-104 47zM57 1079q0 88 27 160t76 123t116.5 79.5t149.5 28.5t150.5 -28.5t117.5 -79.5t76 -123t27 -160t-27 -159.5t-76 -123t-117.5 -80t-150.5 -28.5t-149.5 28.5t-116.5 80t-76 123t-27 159.5zM272 1079q0 -72 7.5 -132t25 -105t47 -71 t74.5 -26t75.5 26t48 71t25 105.5t7.5 131.5q0 70 -7.5 131.5t-25 106.5t-48 70.5t-75.5 25.5t-74.5 -25.5t-47 -70.5t-25 -106.5t-7.5 -131.5zM883 354q0 88 26.5 160t75.5 123t116.5 79.5t149.5 28.5t150.5 -28.5t118 -79.5t76 -123t26.5 -160t-26.5 -159.5t-76 -123 t-118 -80t-150.5 -28.5t-149.5 28.5t-116.5 80t-75.5 123t-26.5 159.5zM1098 354q0 -72 7 -132t24.5 -105t47 -71t74.5 -26t76 26t48.5 71t24.5 105.5t7 131.5q0 70 -7 131.5t-24.5 106.5t-48.5 70.5t-76 25.5t-74.5 -25.5t-47 -70.5t-24.5 -106.5t-7 -131.5z" />
<glyph unicode="&#x26;" horiz-adv-x="1548" d="M1083 344q18 35 40 95.5t22 113.5q0 23 -2 42t-12.5 33.5t-32 22.5t-58.5 8q-20 0 -33.5 -1t-29.5 -3v82q41 -4 88 -6t98 -2q63 0 139 3t130 11v-81q-10 2 -20.5 2h-20.5q-63 0 -92 -35t-47.5 -92.5t-38 -128t-62.5 -140.5q12 0 33.5 -25.5t50.5 -57t63.5 -57.5t71.5 -26 q25 0 49.5 14.5t48.5 49.5l70 -45q-25 -43 -60.5 -74t-76.5 -50.5t-85 -27.5t-85 -8q-68 0 -132.5 28.5t-115.5 94.5q-55 -41 -104.5 -65.5t-96.5 -37t-93 -15.5t-95 -3q-115 0 -211 24.5t-166 74t-108.5 126t-38.5 181.5q0 63 17 120.5t57 106.5t104.5 92t159.5 78 q-94 100 -140.5 187t-46.5 198q0 61 25.5 118.5t79 101.5t133.5 71.5t190 27.5q86 0 161 -17t130 -53t88 -92.5t33 -133.5q0 -84 -35 -143.5t-88 -101.5t-115.5 -71t-115.5 -51zM809 1171q0 121 -43 176.5t-119 55.5q-35 0 -66.5 -10.5t-56 -35t-39 -64.5t-14.5 -97 t19.5 -103t47 -84t56.5 -70t49 -62q86 55 126 126.5t40 167.5zM459 709q-41 -37 -63.5 -70t-34 -65.5t-14.5 -68.5t-3 -79q0 -80 27.5 -148.5t74 -117.5t104.5 -78t122 -29q35 0 63.5 2t56 11.5t57.5 28t69 48.5z" />
<glyph unicode="'" horiz-adv-x="442" d="M221 1470q59 0 87 -35.5t28 -95.5q0 -39 -6 -86t-13.5 -96t-16.5 -98t-15 -92h-127l-17 106q-10 66 -22.5 134.5t-12.5 121.5q0 63 24.5 102t90.5 39z" />
<glyph unicode="(" horiz-adv-x="624" d="M346 582q0 -166 16.5 -302.5t47 -250t75.5 -211t105 -185.5l-78 -53q-100 125 -183 248t-142.5 247t-92.5 250t-33 257t33 258t92.5 252t142.5 247.5t183 247.5l78 -53q-59 -88 -104.5 -185.5t-76 -213t-47 -251.5t-16.5 -302z" />
<glyph unicode=")" horiz-adv-x="624" d="M279 582q0 166 -16.5 302t-47.5 251.5t-77 213t-103 185.5l78 53q100 -125 183 -247.5t142.5 -247.5t92 -252t32.5 -258t-32.5 -257t-92 -250t-142.5 -247t-183 -248l-78 53q57 88 103 185.5t77 211t47.5 250t16.5 302.5z" />
<glyph unicode="*" horiz-adv-x="831" d="M391 1174q0 31 -10 57t-23.5 50t-23.5 47.5t-10 49.5q0 45 28.5 68.5t65.5 23.5t65.5 -22.5t28.5 -69.5q0 -27 -11.5 -50t-24.5 -47t-24.5 -50.5t-11.5 -56.5l6 -5q33 10 56.5 33t45 45.5t45 40t58.5 17.5q41 0 65.5 -29t24.5 -70q0 -35 -23.5 -63.5t-76.5 -28.5 q-31 0 -61.5 7t-65.5 7q-27 0 -51 -6l-2 -6q20 -31 54 -48t64.5 -33.5t53 -38t22.5 -60.5q0 -37 -30.5 -65.5t-67.5 -28.5q-45 0 -63.5 25.5t-26.5 63.5t-16.5 81t-30.5 75h-8q-23 -33 -31 -75.5t-17.5 -80.5t-28 -63.5t-63.5 -25.5q-37 0 -66.5 28.5t-29.5 65.5 q0 39 22.5 60.5t53.5 38t63.5 33.5t55.5 48l-2 6q-29 6 -52 6q-35 0 -65.5 -7t-58.5 -7q-53 0 -78 28.5t-25 63.5q0 41 25.5 70t66.5 29q33 0 56.5 -17.5t44 -40t44 -45t58.5 -33.5z" />
<glyph unicode="+" d="M565 979v-422h414v-94h-414v-420h-102v420h-416v94h416v422h102z" />
<glyph unicode="," horiz-adv-x="571" d="M248 -27q-59 0 -103.5 47.5t-44.5 112.5q0 37 12.5 71t36 61.5t58.5 44t78 16.5q86 0 133 -54.5t47 -132.5q0 -104 -36 -188t-85 -147.5t-103.5 -105.5t-90.5 -65l-44 70q12 6 43 31.5t63 61.5t55.5 75t23.5 72q0 20 -11.5 25t-31.5 5z" />
<glyph unicode="-" horiz-adv-x="776" d="M131 633h514v-121h-514v121z" />
<glyph unicode="." horiz-adv-x="561" d="M100 154q0 76 52.5 128t128.5 52q78 0 129 -52.5t51 -127.5q0 -76 -51.5 -128.5t-128.5 -52.5q-76 0 -128.5 52.5t-52.5 128.5z" />
<glyph unicode="/" horiz-adv-x="954" d="M791 1559l116 -41l-745 -1711l-117 41z" />
<glyph unicode="0" horiz-adv-x="1169" d="M90 657q0 162 34 292t98.5 220.5t155.5 138.5t208 48q115 0 207 -48t155.5 -138.5t97 -220.5t33.5 -292t-33.5 -290.5t-97 -218t-156 -137.5t-206.5 -48q-117 0 -208 48t-155.5 137.5t-98.5 218t-34 290.5zM381 657q0 -299 42 -459.5t163 -160.5q119 0 160.5 160.5 t41.5 459.5q0 150 -9 266.5t-32.5 196.5t-62.5 121t-98 41q-61 0 -100.5 -41t-63 -121t-32.5 -196.5t-9 -266.5z" />
<glyph unicode="1" horiz-adv-x="894" d="M659 264q2 -113 26 -154.5t89 -41.5q39 0 82 6q4 0 8 1t8 1v-80q-59 4 -104 6t-84 3t-76 1h-78h-83.5t-84 -1t-91.5 -3t-107 -6v80q43 -6 96 -6q76 0 105.5 42t29.5 152v721q0 76 -14 100.5t-41 24.5q-10 0 -31.5 -4t-44.5 -14q-51 -20 -108.5 -48t-96.5 -53l-34 96 q111 41 187.5 75t136 66t108.5 63.5t104 68.5l111 -35q-2 -23 -4 -67t-4 -92t-3.5 -95t-1.5 -76v-731v0z" />
<glyph unicode="2" horiz-adv-x="1087" d="M682 1036q0 109 -44 179.5t-142 70.5q-59 0 -93 -28.5t-34 -83.5q0 -31 13 -60t13 -63q0 -59 -44 -101.5t-113 -42.5q-68 0 -113 46t-45 112q0 57 30.5 110.5t88 93.5t138.5 64.5t183 24.5q119 0 204 -31t140.5 -79t81 -107.5t25.5 -118.5q0 -84 -33 -150.5t-85 -121 t-114.5 -98.5t-122.5 -79l-30 -18q-49 -29 -98.5 -64.5t-92.5 -80.5t-72.5 -100.5t-37.5 -119.5q39 4 83 8.5t101 4.5h244q57 0 91 23.5t52 57t24.5 70.5t6.5 66l121 -14q-23 -100 -33 -204t-19 -208q-115 10 -192.5 11t-145.5 1h-221q-63 0 -145 -2t-168 -12 q0 145 44 243.5t110.5 172t144.5 134t144.5 128t110.5 153.5t44 213z" />
<glyph unicode="3" horiz-adv-x="1091" d="M416 1057q0 -61 -48.5 -101.5t-103.5 -40.5q-74 0 -118 45.5t-44 108.5q0 55 30 107.5t86 92.5t137 63.5t184 23.5q119 0 200.5 -30t134 -77t76 -104.5t23.5 -114.5q0 -96 -32 -159.5t-76 -101.5t-91 -56.5t-80 -22.5v-10q37 -4 89.5 -22.5t101.5 -59.5t82.5 -104.5 t33.5 -155.5q0 -111 -47 -183.5t-118.5 -114.5t-155.5 -59.5t-158 -17.5q-104 0 -188 23.5t-141.5 63.5t-88 94.5t-30.5 115.5q0 20 7 48t25.5 52.5t50 41t83.5 16.5q37 0 64.5 -12.5t46 -33t27.5 -44t9 -47.5q0 -35 -11 -69t-11 -69q0 -37 13 -57t34.5 -31.5t45 -14.5 t46.5 -3q90 0 145.5 79t55.5 230q0 86 -24 143.5t-62.5 91t-91 48t-109.5 14.5q-10 0 -22.5 -1t-22.5 -3v84q10 -2 18 -2h17q61 0 112 13.5t89 48t58.5 95t20.5 152.5q0 45 -10 90t-30.5 81t-54.5 58.5t-79 22.5q-57 0 -92 -25.5t-35 -72.5q0 -35 14.5 -62.5t14.5 -64.5z " />
<glyph unicode="4" horiz-adv-x="1105" d="M563 498v323q0 41 1 91.5t5 103.5l-403 -518h397zM563 354h-354h-77t-91 -4l-27 146q301 354 466 575t192 287l168 -51q-4 -55 -7.5 -96.5t-4.5 -78t-1 -75.5v-92v-467h54h82t90 4v-152q-43 4 -90.5 4h-81.5h-54v-92q0 -55 5.5 -93t16.5 -60.5t30.5 -31.5t50.5 -9 q29 0 49 2t47 6v-80q-59 4 -102 6t-80 3t-71 1h-77h-83t-83 -1t-91 -3t-107 -6v80q43 -6 96 -6q76 0 104.5 41t30.5 151v92z" />
<glyph unicode="5" horiz-adv-x="1085" d="M256 725q43 41 110.5 69.5t172.5 28.5q98 0 181 -27.5t143.5 -80.5t94 -129t33.5 -174q0 -127 -48 -213t-120.5 -138.5t-157.5 -75t-159 -22.5q-203 0 -316.5 81t-113.5 216q0 29 10 57.5t30.5 51t51.5 37t72 14.5t69.5 -14.5t46 -36t25.5 -47t8 -50.5q0 -37 -13.5 -65.5 t-13.5 -63.5q0 -57 34 -81.5t91 -24.5q43 0 81 20.5t68 65.5t46 115.5t16 171.5q0 154 -48 239.5t-150 85.5q-82 0 -135.5 -36.5t-92.5 -110.5l-143 16q23 160 38 329t15 347v45q47 -4 121 -7t146 -3h243q49 0 108.5 1t137.5 9q2 -53 4 -98t6 -88t10.5 -86t14.5 -92 l-107 -11q-4 53 -11 85t-26.5 49.5t-54.5 22.5t-90 5h-262q-25 0 -49.5 -2t-43 -13.5t-31.5 -34t-17 -63.5z" />
<glyph unicode="6" horiz-adv-x="1144" d="M383 678q94 125 266 125q86 0 161 -26.5t129 -79t85 -131.5t31 -185q0 -100 -36 -178t-97.5 -131.5t-145.5 -81t-180 -27.5q-133 0 -228.5 51.5t-156.5 139.5t-91 204.5t-30 245.5q0 168 25.5 289t69.5 205t99.5 134t114 77.5t116.5 37t106 9.5q125 0 203.5 -31 t122.5 -74t60.5 -90t16.5 -80q0 -25 -8 -53.5t-26.5 -53t-49.5 -40.5t-76 -16q-74 0 -113.5 41.5t-39.5 101.5q0 35 10 58.5t10 58.5q0 94 -96 94q-137 0 -197.5 -158t-62.5 -436h8zM764 377q0 154 -41 249t-133 95q-88 0 -136 -96.5t-48 -251.5q0 -72 12 -132.5 t34.5 -106.5t57.5 -71.5t80 -25.5q86 0 130 95t44 245z" />
<glyph unicode="7" horiz-adv-x="960" d="M737 1120q-47 -10 -85 -13t-81 -3h-241q-55 0 -90 -10.5t-53.5 -33t-26.5 -59t-10 -90.5l-109 9q16 86 26.5 184t10.5 176v45q80 -8 136 -9t103 -1h224q35 0 88 1t108.5 2t103.5 3t72 4l37 -63q-78 -131 -147.5 -254t-122.5 -233.5t-84 -208t-31 -179.5 q0 -63 18.5 -121.5t18.5 -122.5q0 -49 -14.5 -82.5t-38 -55t-52 -32t-57.5 -10.5q-92 0 -133 44t-41 114q0 106 62.5 249.5t179.5 348.5l229 401v0z" />
<glyph unicode="8" horiz-adv-x="1116" d="M358 649q-68 33 -112.5 71t-70 81t-37 93t-11.5 110q0 61 25.5 124.5t80 113.5t139.5 82t203 32q201 0 307.5 -90t106.5 -228q0 -55 -20.5 -102t-55 -86t-80 -68.5t-96.5 -50.5q61 -29 114.5 -66.5t93.5 -87t62.5 -109.5t22.5 -130q0 -78 -31.5 -146.5t-94 -118.5 t-154 -80t-207.5 -30q-219 0 -338 95.5t-119 254.5q0 137 73.5 215t198.5 121zM379 1053q0 -47 17.5 -82t46 -62.5t63.5 -49t72 -42.5l59 -33q27 16 51.5 34t44 46.5t30.5 71.5t11 111q0 39 -12 79.5t-37 75.5t-61.5 57.5t-88.5 22.5q-55 0 -93 -20.5t-60.5 -54t-32.5 -74.5 t-10 -80zM768 285q0 57 -26.5 102t-71.5 82t-101.5 67.5t-115.5 61.5q-55 -29 -96.5 -100.5t-41.5 -192.5q0 -53 14.5 -102t42 -86t70.5 -58.5t101 -21.5q61 0 104 21.5t69.5 57.5t39 80t12.5 89z" />
<glyph unicode="9" horiz-adv-x="1150" d="M383 946q0 -74 12.5 -136t35 -108.5t55 -72t73.5 -25.5q88 0 136 93.5t48 248.5q0 70 -12 131.5t-34.5 106.5t-57.5 71.5t-80 26.5q-43 0 -75.5 -26.5t-55 -71.5t-34 -106.5t-11.5 -131.5zM762 651q-78 -129 -248 -129q-90 0 -166 23.5t-133 73t-89 126t-32 183.5 q0 102 35 182t96.5 134t146.5 83t183 29q133 0 229.5 -51.5t158 -139.5t90 -203.5t28.5 -246.5q0 -250 -56.5 -399.5t-137.5 -227.5t-172 -101.5t-160 -23.5q-127 0 -209 28.5t-129 69.5t-65.5 87.5t-18.5 82.5q0 86 50 132.5t120 46.5q59 0 105 -38t46 -104q0 -23 -3 -38 t-8 -29.5t-8 -27.5t-3 -30q0 -47 28.5 -76.5t79.5 -29.5q68 0 115 45t76.5 126t44 193.5t16.5 249.5h-10z" />
<glyph unicode=":" horiz-adv-x="610" d="M125 154q0 76 52 128t128 52q78 0 129 -52.5t51 -127.5q0 -76 -51 -128.5t-129 -52.5q-76 0 -128 52.5t-52 128.5zM125 786q0 76 52 128.5t128 52.5q78 0 129 -52.5t51 -128.5t-51 -128t-129 -52q-76 0 -128 52t-52 128z" />
<glyph unicode=";" horiz-adv-x="614" d="M125 786q0 76 52 128.5t128 52.5q78 0 129 -52.5t51 -128.5t-51 -128t-129 -52q-76 0 -128 52t-52 128zM272 -27q-59 0 -103 47.5t-44 112.5q0 37 12.5 71t36 61.5t58 44t77.5 16.5q86 0 131 -54.5t45 -132.5q0 -104 -34.5 -188t-84 -147.5t-102.5 -105.5t-90 -65l-43 70 q12 6 43 31.5t62.5 61.5t55 75t23.5 72q0 20 -11.5 25t-31.5 5z" />
<glyph unicode="&#x3c;" d="M86 535l786 444l46 -88l-717 -402l717 -405l-46 -84l-786 442v93z" />
<glyph unicode="=" d="M977 707v-91h-930v91h930zM977 391v-90h-930v90h930z" />
<glyph unicode="&#x3e;" d="M938 442l-786 -442l-46 84l717 405l-717 402l46 88l786 -444v-93z" />
<glyph unicode="?" horiz-adv-x="1054" d="M326 143q0 72 49 121t121 49t121 -49t49 -121t-49.5 -121t-120.5 -49q-72 0 -121 49t-49 121zM442 426q-6 55 -6 102q0 94 23.5 169t72.5 145q10 14 35 47t49.5 75t44 91t19.5 98q0 37 -7 80t-27.5 80t-56.5 61.5t-91 24.5q-72 0 -106 -35t-34 -88q0 -31 4.5 -45 t8.5 -25.5t8 -27t4 -45.5q0 -70 -43 -116t-115 -46q-166 0 -166 180q0 70 35 128t97.5 101t147.5 66.5t185 23.5q229 0 349 -92t120 -241q0 -100 -33.5 -163t-85 -108t-109.5 -80.5t-109.5 -78.5t-85 -102.5t-33.5 -151.5q0 -6 1 -13.5t1 -13.5h-97z" />
<glyph unicode="@" horiz-adv-x="2060" d="M784 305q0 -10 -1 -19.5t-1 -19.5q0 -199 101 -198q66 0 122 55t96 139t62.5 184.5t22.5 190.5q0 33 -3 67.5t-13.5 63.5t-31 47.5t-53.5 18.5q-55 0 -107 -42t-94 -115t-69 -169.5t-31 -202.5zM1149 158q-18 -25 -47 -55.5t-66 -56.5t-81 -43t-95 -17q-37 0 -93 9 t-108.5 44t-90.5 106.5t-38 194.5q0 113 39 216t107.5 181t163 125t204.5 47q63 0 102.5 -10t64 -23.5t41 -23.5t38.5 -10q18 0 30.5 5t37.5 36l119 -15l-15 -63q-25 -109 -45 -212.5t-41 -211.5q-10 -51 -19 -103.5t-9 -97.5q0 -53 20.5 -86t75.5 -33q76 0 133 44.5t96 120 t57.5 174t18.5 208.5q0 172 -48 296t-131 204t-198 118t-246 38q-152 0 -298 -59.5t-261.5 -174.5t-187.5 -280.5t-72 -380.5q0 -195 51.5 -332t139.5 -225t207.5 -128t257.5 -40q59 0 129.5 7t152.5 27l6 -88q-180 -35 -319 -34q-207 0 -366.5 61t-269.5 170t-167 255 t-57 316q0 115 29.5 233t89 228.5t147.5 205.5t203.5 167t260 113t316.5 41q219 0 382 -60.5t269.5 -163t158.5 -235.5t52 -277q0 -139 -46 -254.5t-123.5 -199.5t-180 -131.5t-215.5 -47.5t-185.5 43.5t-80.5 137.5z" />
<glyph unicode="A" horiz-adv-x="1476" d="M1286 242q16 -39 28.5 -71t29 -53.5t40 -33.5t62.5 -12q10 0 24.5 1t26.5 3v-82q-80 6 -171 9t-167 3t-176 -3t-182 -9v82q12 -2 29.5 -3t37.5 -1q41 0 77 13t36 54q0 18 -5 38t-22 61l-108 274h-449l-96 -254q-23 -63 -22 -104q0 -53 35.5 -69.5t86.5 -16.5q23 0 46.5 2 t39.5 6v-82q-82 6 -146.5 9t-139.5 3q-39 0 -68 -1t-53.5 -2t-48 -4t-51.5 -5v82q10 -2 30 -2q41 0 66.5 4t44 22.5t35 53t41.5 96.5l481 1220h108zM430 594h385q-49 123 -81 207t-51 139t-29.5 90t-18.5 64h-10z" />
<glyph unicode="B" horiz-adv-x="1394" d="M55 76q23 -4 38.5 -5t31.5 -1q37 0 62.5 6t41 27.5t22.5 64.5t7 115v868q0 70 -6 112t-21.5 64.5t-39 29.5t-56.5 7q-23 0 -38 -1t-42 -5v82l31 -2q25 -2 61.5 -3t76.5 -2t77 -2t61 -1q55 0 99.5 2t86.5 4t88 4t107 2q162 0 265.5 -29t163 -78t82 -113.5t22.5 -134.5 q0 -76 -36 -135t-92 -99t-125 -61.5t-134 -23.5v-10q70 0 145.5 -20.5t139 -63.5t103.5 -109.5t40 -158.5q0 -121 -42 -200t-120 -126t-190.5 -66.5t-253.5 -19.5q-68 0 -136.5 6t-150.5 6q-72 0 -158 -3t-164 -7l-47 -2v82zM559 788q20 -2 30.5 -3t28.5 -1q162 0 249 72 t87 242q0 125 -66.5 200.5t-185.5 75.5q-53 0 -81.5 -8t-43 -27.5t-16.5 -54.5t-2 -90v-406zM559 244q0 -53 7 -89t24.5 -56.5t44.5 -29t65 -8.5q49 0 101.5 13.5t93.5 50.5t67.5 101.5t26.5 168.5q0 86 -22.5 146.5t-63.5 99.5t-98 56.5t-127 17.5q-47 0 -67.5 -1t-51.5 -5 v-465z" />
<glyph unicode="C" horiz-adv-x="1327" d="M1227 1417q2 -53 4 -97t5 -86t9 -87t15 -100l-103 -7q-6 106 -36.5 177t-77 111t-102.5 56.5t-116 16.5q-193 0 -298 -177t-105 -507q0 -147 23.5 -269t71.5 -210t122 -137.5t176 -49.5q68 0 129.5 20.5t113.5 57.5t92 87t64 108l82 -37q-78 -168 -218 -246t-306 -78 q-154 0 -282 49t-220 144.5t-143 235.5t-51 325q0 182 55 322.5t154.5 236.5t235.5 145t298 49q139 0 240.5 -18.5t167.5 -34.5z" />
<glyph unicode="D" horiz-adv-x="1570" d="M1174 717q0 125 -22 242.5t-73 210t-139 147.5t-223 55q-59 0 -92 -9t-48.5 -28.5t-18.5 -52.5t-3 -80v-969q0 -47 3 -79.5t19.5 -53t48 -29t91.5 -8.5q133 0 221 53.5t140 143.5t74 209t22 248zM55 76q23 -4 38.5 -5t31.5 -1q37 0 62.5 6t41 28.5t22.5 64.5t7 114v868 q0 72 -7 114t-22.5 64.5t-41 28.5t-62.5 6q-16 0 -31.5 -1t-38.5 -5v82q29 -4 49.5 -4h30.5q63 -4 119.5 -6.5t120.5 -2.5q29 0 56.5 1.5t62.5 3.5q45 4 107.5 7t127.5 3q166 0 306.5 -39t241.5 -125t158.5 -224.5t57.5 -336.5q0 -190 -57.5 -326.5t-158.5 -224.5 t-240.5 -130t-303.5 -42q-131 0 -217 6q-35 2 -74 4t-82 2q-63 0 -138 -2t-167 -10v82z" />
<glyph unicode="E" horiz-adv-x="1335" d="M51 76q45 -6 80 -6q37 0 62.5 6t41 27.5t22.5 64.5t7 115v868q0 70 -6 112t-21.5 64.5t-39 29.5t-56.5 7q-39 0 -90 -6v82q68 -4 142.5 -6t150.5 -4.5t145.5 -2.5h128.5q150 0 290.5 3.5t281.5 9.5q0 -55 3 -100.5t7 -89.5t11.5 -92t17.5 -109l-90 -11q-6 113 -31 176.5 t-70 94t-114.5 37t-167.5 6.5q-61 0 -98 -7.5t-56.5 -27t-25 -53t-5.5 -84.5v-389q35 -4 51.5 -4.5t43.5 -0.5q90 0 138 13.5t69.5 40t25.5 65.5t4 92l86 -4q-8 -70 -12 -130t-4 -118q0 -63 4 -123.5t12 -121.5l-86 -4q-2 51 -6 91t-25.5 66.5t-69.5 40t-136 13.5h-44.5 t-50.5 -5v-450q0 -51 4.5 -84t21.5 -52.5t50 -26.5t92 -7q121 0 200 10t128 46t73.5 107.5t35.5 194.5l92 -12q-25 -123 -34 -222.5t-13 -211.5q-164 6 -326 9t-315 3h-128t-138.5 -2t-137 -4t-125.5 -6v82z" />
<glyph unicode="F" horiz-adv-x="1226" d="M567 283q0 -72 6.5 -114t20.5 -64.5t38.5 -28.5t61.5 -6q16 0 31.5 1t38.5 5v-82q-66 4 -111 7t-83 4t-74.5 1h-81.5h-83t-74 -1t-83 -4t-111 -7v82q23 -4 38.5 -5t31.5 -1q37 0 61.5 6t39 28.5t20.5 64.5t6 114v868q0 72 -7 114t-22.5 64.5t-41 28.5t-62.5 6 q-35 0 -80 -6v82q68 -4 142.5 -6t150.5 -4.5t145.5 -2.5h128.5q150 0 284 3.5t276 9.5q0 -55 3 -100.5t7 -89.5t11 -92t17 -109l-90 -11q-6 113 -28.5 176.5t-65.5 94t-110.5 37t-165.5 6.5q-61 0 -98.5 -7.5t-56.5 -27t-24.5 -53t-5.5 -84.5v-414q35 -4 48.5 -4h39.5 q90 0 138.5 13t70 41t25.5 67t4 92l86 -4q-8 -70 -12 -130.5t-4 -117.5q0 -63 4 -123.5t12 -122.5l-86 -4q-2 51 -6 91t-25.5 67.5t-70 41t-136.5 13.5h-22h-17.5t-19.5 -1t-29 -3v-399z" />
<glyph unicode="G" horiz-adv-x="1505" d="M1008 375q0 70 -6.5 111.5t-21.5 64t-38.5 30t-56.5 7.5q-39 0 -90 -6v80q66 -4 114.5 -7.5t91.5 -4.5t83 -1h87h78t66 1t75 4t107 8v-80q-23 4 -33 5t-26 1q-37 0 -62.5 -6.5t-41 -28t-22.5 -64.5t-7 -114v-148q0 -39 1 -80t7 -102q-41 -14 -95.5 -28.5t-120 -27 t-138 -19.5t-146.5 -7q-160 0 -277.5 36t-199.5 96.5t-133 139t-79 162.5t-38 167t-10 153q0 133 33.5 267t123 242.5t245 176t401.5 67.5q55 0 102 -3t93 -10t96.5 -18.5t111.5 -27.5q0 -88 5 -177t24 -187l-103 -11q-2 74 -20.5 139.5t-58 115.5t-105.5 80t-162 30 q-100 0 -173 -34t-122 -88t-78.5 -126t-44 -147.5t-19.5 -151.5t-5 -137q0 -47 3 -116t16.5 -145.5t39 -151.5t70.5 -135t111.5 -98t160.5 -38q63 0 100 18.5t56.5 53t25 84t5.5 108.5v78z" />
<glyph unicode="H" horiz-adv-x="1683" d="M573 793h537v358q0 70 -6 112t-21.5 64.5t-39 29.5t-56.5 7q-23 0 -38 -1t-42 -5v82q66 -4 113 -7t86 -4.5t77 -1.5h85h83t77.5 1.5t87 4.5t112.5 7v-82q-23 4 -38 5t-31 1q-37 0 -63 -6t-41 -27.5t-22.5 -64.5t-7.5 -115v-868q0 -70 6.5 -112t21.5 -64.5t37.5 -29.5 t57.5 -7q23 0 38.5 1t41.5 5v-82q-66 4 -113 7t-86.5 4t-77.5 1h-83h-85t-77 -1t-86 -4t-113 -7v82q23 -4 38.5 -5t31.5 -1q37 0 62.5 6t41 27.5t22.5 64.5t7 115v428h-537v-428q0 -70 6.5 -112t21.5 -64.5t38 -29.5t57 -7q23 0 38.5 1t41.5 5v-82q-66 4 -113 7t-86.5 4 t-77.5 1h-83h-85t-77 -1t-86 -4t-113 -7v82q23 -4 38.5 -5t31.5 -1q37 0 62.5 6t41 27.5t22.5 64.5t7 115v868q0 70 -6 112t-21.5 64.5t-39 29.5t-56.5 7q-23 0 -38 -1t-42 -5v82q66 -4 113 -7t86 -4.5t77 -1.5h85h83t77.5 1.5t87 4.5t112.5 7v-82q-23 4 -38 5t-31 1 q-37 0 -63 -6t-41 -27.5t-22.5 -64.5t-7.5 -115v-358z" />
<glyph unicode="I" horiz-adv-x="831" d="M575 283q0 -72 6.5 -114t20.5 -64.5t39 -28.5t61 -6q16 0 32 1t38 5v-82q-66 4 -112 7t-84.5 4t-76.5 1h-83h-84t-76 -1t-85 -4t-112 -7v82q23 -4 38.5 -5t31.5 -1q37 0 61.5 6t39 28.5t20.5 64.5t6 114v868q0 72 -6 114t-20.5 64.5t-39 28.5t-61.5 6q-16 0 -31.5 -1 t-38.5 -5v82q66 -4 112 -7t85 -4.5t76 -1.5h84h83t76.5 1.5t85 4.5t111.5 7v-82q-23 4 -38 5t-32 1q-37 0 -61.5 -6t-38.5 -28.5t-20.5 -64.5t-6.5 -114v-868z" />
<glyph unicode="J" horiz-adv-x="917" d="M369 1151q0 72 -6.5 114t-20.5 64.5t-38.5 28.5t-61.5 6q-16 0 -31.5 -1t-38.5 -5v82q66 -4 112 -7t85 -4.5t75.5 -1.5h83.5h83t77 1.5t85 4.5t112 7v-82q-23 4 -38.5 5t-31.5 1q-37 0 -61.5 -6t-39 -28.5t-20.5 -64.5t-6 -114v-858q0 -94 -33.5 -157.5t-88 -101.5 t-123 -54.5t-138.5 -16.5t-125 12.5t-96 31t-67.5 40t-41.5 37.5l66 68q41 -37 88 -61.5t102 -24.5q27 0 52.5 9t44 33.5t30 66.5t11.5 108v868z" />
<glyph unicode="K" horiz-adv-x="1540" d="M836 836q39 0 67.5 -4.5t53 -17.5t46 -35.5t44.5 -59.5l153 -295q45 -78 79 -142.5t67.5 -110.5t73.5 -72.5t98 -26.5q10 0 21 1t22 3v-82q-55 6 -111.5 10t-114.5 4q-66 0 -129 -6t-127 -22q-16 43 -32.5 76.5t-35 65.5t-39 64.5t-44.5 75.5l-191 354q-37 61 -63.5 77 t-59.5 16q-10 0 -18 -1t-21 -1v-424q0 -70 5.5 -112t19.5 -64.5t35.5 -29.5t56.5 -7q23 0 38 2t42 4v-82q-66 4 -112 7t-84.5 4t-76.5 1h-83h-84t-76 -1t-85 -4t-112 -7v82q23 -4 38.5 -5t31.5 -1q37 0 61.5 6t39 27.5t20.5 64.5t6 115v868q0 68 -5 110t-19.5 65.5t-37 30.5 t-55.5 7q-23 0 -38 -1t-42 -5v82q66 -4 112 -7t85 -4.5t76 -1.5h84h83t76.5 1.5t85 4.5t111.5 7v-82q-23 4 -38 5t-32 1q-37 0 -61.5 -6t-38.5 -27.5t-20.5 -64.5t-6.5 -115v-369q10 -2 22.5 -2h18.5q41 0 58.5 15.5t52.5 58.5l186 221q29 33 61 70t58.5 70.5t43 61.5 t16.5 46q0 41 -76 41q-33 0 -76 -6v82q61 -6 122.5 -9.5t133.5 -3.5q63 0 124.5 2.5t131.5 10.5v-82q-18 4 -31.5 5t-29.5 1q-45 0 -79 -14.5t-63.5 -40t-59.5 -61.5t-67 -79z" />
<glyph unicode="L" horiz-adv-x="1259" d="M260 1151q0 72 -6 114t-20.5 64.5t-39 28.5t-61.5 6q-16 0 -31.5 -1t-38.5 -5v82q66 -4 111 -7t82 -4.5t73 -1.5h83h81.5t74.5 1.5t84 4.5t112 7v-82q-23 4 -38 5t-32 1q-37 0 -61.5 -6t-38.5 -28.5t-20.5 -64.5t-6.5 -114v-899q0 -51 4 -84t21.5 -52.5t50.5 -26.5t92 -7 q121 0 198 14.5t124 55.5t68.5 116.5t31.5 198.5l92 -10q-25 -123 -36 -235.5t-15 -227.5q-164 6 -316.5 9t-306.5 3h-127.5t-138 -2t-137.5 -4t-125 -6v82q45 -6 80 -6q37 0 62.5 7t41 29.5t22.5 64.5t7 114v866z" />
<glyph unicode="M" horiz-adv-x="1992" d="M1737 283q0 -70 6 -112t21.5 -64.5t38 -29.5t57.5 -7q23 0 38 1t41 5v-82q-66 4 -112.5 7t-85.5 4t-77 1h-83h-84t-77 -1t-86 -4t-111 -7v82q23 -4 38 -5t31 -1q37 0 62.5 6t41 27.5t22.5 64.5t7 115v782v53.5v43t1 43t4 55.5h-17l-465 -1215h-127l-395 1036 q-12 33 -20.5 53.5t-14.5 39t-11 37t-13 44.5h-15v-1009q0 -102 31 -139t109 -37q35 0 77 6v-82q-41 2 -72.5 4t-62.5 3t-61.5 2t-67.5 1t-66.5 -1t-57 -2t-58.5 -3t-72 -4v82q45 -6 80 -6q74 0 100.5 37.5t26.5 138.5v962q0 90 -25.5 123t-101.5 33h-34.5t-41.5 -4v80 q84 -6 140.5 -9.5t117.5 -3.5h66t90 2.5t92 4.5t70 6q4 -29 21.5 -78l37.5 -105l203 -569q8 -25 22.5 -60.5t27.5 -73.5t24.5 -74t13.5 -56h12l316 819q12 31 18 50.5t12.5 38t13.5 43t21 65.5q25 -4 68 -6t89 -4.5t87 -2.5h63q31 0 58.5 1.5t56.5 2.5t61.5 3t73.5 6v-80 q-23 4 -41 4h-35q-74 0 -96 -33t-22 -123v-925z" />
<glyph unicode="N" horiz-adv-x="1607" d="M1272 1188q0 100 -25.5 138t-99.5 38q-35 0 -80 -6v82q41 -2 70.5 -4t56.5 -3t55.5 -2t65.5 -1t67.5 1t61.5 2t62.5 3t72.5 4v-82q-23 0 -42 2t-36 2q-78 0 -106.5 -36t-28.5 -138v-1215h-129l-702 951q-27 35 -55.5 76.5t-53.5 81.5t-42 74t-22 50h-10v-960 q0 -102 29 -139t106 -37q37 0 80 6v-82q-41 2 -72.5 4t-62.5 4t-61.5 3t-67.5 1t-65.5 -1t-55 -3t-56.5 -4t-71 -4v82q45 -6 78 -6q74 0 99.5 37.5t25.5 138.5v962q0 90 -25.5 123t-99.5 33q-16 0 -35.5 -2t-42.5 -2v80q84 -6 139.5 -9.5t116.5 -3.5h55.5t69.5 2.5t72 4.5 t59 6q16 -35 29.5 -60.5t26 -46t24.5 -38t25 -35.5l458 -621q16 -23 37 -52.5t40.5 -60t33.5 -58.5t21 -46h10v766z" />
<glyph unicode="O" horiz-adv-x="1560" d="M76 717q0 170 51 309t143 237.5t222.5 152.5t287.5 54q158 0 288 -54t222 -152.5t143.5 -237.5t51.5 -309q0 -172 -51.5 -311.5t-143.5 -237.5t-222 -151.5t-288 -53.5t-288 53.5t-222 151.5t-143 237.5t-51 311.5zM422 717q0 -158 20.5 -284t64.5 -215t111.5 -137 t161.5 -48t162 48t112 137t64.5 215t20.5 284t-20.5 283.5t-64.5 215t-112 137.5t-162 48t-161.5 -48t-111.5 -137.5t-64.5 -215t-20.5 -283.5z" />
<glyph unicode="P" horiz-adv-x="1310" d="M575 719q16 -4 32 -4h32q143 0 224 90t81 256q0 156 -66.5 232.5t-170.5 76.5q-37 0 -63 -6t-41 -22.5t-21.5 -48t-6.5 -83.5v-491zM575 283q0 -70 5.5 -112t19.5 -64.5t35.5 -29.5t56.5 -7q23 0 38 1t42 5v-82q-66 4 -112 7t-83.5 4t-74.5 1h-82h-84t-76 -1t-85 -4 t-112 -7v82q23 -4 38.5 -5t31.5 -1q37 0 61.5 6t39 27.5t20.5 64.5t6 115v868q0 70 -6 112t-21.5 64.5t-39 29.5t-56.5 7q-39 0 -90 -6v82q92 -8 177 -10.5t149 -2.5q92 0 185 6.5t179 6.5q260 0 404.5 -89t144.5 -292q0 -84 -32.5 -160t-107.5 -134t-197 -93t-302 -35 h-33.5t-38.5 2v-356z" />
<glyph unicode="Q" horiz-adv-x="1556" d="M74 717q0 168 51 306t143 237.5t222.5 154.5t287.5 55q158 0 288 -55t222 -154.5t143.5 -237.5t51.5 -306q0 -156 -43 -286t-123 -226t-192.5 -155.5t-252.5 -74.5v-8q29 -8 45.5 -17t45.5 -38l75 -74q53 -51 99.5 -73.5t91.5 -22.5t85 19.5t75 48.5l59 -68 q-84 -78 -168 -111.5t-166 -33.5q-74 0 -143.5 23.5t-131 63.5t-111.5 93t-85 110q-12 20 -22.5 45t-12.5 52q-123 27 -222 90t-167.5 158.5t-106.5 217.5t-38 267zM420 717q0 -158 20.5 -284t64.5 -215t111.5 -136t161.5 -47t162 47t112 136t64.5 215t20.5 284t-20.5 283.5 t-64.5 215t-112 137.5t-162 48t-161.5 -48t-111.5 -137.5t-64.5 -215t-20.5 -283.5z" />
<glyph unicode="R" horiz-adv-x="1460" d="M569 285q0 -53 3 -93t15.5 -67t38 -41t68.5 -14q29 0 70 6v-82q-66 4 -112 7t-84 4t-74.5 1h-81.5h-83t-75 -1t-84 -4t-111 -7v82q23 -4 38.5 -5t31.5 -1q37 0 61.5 6t39 27.5t20.5 64.5t6 115v868q0 53 -3 93t-16.5 66.5t-38 40t-67.5 13.5q-33 0 -72 -6v82 q92 -8 180.5 -10.5t151.5 -2.5q90 0 173 7.5t173 7.5q121 0 219.5 -20.5t168 -63.5t107.5 -108.5t38 -155.5q0 -147 -105.5 -237.5t-292.5 -115.5v-10q90 0 148.5 -16.5t95.5 -48t58.5 -78.5t39.5 -107l86 -297q23 -72 45.5 -92t61.5 -20q14 0 31.5 1t42.5 3v-82 q-47 2 -100.5 4t-100.5 2q-59 0 -127 -4t-137 -14q-6 53 -20.5 111.5t-32 117.5t-35 116.5t-31.5 110.5t-28.5 100.5t-40 83t-70.5 56t-123 20.5q-23 0 -35 -1t-31 -3v-409zM569 768q16 -2 32.5 -3t33.5 -1q145 0 231 77t86 253q0 68 -20.5 119t-55 85.5t-81.5 53t-103 18.5 q-41 0 -64.5 -6t-36.5 -23.5t-17.5 -48t-4.5 -82.5v-442z" />
<glyph unicode="S" horiz-adv-x="1187" d="M825 299q0 90 -53 143.5t-132 92t-171 74.5t-171 91.5t-132 141.5t-53 223q0 96 35.5 171t102 127t161 79.5t211.5 27.5q86 0 184 -12t201 -37v-90t3 -80t9 -90t18 -117l-102 -10q-2 61 -14.5 126t-45 118t-91 88t-152.5 35q-78 0 -129 -19.5t-81 -52.5t-42 -75t-12 -85 q0 -84 54 -134t136 -88t177 -75.5t177 -96t136.5 -151t54.5 -237.5q0 -113 -43 -193.5t-118 -132t-175 -75t-213 -23.5t-224.5 17.5t-203.5 42.5q0 59 -1 104t-4 89t-10.5 97.5t-19.5 126.5l103 11q2 -61 16 -134t53 -134.5t108.5 -103.5t180.5 -42q68 0 118 21.5t85 57.5 t52 83t17 100z" />
<glyph unicode="T" horiz-adv-x="1277" d="M799 283q0 -53 3 -93t16 -67t39 -40t71 -13q27 0 67 6v-82q-66 4 -111.5 7t-84.5 4t-77 1h-83h-84t-76 -1t-85 -4t-111 -7v82q39 -6 71 -6q80 0 102.5 49t22.5 164v874q0 68 -6 107t-23.5 60.5t-45 27.5t-70.5 6q-82 0 -125 -29t-62.5 -75t-24.5 -103t-11 -115l-95 13 q23 109 28 197.5t7 193.5q41 -4 118 -6t164 -3t170 -2.5t136 -1.5t136 1.5t170 2.5t164 3t118 6q2 -104 7 -193.5t28 -197.5l-95 -13q-6 57 -11 114.5t-25.5 103.5t-62.5 75t-124 29q-43 0 -70.5 -6t-45 -27.5t-23.5 -60.5t-6 -107v-874z" />
<glyph unicode="U" horiz-adv-x="1564" d="M543 530q0 -242 73.5 -360.5t241.5 -118.5q94 0 171 37t130 113q29 41 46.5 90t26.5 113.5t11 146.5t2 190v467q0 96 -28.5 126t-98.5 30q-20 0 -41.5 -1t-48.5 -3v80q41 -2 74 -4t62.5 -3t61 -2t68.5 -1t66 1t56.5 2t58 3t71.5 4v-80q-55 6 -92 6q-66 0 -90.5 -31.5 t-24.5 -126.5v-610q0 -104 -16 -217t-69.5 -205t-157 -152.5t-275.5 -60.5q-311 0 -454.5 147.5t-143.5 467.5v573q0 53 -3 93t-16.5 66.5t-39 40t-70.5 13.5q-31 0 -67 -6v82q66 -4 111.5 -7t84.5 -4.5t76 -1.5h84h83t77 1.5t85 4.5t111 7v-82q-20 4 -36.5 4h-30.5 q-41 0 -66.5 -11.5t-40 -37t-18.5 -65.5t-4 -97v-621z" />
<glyph unicode="V" horiz-adv-x="1417" d="M178 1192q-16 39 -26.5 70.5t-23.5 53t-35.5 34t-61.5 12.5q-10 0 -24.5 -1t-26.5 -3v82q80 -6 176 -9.5t172 -3.5t166 3.5t172 9.5v-82q-23 4 -34 4h-32q-45 0 -79 -14.5t-34 -61.5q0 -39 23 -98l246 -639q20 -53 32.5 -101.5t22.5 -101.5h8l301 830q10 31 17.5 55 t7.5 47q0 41 -30 62.5t-97 21.5h-37.5t-46.5 -4v82q82 -6 146.5 -9.5t140.5 -3.5q39 0 66.5 1.5t51 2.5t47 3t52.5 6v-82q-14 2 -25.5 2h-26.5q-35 0 -55 -7t-36.5 -26.5t-32 -53.5t-35.5 -89l-453 -1211h-129z" />
<glyph unicode="W" horiz-adv-x="2035" d="M1511 418l226 758q10 33 15 58.5t5 45.5q0 41 -26.5 61.5t-92.5 20.5h-39.5t-48.5 -4v82q82 -6 147.5 -9.5t141.5 -3.5q39 0 66.5 1.5t51 2.5t47.5 3t52 6v-82q-10 2 -21.5 2h-21.5q-35 0 -59.5 -7t-43 -25.5t-34.5 -53.5t-33 -90l-375 -1211h-120l-250 750 q-4 12 -20.5 68.5t-49.5 175.5h-8l-313 -994h-117l-397 1207q-12 39 -24.5 72.5t-30 58t-43 38t-64.5 13.5q-10 0 -24.5 -1t-26.5 -3v82q39 -4 87 -6t96 -3t95 -2.5t84 -1.5q76 0 164 3.5t170 9.5v-82q-23 4 -34 4h-32q-59 0 -90 -16.5t-31 -61.5q0 -18 6.5 -37.5 t16.5 -48.5l188 -592q10 -29 23.5 -84t19.5 -104h9l311 1016h121l270 -828q2 -6 8 -26.5t12.5 -48t13.5 -58.5t13 -55h10z" />
<glyph unicode="X" horiz-adv-x="1474" d="M268 1180q-25 37 -44 69.5t-39.5 57t-46 40t-64.5 15.5q-10 0 -20.5 -1t-20.5 -3v82q80 -6 176 -9.5t172 -3.5t169 3.5t175 9.5v-82q-23 2 -37 3t-35 1q-55 0 -74.5 -11.5t-19.5 -45.5q0 -16 12.5 -42t34.5 -63l211 -313l217 284q25 33 44.5 69t19.5 65q0 27 -22.5 42 t-80.5 15h-29.5t-43.5 -4v82q82 -6 146.5 -9.5t139.5 -3.5q39 0 69 1.5t56.5 2.5t52 3t54.5 6v-82q-23 2 -31 2h-18q-33 0 -56.5 -7t-49 -27.5t-57.5 -57.5t-79 -97l-275 -364l359 -553q16 -25 34.5 -56.5t42 -59t53.5 -47t71 -19.5q10 0 19 1t22 3v-82q-41 2 -88.5 5 t-95.5 4t-95 2t-84 1q-76 0 -168 -3t-174 -9v82q23 -2 39 -3t37 -1q53 0 73.5 10t20.5 37q0 25 -11 46t-38 68l-238 373l-252 -344q-25 -35 -45 -71.5t-20 -65.5q0 -23 17.5 -38t70.5 -15h35.5t54.5 4v-82q-82 6 -146.5 9t-140.5 3q-39 0 -67.5 -1t-55 -2t-51 -4t-53.5 -5 v82q23 -2 30 -2h17q31 0 54.5 7t49 27.5t57.5 57.5t79 96l309 426z" />
<glyph unicode="Y" horiz-adv-x="1351" d="M516 631l-301 549q-23 39 -40 72.5t-35.5 58t-42 38t-58.5 13.5q-10 0 -19.5 -1t-19.5 -3v82q39 -4 87 -6t96 -3t94.5 -2.5t82.5 -1.5q76 0 160 3.5t166 9.5v-82q-23 2 -34 3t-31 1q-59 0 -88 -9.5t-29 -47.5q0 -23 10 -43.5t33 -61.5l123 -221q10 -18 25.5 -51t30.5 -69 t28.5 -68.5t19.5 -51.5h12l242 432q20 35 30.5 67t12.5 54q0 35 -26.5 52.5t-94.5 17.5h-40.5t-59.5 -4v82q82 -6 142.5 -9.5t135.5 -3.5q39 0 68 1.5t53.5 2.5t49 3t53.5 6v-82q-8 0 -20.5 1t-20.5 1q-33 0 -53.5 -9.5t-38 -31t-37 -58t-49.5 -92.5l-297 -538v-348 q0 -70 5 -112t19 -64.5t36 -29.5t56 -7q20 0 36 1t44 5v-82q-66 4 -112 7t-84.5 4t-76.5 1h-83h-84t-76 -1t-85 -4t-112 -7v82q23 -4 38.5 -5t31.5 -1q37 0 61.5 6t39 27.5t20.5 64.5t6 115v348z" />
<glyph unicode="Z" horiz-adv-x="1234" d="M395 90q43 -2 74 -4t59.5 -3t60.5 -2t81 -1q113 0 188.5 12t121.5 50t67.5 107.5t25.5 186.5l103 -10q-14 -70 -21.5 -122t-11.5 -101t-5 -100.5t-1 -114.5q-102 4 -248 11t-295 7q-90 0 -155.5 -1t-122 -4t-110.5 -6t-124 -7l-49 63l598 1020q20 33 37.5 63.5t37 62.5 t43 67.5t56.5 83.5q-37 4 -95.5 6t-140.5 2q-94 0 -161.5 -9.5t-112.5 -43t-68.5 -99t-29.5 -176.5l-103 10q8 39 14.5 81t10.5 89t6 105.5t2 132.5q51 -2 112.5 -5t128 -6t132 -5.5t125.5 -2.5q94 0 150 1.5t103.5 3.5t100.5 5t139 9l47 -64l-612 -1046 q-18 -31 -33.5 -57.5t-33 -54t-39 -59.5t-52.5 -75z" />
<glyph unicode="[" horiz-adv-x="663" d="M637 -258v-90h-467v1818h467v-90h-201l-8 -1638h209z" />
<glyph unicode="\" horiz-adv-x="954" d="M909 -152l-116 -41l-746 1711l117 41z" />
<glyph unicode="]" horiz-adv-x="661" d="M233 -258l-8 1638h-198v90h465v-1818h-465v90h206z" />
<glyph unicode="^" d="M557 1454l447 -792l-86 -41l-408 718l-406 -718l-84 41l437 792h100z" />
<glyph unicode="_" d="M1024 -287h-1024v103h1024v-103z" />
<glyph unicode="`" horiz-adv-x="819" d="M567 1085q-106 70 -175.5 117t-111.5 81t-58.5 56.5t-16.5 44.5q0 29 20.5 54.5t73.5 25.5q45 0 84 -27.5t76 -73.5t74.5 -104.5t80.5 -119.5l-47 -54v0z" />
<glyph unicode="a" horiz-adv-x="1105" d="M696 129q-29 -70 -95 -115t-181 -45q-109 0 -178.5 24.5t-109.5 63.5t-54.5 85t-14.5 87q0 57 20.5 113.5t83 99.5t179.5 70t307 27v129q0 45 -4 90t-19.5 80.5t-43 57.5t-74.5 22q-57 0 -86 -27t-29 -74q0 -23 4.5 -45t4.5 -47q0 -59 -43.5 -92t-104.5 -33 q-23 0 -47.5 8t-46 25.5t-35.5 45.5t-14 66q0 45 23.5 87t73.5 75t126 52.5t180 19.5q119 0 200 -23.5t130 -67.5t69.5 -106.5t20.5 -140.5v-440q0 -49 10 -80t33 -31q16 0 30.5 11.5t24.5 25.5q12 16 25 39l57 -55q-39 -59 -92 -100.5t-133 -41.5q-74 0 -125 47t-63 113h-9 zM653 471q-84 0 -138 -15.5t-88 -45t-47 -73.5t-13 -99q0 -25 6 -58t21.5 -61.5t39 -48t60.5 -19.5q59 0 90.5 31t47 77t18.5 99t3 100v113z" />
<glyph unicode="b" horiz-adv-x="1177" d="M143 -16v1214q0 47 -1 80t-9 52.5t-25.5 28.5t-48.5 9q-27 0 -69 -6v76q31 -4 61.5 -4h63.5q82 0 163.5 6t161.5 24v-467q0 -39 -6 -98t-14 -98l6 -2q37 76 98.5 122t167.5 46q193 0 302.5 -126t109.5 -370q0 -117 -34 -210t-94.5 -157.5t-143 -99.5t-181.5 -35 q-53 0 -93 12.5t-73.5 28t-65.5 27.5t-69 12q-31 0 -56.5 -15.5t-47.5 -49.5h-103zM795 498q0 70 -7.5 141.5t-26 127.5t-49 92t-75.5 36t-82 -37t-64.5 -99.5t-43 -146.5t-15.5 -178q0 -80 8.5 -150.5t28.5 -124t54 -84t87 -30.5q45 0 79 34t57.5 93t36 143.5t12.5 182.5z " />
<glyph unicode="c" horiz-adv-x="1013" d="M967 227q-27 -55 -64 -104t-85 -84t-109.5 -55.5t-137.5 -20.5q-231 0 -365 133t-134 377q0 115 32.5 208t97 159.5t158 102.5t213.5 36q104 0 178 -24.5t122.5 -61.5t71 -81t22.5 -83q0 -41 -14.5 -69.5t-37 -47t-49 -26.5t-49.5 -8q-59 0 -105 30.5t-46 98.5q0 29 6 52 t6 46q0 47 -20.5 80t-69.5 33q-94 0 -142.5 -114t-48.5 -331t60.5 -320.5t165.5 -103.5q31 0 66.5 9.5t71.5 33t68.5 64.5t57.5 106z" />
<glyph unicode="d" horiz-adv-x="1214" d="M739 1198q0 47 -1 80t-9 52.5t-25.5 28.5t-48.5 9q-27 0 -69 -6v76q31 -4 61.5 -4h63.5q82 0 163.5 6t161.5 24v-1228q0 -47 2 -80t9.5 -52.5t23.5 -28.5t47 -9q29 0 72 6v-76q-31 4 -59.5 4h-57.5q-72 0 -140.5 -8t-148.5 -27q-12 86 -12 180l-8 2q-35 -86 -105.5 -132 t-169.5 -46q-193 0 -303 121t-110 365q0 117 33.5 211t94 160.5t143.5 102.5t181 36q68 0 127.5 -26t85.5 -69l7 2q-6 39 -7.5 76t-1.5 70v180zM385 428q0 -72 7 -140.5t25.5 -123.5t49.5 -89t76 -34t82 35t64.5 96t43 143t15.5 177q0 80 -8.5 151.5t-29 125.5t-55 87 t-86.5 33q-45 0 -78.5 -35t-57 -96.5t-36 -146.5t-12.5 -183z" />
<glyph unicode="e" horiz-adv-x="1056" d="M981 233q-53 -119 -154.5 -194.5t-265.5 -75.5q-115 0 -205 36t-153.5 101.5t-97 158.5t-33.5 210t34.5 212t98 160.5t154 101.5t200.5 36q127 0 212 -42t135 -103.5t71.5 -132t21.5 -128.5q0 -35 -11 -55t-38.5 -30.5t-76 -13.5t-121.5 -3h-379q0 -209 66.5 -315.5 t181.5 -106.5q31 0 68.5 10.5t76.5 35t76 67.5t61 108zM518 539q59 0 97 6t59.5 23.5t29 46t7.5 73.5t-10.5 86t-29 73t-47 51.5t-65.5 19.5q-51 0 -85 -35t-55.5 -90.5t-30.5 -123t-9 -130.5h139z" />
<glyph unicode="f" horiz-adv-x="753" d="M35 862v80h162v141q0 59 10 128t47 126.5t111.5 95t203.5 37.5q147 0 230.5 -55t83.5 -133q0 -86 -39 -121t-92 -35q-43 0 -69 13.5t-39 35t-18 48t-8 53.5q-4 49 -19 86t-73 37q-35 0 -53 -28t-18 -75q0 -39 7 -68.5t14 -60t14.5 -68.5t7.5 -91v-66h225v-80h-225v-651 q0 -37 2 -64.5t13 -46t32.5 -28t60.5 -9.5h18.5t20.5 3v-72q-78 8 -151.5 11t-133.5 3q-59 0 -143 -4t-154 -14v71q6 0 20.5 -1t20.5 -1q59 0 76 40t17 112v651h-162z" />
<glyph unicode="g" horiz-adv-x="1060" d="M532 -395q63 0 121 15t101 41t68.5 58.5t25.5 69.5t-22.5 57.5t-60.5 29.5t-90 10t-112 1q-72 0 -119 2t-76.5 6.5t-46 9.5t-26.5 11q-37 -29 -45 -57.5t-8 -48.5q0 -39 18.5 -76t54 -65.5t89.5 -46t128 -17.5zM369 637q0 -129 37.5 -202t109.5 -73q68 0 107 73t39 202 q0 127 -39 201.5t-107 74.5q-72 0 -109.5 -74.5t-37.5 -201.5zM1030 854q-53 0 -108.5 3t-108.5 7q59 -35 97 -88t38 -151q0 -78 -32.5 -138.5t-90 -102.5t-137.5 -63.5t-172 -21.5q-78 0 -133 14q-35 -23 -50.5 -46t-15.5 -46q0 -18 7.5 -32.5t27 -24.5t54 -16.5t90.5 -6.5 h170q109 0 178 -22.5t109 -58t54.5 -82t14.5 -95.5q0 -82 -42 -147.5t-112.5 -111.5t-164 -70.5t-193.5 -24.5q-98 0 -185 11t-151.5 39t-101.5 74t-37 116q0 25 10 52t32.5 52t59.5 44.5t90 29.5q-68 33 -93 82t-25 102q0 55 52 111.5t150 91.5q-106 37 -170.5 105.5 t-64.5 195.5q0 164 119.5 251t320.5 87q33 0 79 -5t100.5 -11.5t113.5 -11.5t119 -5h52.5t49.5 4v-90z" />
<glyph unicode="h" horiz-adv-x="1249" d="M469 823q35 66 103.5 108t164.5 42q119 0 187.5 -34t103.5 -86t45 -115.5t10 -125.5v-344q0 -59 1 -98t10.5 -61.5t30 -31.5t57.5 -9h20t23 2v-76q-78 8 -148.5 11t-130.5 3q-59 0 -132 -4t-142 -14v76q6 0 12 -1.5t12 -1.5q33 0 50.5 10.5t25.5 35t9 63.5t1 96v303 q0 90 -7 149.5t-22.5 94.5t-38 49.5t-55.5 14.5q-29 0 -62.5 -13.5t-61 -55.5t-46 -120t-18.5 -207v-215q0 -59 2 -98t11.5 -61.5t28.5 -31.5t56 -9h20.5t22.5 2v-76q-78 8 -148.5 11t-129.5 3t-137 -4t-148 -14v76q6 0 17.5 -1.5t17.5 -1.5q59 0 72.5 30t13.5 102v1003 q0 47 -1 80t-9 52.5t-25.5 28.5t-48.5 9q-27 0 -70 -6v76q31 -4 62 -4h63q82 0 166 8t164 26v-491q0 -39 -1 -76t-9 -76z" />
<glyph unicode="i" horiz-adv-x="677" d="M498 268q0 -59 1 -98t10 -61.5t29.5 -31.5t57.5 -9h23.5t25.5 2v-76q-78 8 -151.5 11t-133.5 3q-59 0 -140 -4t-150 -14v76q6 0 15 -1.5t15 -1.5q37 0 56.5 10.5t29 35t10.5 63.5t1 96v434q0 47 -1 80t-9.5 52.5t-26 28.5t-47.5 9q-27 0 -70 -6v76q31 -4 61.5 -4h63.5 q82 0 166 8t164 27v-705zM180 1288q0 70 48 119t118 49t119 -49t49 -119t-49 -118t-119 -48t-118 48t-48 118z" />
<glyph unicode="j" horiz-adv-x="628" d="M184 702q0 47 -1 80t-9 52.5t-25.5 28.5t-48.5 9q-27 0 -69 -6v76q31 -4 61.5 -4h63.5q82 0 166 8t163 27v-985q0 -88 -9 -170t-43 -146.5t-101.5 -103.5t-184.5 -39q-61 0 -124.5 16.5t-96.5 38.5l31 68q29 -23 61.5 -32t57.5 -9q37 0 58.5 17.5t32.5 46t14 62.5t3 68 v897zM168 1288q0 70 48 119t118 49t119 -49t49 -119t-49.5 -118t-118.5 -48q-70 0 -118 48t-48 118z" />
<glyph unicode="k" horiz-adv-x="1206" d="M471 567q29 0 52.5 2t47 11.5t50 27t61.5 47.5l86 76q35 31 51.5 59.5t18.5 45.5q0 37 -80 36q-16 0 -30.5 -1t-35.5 -3v76q47 -4 99.5 -7t101.5 -3q66 0 137.5 5t132.5 17v-73h-35q-29 0 -52 -7.5t-47.5 -21.5t-54.5 -40t-69 -62l-186 -177q41 0 79 -16t68 -70l187 -329 q31 -53 55.5 -72.5t75.5 -19.5h21.5t21.5 2v-76q-33 4 -78 7t-86 3q-59 0 -133 -6t-119 -16q-12 27 -18.5 44t-14.5 38.5t-25.5 54.5t-50.5 92l-116 197q-18 31 -29.5 49t-23 28.5t-25.5 13.5t-37 3v-234q0 -59 1 -98t10.5 -61.5t29.5 -31.5t57 -9h20.5t22.5 2v-76 q-78 8 -148.5 11t-129.5 3t-137 -4t-148 -14v76q6 0 17.5 -1.5t17.5 -1.5q59 0 72.5 30t13.5 102v1003q0 47 -1 80t-9 52.5t-25.5 28.5t-48.5 9q-27 0 -70 -6v76q31 -4 62 -4h63q82 0 166 8t164 26v-901z" />
<glyph unicode="l" horiz-adv-x="657" d="M479 268q0 -59 1 -98t10.5 -61.5t30 -31.5t57.5 -9h23t26 2v-76q-78 8 -152 11t-133 3t-140 -4t-151 -14v76q6 0 20.5 -1.5t20.5 -1.5q31 0 48.5 11.5t25.5 36t10 63.5t2 94v930q0 47 -1 80t-9 52.5t-25.5 28.5t-48.5 9q-27 0 -69 -6v76q31 -4 61.5 -4h63.5q82 0 165.5 6 t163.5 24v-1196z" />
<glyph unicode="m" horiz-adv-x="1828" d="M1665 268q0 -59 2 -98t11.5 -61.5t28.5 -31.5t56 -9h20.5t22.5 2v-76q-78 8 -146.5 11t-127.5 3t-127 -4t-137 -14v76q6 0 12 -1.5t12 -1.5q53 0 66.5 25t13.5 84v399q0 90 -6 149.5t-19.5 95.5t-36 51.5t-53.5 15.5q-29 0 -61.5 -14.5t-59 -57.5t-44 -121t-17.5 -207 v-297q0 -70 14.5 -94t77.5 -24h20.5t22.5 2v-76q-78 8 -142 11t-124 3q-59 0 -125.5 -4t-136.5 -14v76q6 0 12 -1.5t13 -1.5q53 0 66 25t13 84v399q0 90 -6 149.5t-19 95.5t-34.5 51.5t-54.5 15.5q-29 0 -61.5 -14.5t-59.5 -57.5t-44.5 -121t-17.5 -207v-297q0 -70 14.5 -94 t78.5 -24h20t23 2v-76q-78 8 -143.5 11t-125.5 3q-59 0 -135 -4t-145 -14v76q6 0 17 -1.5t18 -1.5q57 0 70.5 28t13.5 95v516q0 47 -1 80t-9.5 52.5t-25 28.5t-46.5 9q-27 0 -70 -6v76q31 -4 58.5 -4h54.5q68 0 132 8t144 27q14 -53 17.5 -90t5.5 -90h12q29 76 102.5 130 t180.5 54q72 0 123 -15.5t84.5 -41t54 -59.5t32.5 -70h9q29 76 100.5 131t181.5 55q115 0 180.5 -34t99.5 -87t42 -117.5t8 -126.5v-344z" />
<glyph unicode="n" horiz-adv-x="1273" d="M498 268q0 -59 1 -98t10 -61.5t29.5 -31.5t57.5 -9h20.5t22.5 2v-76q-78 8 -148.5 11t-130.5 3q-59 0 -137 -4t-147 -14v76q6 0 12 -1.5t12 -1.5q37 0 56.5 10.5t29 35t10.5 63.5t1 96v434q0 47 -1 80t-9.5 52.5t-26 28.5t-47.5 9q-27 0 -70 -6v76q31 -4 59.5 -4h57.5 q72 0 140.5 8t148.5 27q6 -35 10 -55.5t7 -38t4 -37t1 -49.5h10q29 76 102.5 128t180.5 52q115 0 183.5 -34t104 -86t47 -115.5t11.5 -125.5v-344q0 -59 1 -98t10 -61.5t29.5 -31.5t57.5 -9h20.5t22.5 2v-76q-78 8 -148.5 11t-129.5 3t-132 -4t-143 -14v76q6 0 12.5 -1.5 t12.5 -1.5q31 0 47 8.5t25.5 31t11.5 62.5t2 103v303q0 90 -7 149.5t-22.5 94.5t-38 49.5t-55.5 14.5q-29 0 -62.5 -13.5t-61 -55.5t-46 -120t-18.5 -207v-215z" />
<glyph unicode="o" horiz-adv-x="1157" d="M74 471q0 242 133 375t371 133q240 0 372.5 -133t132.5 -375q0 -240 -133 -374t-372 -134q-238 0 -371 134t-133 374zM399 471q0 -100 9.5 -182t31 -140.5t55 -91t83.5 -32.5q49 0 83.5 32.5t56 91t31 140.5t9.5 182t-9.5 182t-31 140.5t-56 91.5t-83.5 33t-83 -33 t-55.5 -91.5t-31 -140.5t-9.5 -182z" />
<glyph unicode="p" horiz-adv-x="1214" d="M453 791q35 86 105.5 134t168.5 48q193 0 303.5 -123t110.5 -367q0 -117 -34 -211t-94.5 -160.5t-143.5 -102.5t-181 -36q-68 0 -127 26t-86 69l-6 -2q6 -39 7 -76t1 -70v-110q0 -59 2 -98.5t11.5 -62t30 -31.5t57.5 -9h20t23 2v-76q-78 8 -149 11t-130 3t-140 -4 t-151 -14v76q6 0 20.5 -1t20.5 -1q33 0 51.5 10t26.5 34.5t9 63.5t1 97v892q0 47 -1 80t-9 52.5t-25.5 28.5t-48.5 9q-27 0 -69 -6v76q31 -4 59.5 -4h56.5q72 0 140.5 8t148.5 27q8 -41 11 -66.5t3 -52.5v-26.5t-2 -34.5zM831 510q0 70 -7 140.5t-25.5 125.5t-49 90 t-75.5 35t-82 -36t-64.5 -97t-43 -144t-15.5 -178q0 -80 8 -151.5t28.5 -125.5t54.5 -87t87 -33q45 0 79 35t57.5 96.5t35.5 146.5t12 183z" />
<glyph unicode="q" horiz-adv-x="1179" d="M739 -59q0 39 6.5 98t14.5 98l-6 2q-37 -76 -105.5 -121t-161.5 -45q-193 0 -302 125t-109 369q0 117 33.5 211t94 160.5t143.5 102.5t181 36q61 0 103.5 -13.5t74 -31t58.5 -30.5t57 -13q31 0 60.5 17.5t52.5 51.5h102v-1144q0 -66 1 -105t9.5 -60.5t23.5 -28.5t46 -7 h20.5t22.5 2v-76q-78 8 -137 11.5t-119 3.5q-29 0 -68.5 -1.5t-82.5 -3.5t-86 -6t-78 -8v76q6 0 12 -1t12 -1q76 0 101.5 45t25.5 160v127zM385 440q0 -72 7 -141.5t25.5 -126.5t49.5 -92t76 -35t82 36t64.5 98.5t43 146.5t15.5 178q0 80 -8.5 151.5t-29 126t-55 87 t-86.5 32.5q-45 0 -78.5 -35t-57 -96t-36 -146.5t-12.5 -183.5z" />
<glyph unicode="r" horiz-adv-x="970" d="M471 786q18 86 80.5 138.5t179.5 52.5q61 0 104.5 -18.5t71 -46t39.5 -61.5t12 -65q0 -27 -8 -55.5t-24.5 -53t-43 -39.5t-65.5 -15q-78 0 -112.5 41t-34.5 92q0 16 4 31.5t4 27.5q0 29 -11.5 46.5t-33.5 17.5q-72 0 -103.5 -110t-31.5 -306v-195q0 -59 1 -98t10 -61.5 t29.5 -31.5t57.5 -9h23.5t25.5 2v-76q-78 8 -151.5 11t-133.5 3q-59 0 -140 -4t-150 -14v76q6 0 20 -1.5t21 -1.5q31 0 47 8.5t25.5 31t11.5 62.5t2 103v434q0 47 -1 80t-9.5 52.5t-26 28.5t-47.5 9q-27 0 -70 -6v76q31 -4 58.5 -4h56.5q72 0 139.5 8t146.5 27 q6 -35 9.5 -56.5t5.5 -40t2 -39v-51.5h10z" />
<glyph unicode="s" horiz-adv-x="958" d="M823 930q0 -74 3 -132.5t18 -123.5l-94 -10q0 23 -10.5 64.5t-36 83.5t-69.5 74t-114 32q-84 0 -131 -42t-47 -108q0 -31 16.5 -54.5t45 -42t70.5 -33.5t91 -34q57 -20 114.5 -42.5t103.5 -59.5t75 -92.5t29 -141.5q0 -90 -40 -148.5t-104.5 -93t-143.5 -49t-159 -14.5 q-92 0 -181 13.5t-161 35.5q0 51 -4 121t-14 148l96 10q2 -47 19.5 -94t49 -85t77 -62.5t104.5 -24.5q98 0 147.5 45t49.5 112q0 33 -18.5 58.5t-49.5 45t-72 35t-86 31.5q-59 20 -115.5 44t-99.5 61t-68.5 92t-25.5 141q0 63 29.5 116.5t84 91.5t130.5 59.5t170 21.5 q123 0 196.5 -16.5t124.5 -32.5z" />
<glyph unicode="t" horiz-adv-x="720" d="M25 862v80q172 0 261 79t89 239h98v-318h227v-80h-227v-618q0 -68 10.5 -112t44.5 -44q35 0 65 37t50 90l70 -41q-31 -86 -106 -142.5t-173 -56.5q-127 0 -194.5 62.5t-67.5 220.5v604h-147z" />
<glyph unicode="u" horiz-adv-x="1261" d="M1079 238q0 -47 1 -80t9.5 -52.5t24.5 -28.5t47 -9q29 0 72 6v-78q-31 4 -59.5 4h-57.5q-72 0 -140.5 -8t-148.5 -27q-6 33 -10 55.5t-6 41t-3 38t-3 45.5h-10q-29 -76 -103 -130t-180 -54q-115 0 -183.5 34t-104.5 87t-47 117.5t-11 126.5v376q0 47 -1 80t-9.5 52.5 t-25.5 28.5t-48 9q-27 0 -70 -6v76q31 -4 61.5 -4h63.5q82 0 166 8t164 27v-606q0 -90 7 -149.5t22.5 -95.5t38 -51.5t55.5 -15.5q29 0 62.5 14.5t61 57.5t46 121t18.5 207v247q0 47 -1 80t-9 52.5t-25.5 28.5t-48.5 9q-27 0 -69 -6v76q31 -4 61.5 -4h63.5q82 0 165.5 8 t163.5 27v-735z" />
<glyph unicode="v" horiz-adv-x="1093" d="M653 260l123 303q8 20 21.5 53t27 70t22.5 73t9 62q0 31 -20.5 40t-53.5 9q-16 0 -33.5 -1t-31.5 -3v76q41 -4 82 -4h82q53 0 104 3t105 11v-75q-10 2 -17.5 2h-13.5q-31 0 -50.5 -12.5t-35 -40t-31.5 -72.5t-43 -111l-278 -680h-136l-249 600q-41 98 -69 158.5 t-49.5 92.5t-40 42t-40.5 10h-19.5t-19.5 -2v78q29 -2 72 -3t90 -2t91 -1h75q59 0 135 3t139 13v-80q-12 0 -27.5 1t-31.5 1q-33 0 -55.5 -9t-22.5 -40q0 -39 15.5 -86t25.5 -75l69 -193q20 -59 42 -112.5t34 -98.5h4z" />
<glyph unicode="w" horiz-adv-x="1566" d="M874 352q-4 12 -15 47t-23.5 76t-22.5 80t-12 57h-8l-240 -649h-127l-205 598q-35 98 -58.5 158.5t-44 93.5t-40 44t-43.5 11h-16.5t-18.5 -2v76q29 -2 69 -3t83 -2t83.5 -1h71.5t67 1t73.5 3t75.5 5t69 7v-75q-10 0 -25.5 1t-31.5 1q-41 0 -71 -11.5t-30 -44.5 q0 -31 11.5 -76t26.5 -94t32.5 -97t30.5 -87q6 -20 13 -47t13 -51.5t11.5 -46t5.5 -31.5h8l233 649h135q33 -92 64 -178q27 -74 54.5 -155t47.5 -140q6 -20 14.5 -47t16.5 -51.5t13 -46t5 -31.5h9l90 291q27 86 44 140t21 89t-21.5 47t-58.5 12q-18 0 -35.5 -2t-33.5 -4v76 q41 -4 85 -4h85q53 0 104 3t105 11v-71q-10 2 -17.5 2h-15.5q-31 0 -49.5 -12.5t-32.5 -41t-28.5 -73.5t-39.5 -113l-231 -680h-127z" />
<glyph unicode="x" horiz-adv-x="1112" d="M852 264q29 -47 51.5 -83t49 -61.5t62.5 -38.5t91 -13v-72q-27 2 -68 4t-83 4t-77.5 2h-50.5q-66 0 -141.5 -3t-146.5 -13v76q12 -2 25.5 -2.5t23.5 -0.5q25 0 41 5.5t16 23.5q0 16 -41 78l-135 199l-102 -123q-43 -51 -69 -88t-26 -60q0 -33 60 -32q18 0 41.5 2t46.5 4 v-76q-47 4 -96.5 6t-98.5 2q-53 0 -107.5 -3t-107.5 -11v76q8 -2 25 -3q51 0 79.5 26t63.5 56q14 14 30.5 33t42 50.5t66.5 79.5t105 122l-143 219q-39 59 -66 102.5t-48.5 71t-43 41t-51.5 13.5q-10 0 -25.5 -1.5t-21.5 -3.5v74q27 -4 69.5 -5t85.5 -2t79 -1h52 q66 0 140.5 2t146.5 12v-73q-12 2 -23.5 2h-21.5q-72 0 -72 -33q0 -16 12.5 -34.5t28.5 -47.5l117 -180l78 92q47 57 76.5 98t29.5 66q0 23 -17.5 30t-45.5 7h-32.5t-35.5 -2v69q51 -4 101.5 -6t103.5 -2q45 0 98.5 3t102.5 11v-69q-8 0 -14.5 1t-12.5 1q-29 0 -49.5 -6.5 t-38.5 -18.5q-29 -23 -68 -66.5t-104 -119.5l-123 -146z" />
<glyph unicode="y" horiz-adv-x="1064" d="M872 643q-88 -227 -146 -399t-99 -296t-72 -205t-61.5 -128t-67.5 -66.5t-92 -19.5q-61 0 -105.5 30.5t-44.5 98.5q0 66 40 104.5t102 38.5q23 0 38 -4t27 -9t22.5 -9t22.5 -4q16 0 27.5 11t23 35.5t25.5 65.5t35 101q-4 0 -2 -1t-2 -1q-23 0 -49.5 15t-49.5 69l-198 493 q-41 100 -67.5 160.5t-47 92.5t-41 41t-47.5 9h-19.5t-19.5 -2v78q29 -2 67 -4t77.5 -3t77.5 -2t69 -1t67.5 1t76.5 3t79 5t70 7v-76q-12 0 -27.5 1t-32.5 1q-33 0 -56 -8t-23 -41q0 -23 12 -60.5t39 -98.5q4 -14 12 -39q8 -23 21.5 -60t35.5 -90q8 -20 20.5 -51t24 -61.5 t20.5 -56t9 -36.5h10q47 141 81 235.5t55.5 155t30.5 96.5t9 62q0 31 -19 40t-52 9q-16 0 -33.5 -1t-32.5 -3v76q41 -4 82 -6t82 -2q53 0 104.5 3t104.5 11v-71q-10 2 -17.5 2h-13.5q-33 0 -52 -12.5t-35.5 -40t-33 -72.5t-41.5 -111z" />
<glyph unicode="z" horiz-adv-x="958" d="M373 864q-104 -2 -149.5 -58t-53.5 -181l-86 8q6 25 10 52.5t7 62t4 84t1 116.5q25 -4 66 -6t92 -3t109.5 -2t118.5 -1q109 0 210 3t166 9l21 -57l-383 -639q-23 -39 -36 -61.5t-24.5 -39t-24.5 -33t-34 -40.5h168q80 0 126 19.5t71.5 55t35 87t13.5 112.5l86 -8 q-16 -74 -20.5 -125t-4.5 -102q0 -29 1 -58.5t1 -64.5q-25 2 -66.5 4t-94 4t-113 3t-121.5 1q-117 0 -225.5 -3t-171.5 -9l-21 53l398 664q23 39 38 62.5t27 40.5t23.5 28.5l25.5 25.5z" />
<glyph unicode="{" horiz-adv-x="643" d="M184 371q0 41 -4 70.5t-19.5 49t-44 29.5t-77.5 17q-8 8 -8 20q0 16 8 25q49 4 77.5 15t44 33.5t19.5 57.5t4 84v379q0 104 43 167.5t104.5 97.5t131 44t123.5 10l16 -63q-57 -10 -90 -29.5t-50.5 -46t-22.5 -57.5t-5 -62v-434q-6 -88 -46 -141t-120 -74v-8 q80 -20 123 -73.5t43 -141.5v-428q0 -31 5 -61.5t22.5 -57t50.5 -47t90 -29.5l-16 -63q-53 0 -123 10t-131.5 44t-104.5 97.5t-43 167.5v398z" />
<glyph unicode="|" horiz-adv-x="462" d="M293 -512h-123v2048h123v-2048z" />
<glyph unicode="}" horiz-adv-x="643" d="M459 -27q0 -104 -43 -167.5t-104.5 -97.5t-131 -44t-123.5 -10l-16 63q57 8 90 29t50.5 47.5t22.5 57t5 61.5v428q0 88 43 141.5t123 73.5v8q-80 20 -120 73.5t-46 141.5v434q0 31 -5 62t-22.5 57.5t-50.5 46t-90 29.5l16 63q53 0 123 -10t131.5 -44t104.5 -97.5 t43 -167.5v-379q0 -49 4 -84t19.5 -57.5t44 -33.5t77.5 -15q8 -8 8 -25q0 -12 -8 -20q-49 -6 -77.5 -16.5t-44 -30t-19.5 -49t-4 -70.5v-398z" />
<glyph unicode="~" d="M934 512q-41 -90 -103.5 -130t-130.5 -40q-41 0 -91 15.5t-97 37.5q-51 25 -90 43.5t-92 18.5t-91 -33t-71 -80l-76 57q37 74 99.5 120t150.5 46q61 0 113.5 -23.5t95.5 -43.5q51 -23 90 -36t68 -13q51 0 79.5 27.5t63.5 82.5z" />
<glyph unicode="&#xa1;" horiz-adv-x="593" d="M297 -512q-90 0 -137 55.5t-47 143.5q0 33 3 58.5t7 48t11 47t16 57.5q14 51 31.5 111.5t32.5 125t26.5 133t11.5 138.5q0 59 -6 124h102q-6 -66 -6 -124q0 -70 11.5 -138.5t26.5 -133t32.5 -125t31.5 -111.5q8 -33 15.5 -57.5t11.5 -47t7 -48.5t3 -58q0 -88 -47 -143.5 t-137 -55.5zM127 815q0 72 49 121t121 49t121 -49t49 -121t-49 -121t-121 -49t-121 49t-49 121z" />
<glyph unicode="&#xa2;" horiz-adv-x="1056" d="M989 227q-49 -104 -137 -175.5t-221 -86.5v-209h-94v209q-213 12 -335 143.5t-122 364.5q0 221 117.5 356.5t339.5 147.5v203h94v-203q90 -6 157.5 -31.5t111.5 -60.5t66.5 -77t22.5 -79q0 -41 -13 -69.5t-32.5 -47t-44.5 -26.5t-47 -8q-59 0 -101 30.5t-42 98.5 q0 29 6 52t6 46q0 51 -26.5 76.5t-63.5 31.5v-866q31 0 68.5 9.5t75.5 34t74 65.5t60 106zM401 473q0 -170 32 -270.5t104 -134.5v839q-76 -29 -106 -138.5t-30 -295.5z" />
<glyph unicode="&#xa3;" horiz-adv-x="1263" d="M70 799h219q0 137 10 259t56 214t141.5 145t267.5 53q100 0 172 -21.5t117 -57t66.5 -78.5t21.5 -86q0 -98 -49.5 -134t-112.5 -36q-37 0 -65.5 14t-47 36.5t-28 52.5t-9.5 59q0 8 2.5 21t4.5 26.5t4 25t2 15.5q0 47 -25.5 64.5t-64.5 17.5q-61 0 -96 -31t-52.5 -83 t-23 -123t-5.5 -151v-99t-4 -103h258v-94h-264q-12 -143 -55 -277.5t-137 -245.5l6 -8q68 39 121 51.5t112 12.5q55 0 105.5 -9.5t93.5 -20.5t81 -20.5t71 -9.5q57 0 86.5 23.5t58.5 99.5l92 -35q-29 -86 -66.5 -140t-83.5 -86t-99.5 -43t-112.5 -11q-98 0 -206 17t-220 17 q-66 0 -133.5 -11t-143.5 -40l-63 64q63 68 102 146.5t62.5 165.5t33 178t15.5 182h-215v94z" />
<glyph unicode="&#xa4;" horiz-adv-x="1193" d="M969 172l-154 156q-47 -31 -107.5 -48.5t-111.5 -17.5q-47 0 -110.5 15.5t-110.5 48.5l-148 -152l-110 111l137 133q-41 55 -64.5 114.5t-23.5 137.5q0 82 23.5 146.5t64.5 117.5l-139 139l112 109l150 -154q47 33 109.5 49.5t111.5 16.5t114.5 -15.5t112.5 -48.5 l144 152l112 -109l-139 -137q41 -51 64.5 -117.5t23.5 -148.5q0 -80 -24.5 -137.5t-65.5 -110.5l139 -137zM596 967q-55 0 -99 -23.5t-75 -63.5t-47.5 -94.5t-16.5 -115.5q0 -125 64.5 -204t175.5 -79t170 79t59 204q0 61 -15 115.5t-44 94.5t-73 63.5t-99 23.5z" />
<glyph unicode="&#xa5;" horiz-adv-x="1413" d="M549 522v113l-2 4h-256v94h209l-219 436q-23 39 -42.5 75t-41 61.5t-47 41t-60.5 15.5q-10 0 -19.5 -1t-19.5 -3v82q39 -4 87 -6t97.5 -3t96.5 -2.5t84 -1.5q76 0 159.5 3.5t165.5 9.5v-82q-23 2 -34 3t-31 1q-59 0 -88 -9.5t-29 -47.5q0 -23 5 -43.5t30 -61.5l113 -223 q10 -18 25.5 -52t30.5 -70t27.5 -69.5t16.5 -52.5h8l223 438q20 41 32.5 73t12.5 54q0 31 -25.5 47.5t-90.5 16.5h-38t-57 -4v82q41 -4 74 -6t62.5 -3t61.5 -2.5t69 -1.5q39 0 67.5 1.5t53 2.5t49 3t53.5 6v-82q-8 0 -20.5 1t-20.5 1q-29 0 -48.5 -7t-36.5 -25.5 t-34.5 -48.5t-40.5 -75l-243 -471h202v-94h-250l-2 -4v-113h252v-94h-252v-145q0 -70 5.5 -112t19.5 -64.5t35.5 -29.5t56.5 -7q23 0 38 1t42 5v-82q-66 4 -112 7t-85 4t-76.5 1h-82.5h-84t-76 -1t-85 -4t-112 -7v82q23 -4 38.5 -5t31.5 -1q37 0 61.5 6t39 27.5t20.5 64.5 t6 115v145h-258v94h258z" />
<glyph unicode="&#xa6;" horiz-adv-x="458" d="M291 -338h-123v752h123v-752zM291 692h-123v752h123v-752z" />
<glyph unicode="&#xa7;" horiz-adv-x="1103" d="M346 858q-98 45 -151.5 121t-53.5 188q0 66 29 122.5t82 97t129 63.5t170 23q80 0 154.5 -16.5t133 -49.5t93.5 -79t35 -105q0 -74 -37 -119t-109 -45q-37 0 -63.5 11t-43 29.5t-23.5 41t-7 43.5q0 35 8 56.5t8 45.5q0 47 -33.5 81t-115.5 34q-25 0 -54.5 -7.5t-55 -25.5 t-43 -49t-17.5 -76q0 -55 17.5 -92t48 -62.5t71.5 -44t86 -34.5q88 -35 165 -68t134.5 -75t89 -97t31.5 -133q0 -127 -66.5 -205t-207.5 -141q41 -18 82.5 -43t75.5 -59.5t55.5 -86t21.5 -125.5t-35 -135t-94 -105t-138 -68.5t-165 -24.5q-78 0 -156 17t-140 52t-101 86 t-39 119q0 74 36.5 119t112.5 45q72 0 107 -41t35 -100q0 -23 -3.5 -36.5t-6.5 -24.5t-5 -24.5t-2 -37.5q0 -41 44 -72t116 -31q39 0 72.5 9.5t59.5 30t40 52t14 76.5q0 55 -20.5 94t-58 67t-92 51.5t-124.5 47.5q-70 31 -134 62t-114.5 74t-81 102t-30.5 145q0 68 19.5 119 t55.5 90t84 68.5t105 54.5zM307 612q0 -59 32 -99t84 -70.5t117.5 -56.5t135.5 -54q23 14 44 31.5t38.5 40t29 52t11.5 70.5q0 43 -21.5 78t-54.5 61.5t-72 48t-73.5 36t-60 23.5t-32.5 13l-61 27q-49 -29 -83 -76t-34 -125z" />
<glyph unicode="&#xa8;" horiz-adv-x="819" d="M92 1249q0 55 39 94t94 39q53 0 93 -38.5t40 -94.5q0 -55 -39.5 -94t-93.5 -39q-55 0 -94 39t-39 94zM461 1249q0 55 39 94t94 39q53 0 93 -38.5t40 -94.5q0 -55 -40 -94t-93 -39q-55 0 -94 39t-39 94z" />
<glyph unicode="&#xa9;" horiz-adv-x="1550" d="M1030 1130q0 -37 1 -61.5t3 -44.5t5 -41.5t8 -52.5l-70 -4q-2 57 -17.5 93t-40 55.5t-54 25.5t-62.5 6q-109 0 -162 -83t-53 -267q0 -176 54 -256t167 -80q66 0 117 33.5t80 97.5l69 -29q-47 -92 -121.5 -135t-169.5 -43q-88 0 -161.5 24.5t-127 76t-83 129t-29.5 182.5 q0 100 34 176t90 127t133 75.5t163 24.5q76 0 132 -9.5t95 -19.5zM78 719q0 143 54 271t149.5 222.5t221.5 149.5t271 55q143 0 271.5 -55t222.5 -149.5t149.5 -222.5t55.5 -271q0 -145 -55.5 -271t-149.5 -221.5t-222 -149.5t-272 -54q-145 0 -271 54t-221.5 149.5 t-149.5 221.5t-54 271zM156 717q0 -129 48 -242t132 -197.5t196.5 -134t241.5 -49.5t241.5 49.5t197.5 134t133.5 198.5t48.5 243t-48.5 242.5t-133.5 199.5t-197.5 135.5t-241.5 49.5t-241.5 -50.5t-196.5 -135.5t-132 -199.5t-48 -243.5z" />
<glyph unicode="&#xaa;" horiz-adv-x="806" d="M600 866q-47 0 -80 23.5t-43 58.5q-14 -29 -50 -57.5t-112 -28.5q-66 0 -107.5 15.5t-66 39t-34 52t-9.5 53.5q0 33 12.5 65.5t49.5 59.5t106.5 43t186.5 18v74q0 27 -2 53.5t-10.5 48t-26 34t-45.5 12.5q-68 0 -68 -58q0 -14 3 -27.5t3 -29.5q0 -37 -27.5 -60.5 t-64.5 -23.5q-29 0 -61.5 20.5t-32.5 73.5q0 55 66.5 100t183.5 45q131 0 192.5 -52t61.5 -152v-250q0 -78 24 -78q10 0 19.5 6t17.5 14t16 23l41 -35q-25 -37 -60.5 -58.5t-82.5 -21.5zM453 1165q-98 0 -134 -39t-36 -100q0 -16 3 -34.5t11 -36t21.5 -29t33.5 -11.5 q33 0 53.5 18.5t30.5 46.5t13.5 59.5t3.5 60.5v65z" />
<glyph unicode="&#xab;" horiz-adv-x="927" d="M496 127l-70 -53q-119 131 -188.5 206.5t-106.5 117.5t-47 62.5t-10 43.5t10 43t47 62t106.5 117t188.5 206l70 -51l-197 -377zM844 127l-70 -53q-119 131 -188.5 206.5t-106.5 117.5t-47 62.5t-10 43.5t10 43t47 62t106.5 117t188.5 206l70 -51l-197 -377z" />
<glyph unicode="&#xac;" d="M860 612h-794v90h888v-483h-94v393z" />
<glyph unicode="&#xad;" horiz-adv-x="776" d="M131 633h514v-121h-514v121z" />
<glyph unicode="&#xae;" horiz-adv-x="1126" d="M635 922q-4 18 -8 33.5t-12.5 26.5t-25 18.5t-46.5 7.5h-19v-144q0 -45 6.5 -55t26.5 -10h13.5t27.5 2v-43q-78 6 -129 6q-29 0 -62.5 -1t-68.5 -5v43q16 -2 23.5 -2h11.5q23 0 31 10t8 55v332q0 33 -9.5 44t-33.5 11h-14.5t-18.5 -2v45q31 -4 63.5 -5t57.5 -1 q27 0 53.5 2t64.5 2q61 0 100.5 -12t62 -30.5t30.5 -42t8 -44.5q0 -51 -34.5 -88t-96.5 -41v-4q59 -4 75.5 -26.5t27.5 -65.5l32 -96q8 -25 20.5 -34t39.5 -9h13t15 2v-43q-25 4 -48 4h-46t-47.5 -2t-46.5 -4zM659 1163q0 92 -84 92q-39 0 -45 -10t-6 -49v-145h23 q63 0 87.5 29.5t24.5 82.5zM90 997q0 102 36 189.5t98.5 150t149.5 98t189 35.5t189.5 -35.5t150 -98t98 -149.5t35.5 -190q0 -102 -35.5 -189t-98 -149.5t-149.5 -98.5t-190 -36q-102 0 -189 36t-149.5 98.5t-98.5 149.5t-36 189zM154 997q0 -86 31.5 -161.5t87 -131 t130 -88t160.5 -32.5t162 32.5t131 88t87 131t32 161.5t-32 162t-87 132.5t-131 89t-162 32.5t-160.5 -32.5t-130 -89t-87 -132.5t-31.5 -162z" />
<glyph unicode="&#xaf;" horiz-adv-x="819" d="M119 1307h583v-113h-585z" />
<glyph unicode="&#xb0;" horiz-adv-x="778" d="M84 1167q0 66 24.5 122.5t66.5 97t97.5 63.5t116.5 23q66 0 121 -23t96 -63.5t64.5 -97t23.5 -122.5t-23.5 -121t-64.5 -95t-96 -61.5t-121 -21.5t-121 21.5t-96 61.5t-64.5 95t-23.5 121zM207 1167q0 -86 48 -136t134 -50t134 50t48 136t-48 139.5t-134 53.5t-134 -53.5 t-48 -139.5z" />
<glyph unicode="&#xb1;" d="M565 979v-358h353v-95h-353v-350h-102v350h-354v95h354v358h102zM109 0v94h809v-94h-809z" />
<glyph unicode="&#xb2;" horiz-adv-x="753" d="M469 1251q0 70 -27.5 117t-93.5 47q-35 0 -58.5 -16.5t-27.5 -46.5q0 -23 10.5 -43.5t10.5 -46.5q0 -47 -31 -73t-82 -26t-83 32t-32 77q0 37 21.5 71.5t61.5 61.5t97.5 43t129.5 16q80 0 139 -19.5t98 -50t57.5 -70.5t18.5 -81q0 -53 -23.5 -95t-60.5 -78t-81 -64.5 t-87 -53.5q-78 -43 -141.5 -97t-75.5 -138q16 2 37.5 3t38.5 1h225q33 0 52.5 14.5t29.5 35t13 45t3 42.5l84 -10q-14 -59 -19 -114.5t-5 -98.5v-29.5t2 -27.5q-78 6 -131.5 7t-96.5 1h-202q-35 0 -73 -2t-110 -11q0 80 20.5 139.5t54.5 105.5t77 83t88 70q35 25 65.5 51.5 t54 59t38 73.5t14.5 96z" />
<glyph unicode="&#xb3;" horiz-adv-x="757" d="M295 1268q0 -49 -36 -75t-75 -26q-53 0 -84.5 31t-31.5 78q0 78 80.5 133t224.5 55q82 0 140 -19.5t94 -50t52.5 -69.5t16.5 -76q0 -59 -19.5 -99t-49 -65.5t-61.5 -41t-57 -21.5q27 -4 63 -19.5t67.5 -43t53 -68.5t21.5 -96q0 -74 -32.5 -121t-82 -75t-107.5 -39 t-110 -11q-150 0 -231.5 56.5t-81.5 135.5q0 14 5 34t17.5 36t35 28.5t59.5 12.5q55 0 80.5 -29.5t25.5 -66.5q0 -29 -7 -48.5t-7 -45.5q0 -20 10.5 -33t24.5 -19t29.5 -8t25.5 -2q59 0 96 51t37 148q0 61 -16 99t-43 59.5t-61.5 28.5t-71.5 7l-33 -2v60h31q35 2 67.5 10 t58 30.5t41 60.5t15.5 97q0 31 -6 60.5t-20.5 53t-35 38t-51.5 14.5q-37 0 -60.5 -16.5t-23.5 -44.5q0 -27 11.5 -41t11.5 -45z" />
<glyph unicode="&#xb4;" horiz-adv-x="819" d="M205 1139q45 61 83 119.5t74.5 104.5t74.5 73.5t83 27.5q53 0 73.5 -25.5t20.5 -54.5q0 -18 -14 -39.5t-53 -53t-110.5 -81t-184.5 -125.5z" />
<glyph unicode="&#xb5;" horiz-adv-x="1296" d="M195 -426q6 59 9 120.5t5 147.5t3 207t1 297v359q0 47 -1 79.5t-9 52t-25.5 28.5t-48.5 9q-27 0 -70 -6v74q31 -4 62 -4h63q82 0 154 8t151 27v-586q0 -90 8.5 -149.5t24 -95.5t39 -51t55.5 -15q29 0 62 14t60.5 57t45 121t17.5 207v230q0 47 -1 79.5t-9.5 52t-25.5 28.5 t-48 9q-27 0 -70 -6v74q31 -4 61.5 -4h63.5q82 0 153.5 8t151.5 27l2 -740q0 -94 11.5 -132t72.5 -38q29 0 72 7v-74q-31 4 -59.5 4h-57.5q-35 0 -65.5 -2t-61 -6t-64.5 -11.5t-73 -15.5q-6 33 -10 55.5t-6 41t-3 38t-4 45.5h-10q-29 -76 -97.5 -119.5t-174.5 -43.5 q-31 0 -57.5 3t-49.5 7v-414z" />
<glyph unicode="&#xb6;" horiz-adv-x="1196" d="M539 514q-10 0 -22.5 -2t-37.5 -2q-106 0 -186 34t-132 89t-78 125.5t-26 144.5q0 80 29 157t84 137t138 97t194 37h620v-86h-168v-1521h-116v1521h-183v-1521h-116v790z" />
<glyph unicode="&#xb7;" horiz-adv-x="585" d="M113 510q0 76 52 128t128 52q78 0 129 -52t51 -128t-51 -128t-129 -52q-76 0 -128 52t-52 128z" />
<glyph unicode="&#xb8;" horiz-adv-x="819" d="M248 -326q53 -33 100 -32q8 0 23.5 2t29 8t23.5 19.5t10 35.5q0 16 -17.5 34.5t-33.5 29.5q-27 16 -49.5 37.5t-22.5 50.5q0 53 50.5 81.5t127.5 57.5l25 8l27 -29q-53 -18 -71.5 -35.5t-18.5 -56.5q0 -18 17 -33.5t38 -29.5q31 -20 61.5 -48t30.5 -69q0 -35 -16.5 -58.5 t-43 -40t-61.5 -23.5t-69 -7q-18 0 -45 1t-54.5 6t-52.5 13.5t-39 20.5z" />
<glyph unicode="&#xb9;" horiz-adv-x="628" d="M465 762q2 -72 17.5 -98.5t56.5 -26.5q37 0 71 8v-70q-82 6 -131 7.5t-106 1.5q-59 0 -116.5 -1t-141.5 -8v70q23 -4 40 -5t31 -1q47 0 67.5 26.5t20.5 96.5v452q0 47 -5 64.5t-27 17.5q-18 0 -44 -7t-52.5 -17t-53 -22.5t-47.5 -24.5l-27 67q61 25 110.5 46.5t92.5 42 t82 42t82 47.5l88 -36q-2 -18 -4 -45t-3 -54.5t-1 -54.5v-47v-471z" />
<glyph unicode="&#xba;" horiz-adv-x="786" d="M88 1165q0 147 85 226t220 79t220 -78.5t85 -226.5q0 -147 -85 -227t-220 -80t-220 80t-85 227zM289 1165q0 -119 21.5 -192.5t82.5 -73.5t83 74t22 192q0 117 -21.5 191t-83.5 74q-61 0 -82.5 -74t-21.5 -191z" />
<glyph unicode="&#xbb;" horiz-adv-x="927" d="M629 504l-197 377l70 51q119 -131 188.5 -206t106.5 -117t47 -62.5t10 -42.5q0 -23 -10 -43.5t-47 -62.5t-106.5 -117.5t-188.5 -206.5l-70 53zM281 504l-197 377l70 51q119 -131 188.5 -206t106 -117t47 -62.5t10.5 -42.5q0 -23 -10.5 -43.5t-47 -62.5t-106.5 -117.5 t-188 -206.5l-70 53z" />
<glyph unicode="&#xbc;" horiz-adv-x="1628" d="M1217 242h-230h-55.5t-65.5 -2l-18 92q51 63 114.5 140t125 153.5t115.5 147.5t89 122l123 -33q-4 -37 -5 -63.5t-2 -51t-1 -51v-61.5v-295h31h60.5t64.5 2v-102q-29 2 -65 2h-60h-31v-60q0 -72 12.5 -95.5t53.5 -23.5q10 0 22 1.5t25 3.5h4q2 0 18 6v-72q-41 2 -70.5 4 t-56 3t-51.5 1h-53q-57 0 -114.5 -1t-141.5 -7v70q25 -4 42 -5t31 -1q47 0 66.5 23.5t22.5 92.5v60zM1229 649l-250 -309h246q0 78 1 153.5t9 153.5zM1133 1559l116 -41l-745 -1711l-117 41zM500 762q2 -72 17 -98.5t56 -26.5q37 0 72 8v-70q-82 6 -131 7.5t-106 1.5 q-59 0 -117 -1t-141 -8v70q23 -4 40 -5t31 -1q47 0 67.5 26.5t20.5 96.5v452q0 47 -5 64.5t-28 17.5q-18 0 -43.5 -7t-52 -17t-53.5 -22.5t-47 -24.5l-27 67q61 25 110.5 46.5t92.5 42t82 42t82 47.5l88 -36q-2 -18 -4 -45t-3 -54.5t-1 -54.5v-47v-471z" />
<glyph unicode="&#xbd;" horiz-adv-x="1699" d="M1133 1559l116 -41l-745 -1711l-117 41zM500 762q2 -72 17 -98.5t56 -26.5q37 0 72 8v-70q-82 6 -131 7.5t-106 1.5q-59 0 -117 -1t-141 -8v70q23 -4 40 -5t31 -1q47 0 67.5 26.5t20.5 96.5v452q0 47 -5 64.5t-28 17.5q-18 0 -43.5 -7t-52 -17t-53.5 -22.5t-47 -24.5 l-27 67q61 25 110.5 46.5t92.5 42t82 42t82 47.5l88 -36q-2 -18 -4 -45t-3 -54.5t-1 -54.5v-47v-471zM1399 676q0 70 -28 117t-93 47q-35 0 -58.5 -16.5t-27.5 -47.5q0 -23 10 -43t10 -47q0 -47 -30.5 -72.5t-81.5 -25.5t-83 31.5t-32 76.5q0 37 21.5 72t61.5 61.5t97.5 43 t128.5 16.5q80 0 139.5 -19.5t98.5 -50.5t57.5 -70.5t18.5 -80.5q0 -53 -23.5 -95.5t-60.5 -78t-81 -64.5t-87 -53q-78 -43 -141.5 -97.5t-75.5 -138.5q16 2 37.5 3t37.5 1h226q33 0 52 14.5t29.5 35t13.5 45t3 43.5l84 -11q-14 -59 -19.5 -114.5t-5.5 -98.5v-29.5t2 -27.5 q-78 6 -131 7t-96 1h-203q-35 0 -72.5 -2t-109.5 -10q0 80 20.5 139.5t54.5 105.5t77 82.5t88 69.5q35 25 65.5 51.5t54 59.5t38 74t14.5 96z" />
<glyph unicode="&#xbe;" horiz-adv-x="1699" d="M1292 242h-229h-55.5t-65.5 -2l-18 92q51 63 114.5 140t125 153.5t115.5 147.5t89 122l123 -33q-4 -37 -5 -63.5t-2 -51t-1 -51v-61.5v-295h30h61t64 2v-102q-29 2 -64.5 2h-60.5h-30v-60q0 -72 12 -95.5t53 -23.5q10 0 22.5 1.5t24.5 3.5h4q2 0 19 6v-72q-41 2 -70.5 4 t-56.5 3t-51.5 1h-53.5q-57 0 -114.5 -1t-141.5 -7v70q25 -4 42.5 -5t31.5 -1q47 0 66.5 23.5t21.5 92.5v60zM1305 649l-250 -309h245q0 78 1.5 153.5t9.5 153.5zM1196 1559l117 -41l-746 -1711l-116 41zM313 1268q0 -49 -35.5 -75t-74.5 -26q-53 0 -85 31t-32 78 q0 78 81 133t224 55q82 0 140.5 -19.5t94.5 -50t52 -69.5t16 -76q0 -59 -19.5 -99t-49 -65.5t-61.5 -41t-56 -21.5q27 -4 62.5 -19.5t67.5 -43t53.5 -68.5t21.5 -96q0 -74 -33 -121t-82 -75t-107.5 -39t-109.5 -11q-150 0 -231.5 56.5t-81.5 135.5q0 14 5 34t17 36 t34.5 28.5t59.5 12.5q55 0 81 -29.5t26 -66.5q0 -29 -7.5 -48.5t-7.5 -45.5q0 -20 10.5 -33t25 -19t29.5 -8t26 -2q59 0 96 51t37 148q0 61 -16.5 99t-43 59.5t-61.5 28.5t-72 7l-33 -2v60h31q35 2 68 10t58.5 30.5t40.5 60.5t15 97q0 31 -6 60.5t-20.5 53t-34.5 38 t-51 14.5q-37 0 -60.5 -16.5t-23.5 -44.5q0 -27 11 -41t11 -45z" />
<glyph unicode="&#xbf;" horiz-adv-x="1040" d="M723 817q0 -72 -49 -121t-121 -49t-121 49t-49 121t49 121t121 49t121 -49t49 -121zM606 535q6 -55 6 -103q0 -94 -23.5 -169t-72.5 -144q-10 -16 -34.5 -48t-49 -74t-44 -91t-19.5 -99q0 -37 7 -79.5t27.5 -79.5t56.5 -61.5t91 -24.5q72 0 105.5 34.5t33.5 88.5 q0 31 -4 45t-8 25.5t-8 26.5t-4 46q0 70 43 116t114 46q166 0 166 -180q0 -70 -34.5 -128.5t-97 -101.5t-147.5 -66.5t-186 -23.5q-229 0 -349 92t-120 242q0 98 34 161.5t85 108.5t109.5 81t109.5 79t85 101.5t34 152.5q0 6 -1 13t-1 14h96z" />
<glyph unicode="&#xc0;" horiz-adv-x="1476" d="M1286 242q16 -39 28.5 -71t29 -53.5t40 -33.5t62.5 -12q10 0 24.5 1t26.5 3v-82q-80 6 -171 9t-167 3t-176 -3t-182 -9v82q12 -2 29.5 -3t37.5 -1q41 0 77 13t36 54q0 18 -5 38t-22 61l-108 274h-449l-96 -254q-23 -63 -22 -104q0 -53 35.5 -69.5t86.5 -16.5q23 0 46.5 2 t39.5 6v-82q-82 6 -146.5 9t-139.5 3q-39 0 -68 -1t-53.5 -2t-48 -4t-51.5 -5v82q10 -2 30 -2q41 0 66.5 4t44 22.5t35 53t41.5 96.5l481 1220h108zM430 594h385q-49 123 -81 207t-51 139t-29.5 90t-18.5 64h-10zM639 1653q-29 18 -55.5 35.5t-48 34t-35 34t-13.5 39.5 q0 27 17.5 52.5t64.5 25.5q29 0 62 -13.5t72.5 -47t88 -90t107.5 -142.5l-51 -55z" />
<glyph unicode="&#xc1;" horiz-adv-x="1476" d="M1286 242q16 -39 28.5 -71t29 -53.5t40 -33.5t62.5 -12q10 0 24.5 1t26.5 3v-82q-80 6 -171 9t-167 3t-176 -3t-182 -9v82q12 -2 29.5 -3t37.5 -1q41 0 77 13t36 54q0 18 -5 38t-22 61l-108 274h-449l-96 -254q-23 -63 -22 -104q0 -53 35.5 -69.5t86.5 -16.5q23 0 46.5 2 t39.5 6v-82q-82 6 -146.5 9t-139.5 3q-39 0 -68 -1t-53.5 -2t-48 -4t-51.5 -5v82q10 -2 30 -2q41 0 66.5 4t44 22.5t35 53t41.5 96.5l481 1220h108zM430 594h385q-49 123 -81 207t-51 139t-29.5 90t-18.5 64h-10zM625 1526l-52 55q59 86 107.5 142.5t88.5 90t72.5 47 t61.5 13.5q47 0 64.5 -25.5t17.5 -52.5q0 -23 -13.5 -40t-35 -33.5t-49 -34t-53.5 -35.5z" />
<glyph unicode="&#xc2;" horiz-adv-x="1476" d="M1286 242q16 -39 28.5 -71t29 -53.5t40 -33.5t62.5 -12q10 0 24.5 1t26.5 3v-82q-80 6 -171 9t-167 3t-176 -3t-182 -9v82q12 -2 29.5 -3t37.5 -1q41 0 77 13t36 54q0 18 -5 38t-22 61l-108 274h-449l-96 -254q-23 -63 -22 -104q0 -53 35.5 -69.5t86.5 -16.5q23 0 46.5 2 t39.5 6v-82q-82 6 -146.5 9t-139.5 3q-39 0 -68 -1t-53.5 -2t-48 -4t-51.5 -5v82q10 -2 30 -2q41 0 66.5 4t44 22.5t35 53t41.5 96.5l481 1220h108zM430 594h385q-49 123 -81 207t-51 139t-29.5 90t-18.5 64h-10zM729 1692l-213 -166l-61 55l98 123q72 92 105.5 131t70.5 39 q18 0 34.5 -9.5t36 -28.5t44 -52t61.5 -80l99 -123l-62 -55z" />
<glyph unicode="&#xc3;" horiz-adv-x="1476" d="M1286 242q16 -39 28.5 -71t29 -53.5t40 -33.5t62.5 -12q10 0 24.5 1t26.5 3v-82q-80 6 -171 9t-167 3t-176 -3t-182 -9v82q12 -2 29.5 -3t37.5 -1q41 0 77 13t36 54q0 18 -5 38t-22 61l-108 274h-449l-96 -254q-23 -63 -22 -104q0 -53 35.5 -69.5t86.5 -16.5q23 0 46.5 2 t39.5 6v-82q-82 6 -146.5 9t-139.5 3q-39 0 -68 -1t-53.5 -2t-48 -4t-51.5 -5v82q10 -2 30 -2q41 0 66.5 4t44 22.5t35 53t41.5 96.5l481 1220h108zM430 594h385q-49 123 -81 207t-51 139t-29.5 90t-18.5 64h-10zM1085 1765q-53 -102 -115.5 -144t-127.5 -42q-49 0 -83 17.5 t-61.5 39t-53.5 39t-56 17.5q-20 0 -56 -16.5t-67 -78.5l-72 43q53 102 115.5 144.5t128.5 42.5q43 0 79 -17.5t65.5 -39t56 -39t53.5 -17.5q23 0 57.5 15.5t65.5 78.5z" />
<glyph unicode="&#xc4;" horiz-adv-x="1476" d="M1286 242q16 -39 28.5 -71t29 -53.5t40 -33.5t62.5 -12q10 0 24.5 1t26.5 3v-82q-80 6 -171 9t-167 3t-176 -3t-182 -9v82q12 -2 29.5 -3t37.5 -1q41 0 77 13t36 54q0 18 -5 38t-22 61l-108 274h-449l-96 -254q-23 -63 -22 -104q0 -53 35.5 -69.5t86.5 -16.5q23 0 46.5 2 t39.5 6v-82q-82 6 -146.5 9t-139.5 3q-39 0 -68 -1t-53.5 -2t-48 -4t-51.5 -5v82q10 -2 30 -2q41 0 66.5 4t44 22.5t35 53t41.5 96.5l481 1220h108zM430 594h385q-49 123 -81 207t-51 139t-29.5 90t-18.5 64h-10zM412 1700q0 55 38.5 93t94.5 38q53 0 93 -38t40 -93t-40 -92 t-93 -37q-55 0 -94 37t-39 92zM778 1700q0 55 39 93t94 38q53 0 93 -38t40 -93t-39.5 -92t-93.5 -37q-55 0 -94 37t-39 92z" />
<glyph unicode="&#xc5;" horiz-adv-x="1476" d="M1286 242q16 -39 28.5 -71t29 -53.5t40 -33.5t62.5 -12q10 0 24.5 1t26.5 3v-82q-80 6 -171 9t-167 3t-176 -3t-182 -9v82q12 -2 29.5 -3t37.5 -1q41 0 77 13t36 54q0 18 -5 38t-22 61l-108 274h-449l-96 -254q-23 -63 -22 -104q0 -53 35.5 -69.5t86.5 -16.5q23 0 46.5 2 t39.5 6v-82q-82 6 -146.5 9t-139.5 3q-39 0 -68 -1t-53.5 -2t-48 -4t-51.5 -5v82q10 -2 30 -2q41 0 66.5 4t44 22.5t35 53t41.5 96.5l481 1220h108zM430 594h385q-49 123 -81 207t-51 139t-29.5 90t-18.5 64h-10zM549 1700q0 43 15.5 76.5t42 55t59 33t67.5 11.5t68 -11.5 t59.5 -33t42 -55t15.5 -76.5q0 -45 -15.5 -78t-42 -54.5t-59.5 -32.5t-68 -11t-67.5 11t-59 32.5t-42 54.5t-15.5 78zM633 1700q0 -53 31.5 -81t68.5 -28q39 0 71 28t32 81t-32 79.5t-71 26.5q-37 0 -68.5 -26.5t-31.5 -79.5z" />
<glyph unicode="&#xc6;" horiz-adv-x="2074" d="M1038 674h-485l-201 -377q-16 -29 -34.5 -69t-18.5 -74q0 -35 19.5 -58.5t87.5 -23.5h38.5t44.5 4v-82q-82 6 -143 9t-137 3q-39 0 -68.5 -1t-55.5 -2t-51.5 -4t-53.5 -5v82q10 -2 17 -2h15q35 0 61.5 10t50 32.5t47.5 59.5t54 90l469 869q51 94 51 163q0 29 -20 46.5 t-68 17.5q-14 0 -29.5 -2t-31.5 -4v84q68 -4 147.5 -6t159.5 -4.5t155 -2.5h134h199q150 0 279.5 3.5t271.5 9.5q0 -55 3 -100.5t7 -89.5t11 -92t17 -109l-90 -11q-6 113 -29.5 176.5t-67.5 94t-109.5 37t-155.5 6.5q-61 0 -98 -7.5t-56.5 -27t-25 -53t-5.5 -84.5v-392 q35 -4 62 -4h53q82 0 122 13.5t55.5 41t15.5 66.5t4 92l88 -4q-8 -70 -12.5 -130t-4.5 -118q0 -63 4.5 -123.5t12.5 -121.5l-88 -4q-2 51 -3 91t-17.5 66.5t-56.5 40t-120 13.5h-54.5t-60.5 -5v-450q0 -51 4.5 -84t21.5 -52.5t50 -26.5t92 -7q113 0 185.5 9t115.5 46 t63.5 107.5t31.5 193.5l92 -10q-25 -123 -34 -222.5t-13 -211.5q-164 6 -305.5 9t-294.5 3q-121 0 -258.5 -2t-270.5 -10v82q23 -4 44.5 -4h37.5q37 0 61.5 6t40 27.5t22.5 63.5t7 114zM590 754h446v596q-47 0 -75.5 -9.5t-48 -27t-34 -44t-34.5 -61.5z" />
<glyph unicode="&#xc7;" horiz-adv-x="1327" d="M569 -326q53 -33 101 -32q8 0 23.5 2t28.5 8t23.5 19.5t10.5 35.5q0 16 -17.5 34.5t-33.5 29.5q-27 16 -49.5 37.5t-22.5 50.5q0 37 24.5 61.5t67.5 44.5q-145 6 -264 58.5t-205 147.5t-133 232.5t-47 313.5q0 182 55 322.5t154.5 236.5t235.5 145t298 49 q139 0 240.5 -18t167.5 -35q2 -53 4 -97t5 -86t9 -87t15 -100l-103 -7q-6 106 -36.5 177t-77 111t-102.5 56.5t-116 16.5q-193 0 -298 -177t-105 -507q0 -147 23.5 -269t71.5 -210t122 -137.5t176 -49.5q68 0 129.5 20.5t113.5 57.5t92 87t64 108l82 -37 q-72 -154 -195.5 -230.5t-271.5 -89.5q-35 -16 -46 -32.5t-11 -49.5q0 -18 17.5 -33.5t37.5 -29.5q31 -20 62 -48t31 -69q0 -35 -16.5 -58.5t-43 -40t-61.5 -23.5t-70 -7q-18 0 -45 1t-54.5 6t-52 13.5t-38.5 20.5z" />
<glyph unicode="&#xc8;" horiz-adv-x="1335" d="M51 76q45 -6 80 -6q37 0 62.5 6t41 27.5t22.5 64.5t7 115v868q0 70 -6 112t-21.5 64.5t-39 29.5t-56.5 7q-39 0 -90 -6v82q68 -4 142.5 -6t150.5 -4.5t145.5 -2.5h128.5q150 0 290.5 3.5t281.5 9.5q0 -55 3 -100.5t7 -89.5t11.5 -92t17.5 -109l-90 -11q-6 113 -31 176.5 t-70 94t-114.5 37t-167.5 6.5q-61 0 -98 -7.5t-56.5 -27t-25 -53t-5.5 -84.5v-389q35 -4 51.5 -4.5t43.5 -0.5q90 0 138 13.5t69.5 40t25.5 65.5t4 92l86 -4q-8 -70 -12 -130t-4 -118q0 -63 4 -123.5t12 -121.5l-86 -4q-2 51 -6 91t-25.5 66.5t-69.5 40t-136 13.5h-44.5 t-50.5 -5v-450q0 -51 4.5 -84t21.5 -52.5t50 -26.5t92 -7q121 0 200 10t128 46t73.5 107.5t35.5 194.5l92 -12q-25 -123 -34 -222.5t-13 -211.5q-164 6 -326 9t-315 3h-128t-138.5 -2t-137 -4t-125.5 -6v82zM631 1653q-29 18 -55.5 35.5t-48 34t-35 34t-13.5 39.5 q0 27 17.5 52.5t64.5 25.5q29 0 61.5 -13.5t72.5 -47t88 -90t108 -142.5l-51 -55z" />
<glyph unicode="&#xc9;" horiz-adv-x="1335" d="M51 76q45 -6 80 -6q37 0 62.5 6t41 27.5t22.5 64.5t7 115v868q0 70 -6 112t-21.5 64.5t-39 29.5t-56.5 7q-39 0 -90 -6v82q68 -4 142.5 -6t150.5 -4.5t145.5 -2.5h128.5q150 0 290.5 3.5t281.5 9.5q0 -55 3 -100.5t7 -89.5t11.5 -92t17.5 -109l-90 -11q-6 113 -31 176.5 t-70 94t-114.5 37t-167.5 6.5q-61 0 -98 -7.5t-56.5 -27t-25 -53t-5.5 -84.5v-389q35 -4 51.5 -4.5t43.5 -0.5q90 0 138 13.5t69.5 40t25.5 65.5t4 92l86 -4q-8 -70 -12 -130t-4 -118q0 -63 4 -123.5t12 -121.5l-86 -4q-2 51 -6 91t-25.5 66.5t-69.5 40t-136 13.5h-44.5 t-50.5 -5v-450q0 -51 4.5 -84t21.5 -52.5t50 -26.5t92 -7q121 0 200 10t128 46t73.5 107.5t35.5 194.5l92 -12q-25 -123 -34 -222.5t-13 -211.5q-164 6 -326 9t-315 3h-128t-138.5 -2t-137 -4t-125.5 -6v82zM637 1526l-51 55q59 86 107 142.5t88 90t73 47t61 13.5 q47 0 64.5 -25.5t17.5 -52.5q0 -23 -13 -40t-34.5 -33.5t-49.5 -34t-54 -35.5z" />
<glyph unicode="&#xca;" horiz-adv-x="1335" d="M51 76q45 -6 80 -6q37 0 62.5 6t41 27.5t22.5 64.5t7 115v868q0 70 -6 112t-21.5 64.5t-39 29.5t-56.5 7q-39 0 -90 -6v82q68 -4 142.5 -6t150.5 -4.5t145.5 -2.5h128.5q150 0 290.5 3.5t281.5 9.5q0 -55 3 -100.5t7 -89.5t11.5 -92t17.5 -109l-90 -11q-6 113 -31 176.5 t-70 94t-114.5 37t-167.5 6.5q-61 0 -98 -7.5t-56.5 -27t-25 -53t-5.5 -84.5v-389q35 -4 51.5 -4.5t43.5 -0.5q90 0 138 13.5t69.5 40t25.5 65.5t4 92l86 -4q-8 -70 -12 -130t-4 -118q0 -63 4 -123.5t12 -121.5l-86 -4q-2 51 -6 91t-25.5 66.5t-69.5 40t-136 13.5h-44.5 t-50.5 -5v-450q0 -51 4.5 -84t21.5 -52.5t50 -26.5t92 -7q121 0 200 10t128 46t73.5 107.5t35.5 194.5l92 -12q-25 -123 -34 -222.5t-13 -211.5q-164 6 -326 9t-315 3h-128t-138.5 -2t-137 -4t-125.5 -6v82zM700 1692l-213 -166l-61 55l98 123q72 92 106 131t70 39 q18 0 35 -9.5t36.5 -28.5t44 -52t61.5 -80l98 -123l-62 -55z" />
<glyph unicode="&#xcb;" horiz-adv-x="1335" d="M51 76q45 -6 80 -6q37 0 62.5 6t41 27.5t22.5 64.5t7 115v868q0 70 -6 112t-21.5 64.5t-39 29.5t-56.5 7q-39 0 -90 -6v82q68 -4 142.5 -6t150.5 -4.5t145.5 -2.5h128.5q150 0 290.5 3.5t281.5 9.5q0 -55 3 -100.5t7 -89.5t11.5 -92t17.5 -109l-90 -11q-6 113 -31 176.5 t-70 94t-114.5 37t-167.5 6.5q-61 0 -98 -7.5t-56.5 -27t-25 -53t-5.5 -84.5v-389q35 -4 51.5 -4.5t43.5 -0.5q90 0 138 13.5t69.5 40t25.5 65.5t4 92l86 -4q-8 -70 -12 -130t-4 -118q0 -63 4 -123.5t12 -121.5l-86 -4q-2 51 -6 91t-25.5 66.5t-69.5 40t-136 13.5h-44.5 t-50.5 -5v-450q0 -51 4.5 -84t21.5 -52.5t50 -26.5t92 -7q121 0 200 10t128 46t73.5 107.5t35.5 194.5l92 -12q-25 -123 -34 -222.5t-13 -211.5q-164 6 -326 9t-315 3h-128t-138.5 -2t-137 -4t-125.5 -6v82zM383 1700q0 55 39 93t94 38q53 0 93 -38t40 -93t-40 -92t-93 -37 q-55 0 -94 37t-39 92zM750 1700q0 55 38.5 93t94.5 38q53 0 93 -38t40 -93t-40 -92t-93 -37q-55 0 -94 37t-39 92z" />
<glyph unicode="&#xcc;" horiz-adv-x="831" d="M575 283q0 -72 6.5 -114t20.5 -64.5t39 -28.5t61 -6q16 0 32 1t38 5v-82q-66 4 -112 7t-84.5 4t-76.5 1h-83h-84t-76 -1t-85 -4t-112 -7v82q23 -4 38.5 -5t31.5 -1q37 0 61.5 6t39 28.5t20.5 64.5t6 114v868q0 72 -6 114t-20.5 64.5t-39 28.5t-61.5 6q-16 0 -31.5 -1 t-38.5 -5v82q66 -4 112 -7t85 -4.5t76 -1.5h84h83t76.5 1.5t85 4.5t111.5 7v-82q-23 4 -38 5t-32 1q-37 0 -61.5 -6t-38.5 -28.5t-20.5 -64.5t-6.5 -114v-868zM328 1653q-29 18 -55.5 35.5t-48 34t-35 34t-13.5 39.5q0 27 17.5 52.5t64.5 25.5q29 0 61.5 -13.5t72.5 -47 t88 -90t108 -142.5l-51 -55z" />
<glyph unicode="&#xcd;" horiz-adv-x="831" d="M575 283q0 -72 6.5 -114t20.5 -64.5t39 -28.5t61 -6q16 0 32 1t38 5v-82q-66 4 -112 7t-84.5 4t-76.5 1h-83h-84t-76 -1t-85 -4t-112 -7v82q23 -4 38.5 -5t31.5 -1q37 0 61.5 6t39 28.5t20.5 64.5t6 114v868q0 72 -6 114t-20.5 64.5t-39 28.5t-61.5 6q-16 0 -31.5 -1 t-38.5 -5v82q66 -4 112 -7t85 -4.5t76 -1.5h84h83t76.5 1.5t85 4.5t111.5 7v-82q-23 4 -38 5t-32 1q-37 0 -61.5 -6t-38.5 -28.5t-20.5 -64.5t-6.5 -114v-868zM307 1526l-51 55q59 86 107.5 142.5t88.5 90t72.5 47t61.5 13.5q47 0 64.5 -25.5t17.5 -52.5q0 -23 -13.5 -40 t-35 -33.5t-49 -34t-54.5 -35.5z" />
<glyph unicode="&#xce;" horiz-adv-x="831" d="M575 283q0 -72 6.5 -114t20.5 -64.5t39 -28.5t61 -6q16 0 32 1t38 5v-82q-66 4 -112 7t-84.5 4t-76.5 1h-83h-84t-76 -1t-85 -4t-112 -7v82q23 -4 38.5 -5t31.5 -1q37 0 61.5 6t39 28.5t20.5 64.5t6 114v868q0 72 -6 114t-20.5 64.5t-39 28.5t-61.5 6q-16 0 -31.5 -1 t-38.5 -5v82q66 -4 112 -7t85 -4.5t76 -1.5h84h83t76.5 1.5t85 4.5t111.5 7v-82q-23 4 -38 5t-32 1q-37 0 -61.5 -6t-38.5 -28.5t-20.5 -64.5t-6.5 -114v-868zM418 1692l-213 -166l-62 55l99 123q72 92 105.5 131t70.5 39q18 0 34.5 -9.5t36 -28.5t44 -52t61.5 -80l98 -123 l-61 -55z" />
<glyph unicode="&#xcf;" horiz-adv-x="831" d="M575 283q0 -72 6.5 -114t20.5 -64.5t39 -28.5t61 -6q16 0 32 1t38 5v-82q-66 4 -112 7t-84.5 4t-76.5 1h-83h-84t-76 -1t-85 -4t-112 -7v82q23 -4 38.5 -5t31.5 -1q37 0 61.5 6t39 28.5t20.5 64.5t6 114v868q0 72 -6 114t-20.5 64.5t-39 28.5t-61.5 6q-16 0 -31.5 -1 t-38.5 -5v82q66 -4 112 -7t85 -4.5t76 -1.5h84h83t76.5 1.5t85 4.5t111.5 7v-82q-23 4 -38 5t-32 1q-37 0 -61.5 -6t-38.5 -28.5t-20.5 -64.5t-6.5 -114v-868zM104 1700q0 55 39 93t95 38q53 0 93 -38t40 -93t-40 -92t-93 -37q-55 0 -94.5 37t-39.5 92zM471 1700q0 55 39 93 t94 38q53 0 93 -38t40 -93t-40 -92t-93 -37q-55 0 -94 37t-39 92z" />
<glyph unicode="&#xd0;" horiz-adv-x="1570" d="M55 76q23 -4 38.5 -5t31.5 -1q37 0 62.5 6t41 28.5t22.5 64.5t7 114v436h-170v88h170v344q0 72 -7 114t-22.5 64.5t-41 28.5t-62.5 6q-16 0 -31.5 -1t-38.5 -5v82q29 -4 49.5 -4h30.5q63 -4 119.5 -6.5t120.5 -2.5q29 0 56.5 1.5t62.5 3.5q45 4 107.5 7t127.5 3 q166 0 306.5 -39t241.5 -125t158.5 -224.5t57.5 -336.5q0 -190 -57.5 -326.5t-158.5 -224.5t-240.5 -130t-303.5 -42q-131 0 -217 6q-35 2 -74 4t-82 2q-63 0 -138 -2t-167 -10v82zM1174 717q0 125 -22 242.5t-73 210t-139 147.5t-223 55q-59 0 -92 -9t-48.5 -28.5 t-18.5 -52.5t-3 -80v-395h199v-88h-199v-486q0 -47 3 -79.5t19.5 -53t48 -29t91.5 -8.5q133 0 221 53.5t140 143.5t74 209t22 248z" />
<glyph unicode="&#xd1;" horiz-adv-x="1607" d="M1272 1188q0 100 -25.5 138t-99.5 38q-35 0 -80 -6v82q41 -2 70.5 -4t56.5 -3t55.5 -2t65.5 -1t67.5 1t61.5 2t62.5 3t72.5 4v-82q-23 0 -42 2t-36 2q-78 0 -106.5 -36t-28.5 -138v-1215h-129l-702 951q-27 35 -55.5 76.5t-53.5 81.5t-42 74t-22 50h-10v-960 q0 -102 29 -139t106 -37q37 0 80 6v-82q-41 2 -72.5 4t-62.5 4t-61.5 3t-67.5 1t-65.5 -1t-55 -3t-56.5 -4t-71 -4v82q45 -6 78 -6q74 0 99.5 37.5t25.5 138.5v962q0 90 -25.5 123t-99.5 33q-16 0 -35.5 -2t-42.5 -2v80q84 -6 139.5 -9.5t116.5 -3.5h55.5t69.5 2.5t72 4.5 t59 6q16 -35 29.5 -60.5t26 -46t24.5 -38t25 -35.5l458 -621q16 -23 37 -52.5t40.5 -60t33.5 -58.5t21 -46h10v766zM1171 1765q-53 -102 -115.5 -144t-127.5 -42q-49 0 -83 17.5t-61.5 39t-53 39t-56.5 17.5q-20 0 -56 -16.5t-67 -78.5l-72 43q53 102 115.5 144.5 t128.5 42.5q43 0 79 -17.5t65.5 -39t56 -39t53.5 -17.5q23 0 57.5 15.5t65.5 78.5z" />
<glyph unicode="&#xd2;" horiz-adv-x="1560" d="M76 717q0 170 51 309t143 237.5t222.5 152.5t287.5 54q158 0 288 -54t222 -152.5t143.5 -237.5t51.5 -309q0 -172 -51.5 -311.5t-143.5 -237.5t-222 -151.5t-288 -53.5t-288 53.5t-222 151.5t-143 237.5t-51 311.5zM422 717q0 -158 20.5 -284t64.5 -215t111.5 -137 t161.5 -48t162 48t112 137t64.5 215t20.5 284t-20.5 283.5t-64.5 215t-112 137.5t-162 48t-161.5 -48t-111.5 -137.5t-64.5 -215t-20.5 -283.5zM686 1653q-29 18 -55.5 35.5t-48 34t-34.5 34t-13 39.5q0 27 17 52.5t64 25.5q29 0 62 -13.5t73 -47t88 -90t107 -142.5l-51 -55 z" />
<glyph unicode="&#xd3;" horiz-adv-x="1560" d="M76 717q0 170 51 309t143 237.5t222.5 152.5t287.5 54q158 0 288 -54t222 -152.5t143.5 -237.5t51.5 -309q0 -172 -51.5 -311.5t-143.5 -237.5t-222 -151.5t-288 -53.5t-288 53.5t-222 151.5t-143 237.5t-51 311.5zM422 717q0 -158 20.5 -284t64.5 -215t111.5 -137 t161.5 -48t162 48t112 137t64.5 215t20.5 284t-20.5 283.5t-64.5 215t-112 137.5t-162 48t-161.5 -48t-111.5 -137.5t-64.5 -215t-20.5 -283.5zM690 1526l-51 55q59 86 107.5 142.5t88 90t72.5 47t62 13.5q47 0 64.5 -25.5t17.5 -52.5q0 -23 -13.5 -40t-35 -33.5t-49 -34 t-54.5 -35.5z" />
<glyph unicode="&#xd4;" horiz-adv-x="1560" d="M76 717q0 170 51 309t143 237.5t222.5 152.5t287.5 54q158 0 288 -54t222 -152.5t143.5 -237.5t51.5 -309q0 -172 -51.5 -311.5t-143.5 -237.5t-222 -151.5t-288 -53.5t-288 53.5t-222 151.5t-143 237.5t-51 311.5zM422 717q0 -158 20.5 -284t64.5 -215t111.5 -137 t161.5 -48t162 48t112 137t64.5 215t20.5 284t-20.5 283.5t-64.5 215t-112 137.5t-162 48t-161.5 -48t-111.5 -137.5t-64.5 -215t-20.5 -283.5zM776 1692l-213 -166l-61 55l98 123q72 92 105.5 131t70.5 39q18 0 34.5 -9.5t36 -28.5t44 -52t61.5 -80l99 -123l-62 -55z" />
<glyph unicode="&#xd5;" horiz-adv-x="1560" d="M76 717q0 170 51 309t143 237.5t222.5 152.5t287.5 54q158 0 288 -54t222 -152.5t143.5 -237.5t51.5 -309q0 -172 -51.5 -311.5t-143.5 -237.5t-222 -151.5t-288 -53.5t-288 53.5t-222 151.5t-143 237.5t-51 311.5zM422 717q0 -158 20.5 -284t64.5 -215t111.5 -137 t161.5 -48t162 48t112 137t64.5 215t20.5 284t-20.5 283.5t-64.5 215t-112 137.5t-162 48t-161.5 -48t-111.5 -137.5t-64.5 -215t-20.5 -283.5zM1124 1765q-53 -102 -115.5 -144t-127.5 -42q-49 0 -83 17.5t-61.5 39t-53.5 39t-56 17.5q-20 0 -56 -16.5t-67 -78.5l-72 43 q53 102 115.5 144.5t128.5 42.5q43 0 79 -17.5t65.5 -39t56 -39t53.5 -17.5q23 0 57.5 15.5t65.5 78.5z" />
<glyph unicode="&#xd6;" horiz-adv-x="1560" d="M76 717q0 170 51 309t143 237.5t222.5 152.5t287.5 54q158 0 288 -54t222 -152.5t143.5 -237.5t51.5 -309q0 -172 -51.5 -311.5t-143.5 -237.5t-222 -151.5t-288 -53.5t-288 53.5t-222 151.5t-143 237.5t-51 311.5zM422 717q0 -158 20.5 -284t64.5 -215t111.5 -137 t161.5 -48t162 48t112 137t64.5 215t20.5 284t-20.5 283.5t-64.5 215t-112 137.5t-162 48t-161.5 -48t-111.5 -137.5t-64.5 -215t-20.5 -283.5zM465 1700q0 55 39 93t94 38q53 0 93 -38t40 -93t-40 -92t-93 -37q-55 0 -94 37t-39 92zM831 1700q0 55 39 93t95 38q53 0 93 -38 t40 -93t-40 -92t-93 -37q-55 0 -94.5 37t-39.5 92z" />
<glyph unicode="&#xd7;" d="M215 874l299 -301l297 297l68 -61l-295 -295l290 -301l-67 -66l-291 299l-297 -296l-67 61l297 297l-302 299z" />
<glyph unicode="&#xd8;" horiz-adv-x="1560" d="M76 717q0 170 51 309t143 237.5t222.5 152.5t287.5 54q188 0 338 -77l111 196l82 -39l-117 -204q137 -96 214 -257t77 -372q0 -172 -51.5 -311.5t-143.5 -237.5t-222 -151.5t-288 -53.5q-92 0 -174 18.5t-153 53.5l-127 -223l-80 41l127 225q-141 96 -219 259t-78 380z M422 717q0 -135 14.5 -247t46.5 -198l551 975q-43 74 -105.5 114t-148.5 40q-94 0 -161.5 -48t-111.5 -137.5t-64.5 -215t-20.5 -283.5zM1139 717q0 262 -58 428l-551 -971q90 -141 250 -141q94 0 162 48t112 137t64.5 215t20.5 284z" />
<glyph unicode="&#xd9;" horiz-adv-x="1564" d="M543 530q0 -242 73.5 -360.5t241.5 -118.5q94 0 171 37t130 113q29 41 46.5 90t26.5 113.5t11 146.5t2 190v467q0 96 -28.5 126t-98.5 30q-20 0 -41.5 -1t-48.5 -3v80q41 -2 74 -4t62.5 -3t61 -2t68.5 -1t66 1t56.5 2t58 3t71.5 4v-80q-55 6 -92 6q-66 0 -90.5 -31.5 t-24.5 -126.5v-610q0 -104 -16 -217t-69.5 -205t-157 -152.5t-275.5 -60.5q-311 0 -454.5 147.5t-143.5 467.5v573q0 53 -3 93t-16.5 66.5t-39 40t-70.5 13.5q-31 0 -67 -6v82q66 -4 111.5 -7t84.5 -4.5t76 -1.5h84h83t77 1.5t85 4.5t111 7v-82q-20 4 -36.5 4h-30.5 q-41 0 -66.5 -11.5t-40 -37t-18.5 -65.5t-4 -97v-621zM750 1653q-29 18 -55.5 35.5t-48 34t-35 34t-13.5 39.5q0 27 17.5 52.5t64.5 25.5q29 0 61.5 -13.5t72.5 -47t88 -90t108 -142.5l-52 -55z" />
<glyph unicode="&#xda;" horiz-adv-x="1564" d="M543 530q0 -242 73.5 -360.5t241.5 -118.5q94 0 171 37t130 113q29 41 46.5 90t26.5 113.5t11 146.5t2 190v467q0 96 -28.5 126t-98.5 30q-20 0 -41.5 -1t-48.5 -3v80q41 -2 74 -4t62.5 -3t61 -2t68.5 -1t66 1t56.5 2t58 3t71.5 4v-80q-55 6 -92 6q-66 0 -90.5 -31.5 t-24.5 -126.5v-610q0 -104 -16 -217t-69.5 -205t-157 -152.5t-275.5 -60.5q-311 0 -454.5 147.5t-143.5 467.5v573q0 53 -3 93t-16.5 66.5t-39 40t-70.5 13.5q-31 0 -67 -6v82q66 -4 111.5 -7t84.5 -4.5t76 -1.5h84h83t77 1.5t85 4.5t111 7v-82q-20 4 -36.5 4h-30.5 q-41 0 -66.5 -11.5t-40 -37t-18.5 -65.5t-4 -97v-621zM774 1526l-51 55q59 86 107.5 142.5t88 90t72.5 47t62 13.5q47 0 64.5 -25.5t17.5 -52.5q0 -23 -13.5 -40t-35 -33.5t-49 -34t-54.5 -35.5z" />
<glyph unicode="&#xdb;" horiz-adv-x="1564" d="M543 530q0 -242 73.5 -360.5t241.5 -118.5q94 0 171 37t130 113q29 41 46.5 90t26.5 113.5t11 146.5t2 190v467q0 96 -28.5 126t-98.5 30q-20 0 -41.5 -1t-48.5 -3v80q41 -2 74 -4t62.5 -3t61 -2t68.5 -1t66 1t56.5 2t58 3t71.5 4v-80q-55 6 -92 6q-66 0 -90.5 -31.5 t-24.5 -126.5v-610q0 -104 -16 -217t-69.5 -205t-157 -152.5t-275.5 -60.5q-311 0 -454.5 147.5t-143.5 467.5v573q0 53 -3 93t-16.5 66.5t-39 40t-70.5 13.5q-31 0 -67 -6v82q66 -4 111.5 -7t84.5 -4.5t76 -1.5h84h83t77 1.5t85 4.5t111 7v-82q-20 4 -36.5 4h-30.5 q-41 0 -66.5 -11.5t-40 -37t-18.5 -65.5t-4 -97v-621zM823 1692l-213 -166l-61 55l98 123q72 92 105.5 131t70.5 39q18 0 34.5 -9.5t36 -28.5t44.5 -52t61 -80l99 -123l-62 -55z" />
<glyph unicode="&#xdc;" horiz-adv-x="1564" d="M543 530q0 -242 73.5 -360.5t241.5 -118.5q94 0 171 37t130 113q29 41 46.5 90t26.5 113.5t11 146.5t2 190v467q0 96 -28.5 126t-98.5 30q-20 0 -41.5 -1t-48.5 -3v80q41 -2 74 -4t62.5 -3t61 -2t68.5 -1t66 1t56.5 2t58 3t71.5 4v-80q-55 6 -92 6q-66 0 -90.5 -31.5 t-24.5 -126.5v-610q0 -104 -16 -217t-69.5 -205t-157 -152.5t-275.5 -60.5q-311 0 -454.5 147.5t-143.5 467.5v573q0 53 -3 93t-16.5 66.5t-39 40t-70.5 13.5q-31 0 -67 -6v82q66 -4 111.5 -7t84.5 -4.5t76 -1.5h84h83t77 1.5t85 4.5t111 7v-82q-20 4 -36.5 4h-30.5 q-41 0 -66.5 -11.5t-40 -37t-18.5 -65.5t-4 -97v-621zM526 1700q0 55 39 93t94 38q53 0 93.5 -38t40.5 -93t-40 -92t-94 -37q-55 0 -94 37t-39 92zM893 1700q0 55 39 93t94 38q53 0 93 -38t40 -93t-40 -92t-93 -37q-55 0 -94 37t-39 92z" />
<glyph unicode="&#xdd;" horiz-adv-x="1351" d="M516 631l-301 549q-23 39 -40 72.5t-35.5 58t-42 38t-58.5 13.5q-10 0 -19.5 -1t-19.5 -3v82q39 -4 87 -6t96 -3t94.5 -2.5t82.5 -1.5q76 0 160 3.5t166 9.5v-82q-23 2 -34 3t-31 1q-59 0 -88 -9.5t-29 -47.5q0 -23 10 -43.5t33 -61.5l123 -221q10 -18 25.5 -51t30.5 -69 t28.5 -68.5t19.5 -51.5h12l242 432q20 35 30.5 67t12.5 54q0 35 -26.5 52.5t-94.5 17.5h-40.5t-59.5 -4v82q82 -6 142.5 -9.5t135.5 -3.5q39 0 68 1.5t53.5 2.5t49 3t53.5 6v-82q-8 0 -20.5 1t-20.5 1q-33 0 -53.5 -9.5t-38 -31t-37 -58t-49.5 -92.5l-297 -538v-348 q0 -70 5 -112t19 -64.5t36 -29.5t56 -7q20 0 36 1t44 5v-82q-66 4 -112 7t-84.5 4t-76.5 1h-83h-84t-76 -1t-85 -4t-112 -7v82q23 -4 38.5 -5t31.5 -1q37 0 61.5 6t39 27.5t20.5 64.5t6 115v348zM602 1526l-51 55q59 86 107.5 142.5t88 90t72.5 47t62 13.5q47 0 64.5 -25.5 t17.5 -52.5q0 -23 -13.5 -40t-35 -33.5t-49 -34t-54.5 -35.5z" />
<glyph unicode="&#xde;" horiz-adv-x="1320" d="M698 1368q-35 0 -58.5 -6t-37.5 -29.5t-21.5 -68.5t-9.5 -123q82 6 162 6q260 0 404.5 -89t144.5 -292q0 -84 -32.5 -159t-107.5 -132t-197 -90t-302 -33h-33.5t-38.5 2v-73q0 -70 5.5 -112t19.5 -64.5t35.5 -29.5t56.5 -7q23 0 38 1t42 5v-80q-66 4 -112 7t-83.5 4 t-74.5 1h-82h-84t-76 -1t-85 -4t-112 -7v80q23 -4 38.5 -5t31.5 -1q37 0 61.5 6t39 27.5t20.5 64.5t6 115v874q0 70 -5 112t-19.5 64.5t-37 29.5t-55.5 7q-23 0 -38 -2t-42 -4v80q66 -4 112 -7t85 -4t76 -1h84h82t74.5 1t83.5 4t112 7v-80q-23 4 -38.5 5t-31.5 1zM571 430 q12 -2 19.5 -3t11.5 -1q174 0 256 83t82 259q0 156 -66.5 232.5t-171.5 76.5q-37 0 -62.5 -6t-40.5 -22.5t-21.5 -48t-6.5 -82.5v-488z" />
<glyph unicode="&#xdf;" horiz-adv-x="1265" d="M170 1008q0 109 21.5 194.5t77 146t149.5 92.5t239 32q111 0 183.5 -26t114.5 -62.5t59.5 -79.5t17.5 -78q0 -68 -23.5 -113t-58.5 -75.5t-77 -51t-76.5 -39t-58 -40t-23.5 -54.5q0 -31 36.5 -57.5t92 -56t119 -65.5t119 -86t92 -116.5t36.5 -159.5q0 -53 -21.5 -110.5 t-64.5 -105.5t-109.5 -79.5t-156.5 -31.5q-47 0 -83 4t-77 16l27 66q41 -14 76 -15q53 0 85 17.5t49 43t22.5 55.5t5.5 54q0 59 -30 97t-73 69t-95 57.5t-95 63.5t-73 87t-30 128q0 57 16.5 97t42 73t54.5 61.5t54.5 62.5t42 79t16.5 108q0 55 -13.5 91t-35 57.5t-48 31 t-53.5 9.5q-104 0 -139 -79t-35 -255v-797q0 -59 2 -98t11.5 -61.5t29.5 -31.5t57 -9h20.5t22.5 2v-76q-78 8 -148.5 11t-129.5 3t-137 -4t-148 -14v76q6 0 17.5 -1.5t17.5 -1.5q31 0 47 8.5t25.5 31t11.5 62.5t2 103v740z" />
<glyph unicode="&#xe0;" horiz-adv-x="1105" d="M696 129q-29 -70 -95 -115t-181 -45q-109 0 -178.5 24.5t-109.5 63.5t-54.5 85t-14.5 87q0 57 20.5 113.5t83 99.5t179.5 70t307 27v129q0 45 -4 90t-19.5 80.5t-43 57.5t-74.5 22q-57 0 -86 -27t-29 -74q0 -23 4.5 -45t4.5 -47q0 -59 -43.5 -92t-104.5 -33 q-23 0 -47.5 8t-46 25.5t-35.5 45.5t-14 66q0 45 23.5 87t73.5 75t126 52.5t180 19.5q119 0 200 -23.5t130 -67.5t69.5 -106.5t20.5 -140.5v-440q0 -49 10 -80t33 -31q16 0 30.5 11.5t24.5 25.5q12 16 25 39l57 -55q-39 -59 -92 -100.5t-133 -41.5q-74 0 -125 47t-63 113h-9 zM653 471q-84 0 -138 -15.5t-88 -45t-47 -73.5t-13 -99q0 -25 6 -58t21.5 -61.5t39 -48t60.5 -19.5q59 0 90.5 31t47 77t18.5 99t3 100v113zM641 1085q-106 70 -176 117t-112 81t-58 56.5t-16 44.5q0 29 20 54.5t74 25.5q45 0 84 -27.5t75.5 -73.5t74.5 -104.5t81 -119.5z " />
<glyph unicode="&#xe1;" horiz-adv-x="1105" d="M696 129q-29 -70 -95 -115t-181 -45q-109 0 -178.5 24.5t-109.5 63.5t-54.5 85t-14.5 87q0 57 20.5 113.5t83 99.5t179.5 70t307 27v129q0 45 -4 90t-19.5 80.5t-43 57.5t-74.5 22q-57 0 -86 -27t-29 -74q0 -23 4.5 -45t4.5 -47q0 -59 -43.5 -92t-104.5 -33 q-23 0 -47.5 8t-46 25.5t-35.5 45.5t-14 66q0 45 23.5 87t73.5 75t126 52.5t180 19.5q119 0 200 -23.5t130 -67.5t69.5 -106.5t20.5 -140.5v-440q0 -49 10 -80t33 -31q16 0 30.5 11.5t24.5 25.5q12 16 25 39l57 -55q-39 -59 -92 -100.5t-133 -41.5q-74 0 -125 47t-63 113h-9 zM653 471q-84 0 -138 -15.5t-88 -45t-47 -73.5t-13 -99q0 -25 6 -58t21.5 -61.5t39 -48t60.5 -19.5q59 0 90.5 31t47 77t18.5 99t3 100v113zM360 1139q45 61 83 119.5t75 104.5t75 73.5t83 27.5q53 0 73.5 -25.5t20.5 -54.5q0 -18 -14.5 -39.5t-53 -53t-110.5 -81 t-184 -125.5z" />
<glyph unicode="&#xe2;" horiz-adv-x="1105" d="M696 129q-29 -70 -95 -115t-181 -45q-109 0 -178.5 24.5t-109.5 63.5t-54.5 85t-14.5 87q0 57 20.5 113.5t83 99.5t179.5 70t307 27v129q0 45 -4 90t-19.5 80.5t-43 57.5t-74.5 22q-57 0 -86 -27t-29 -74q0 -23 4.5 -45t4.5 -47q0 -59 -43.5 -92t-104.5 -33 q-23 0 -47.5 8t-46 25.5t-35.5 45.5t-14 66q0 45 23.5 87t73.5 75t126 52.5t180 19.5q119 0 200 -23.5t130 -67.5t69.5 -106.5t20.5 -140.5v-440q0 -49 10 -80t33 -31q16 0 30.5 11.5t24.5 25.5q12 16 25 39l57 -55q-39 -59 -92 -100.5t-133 -41.5q-74 0 -125 47t-63 113h-9 zM653 471q-84 0 -138 -15.5t-88 -45t-47 -73.5t-13 -99q0 -25 6 -58t21.5 -61.5t39 -48t60.5 -19.5q59 0 90.5 31t47 77t18.5 99t3 100v113zM293 1085l-55 56q76 96 123 158.5t76.5 99.5t50 51t42.5 14q23 0 45.5 -15t54.5 -52t77 -99.5t116 -156.5l-55 -56l-238 193z" />
<glyph unicode="&#xe3;" horiz-adv-x="1105" d="M696 129q-29 -70 -95 -115t-181 -45q-109 0 -178.5 24.5t-109.5 63.5t-54.5 85t-14.5 87q0 57 20.5 113.5t83 99.5t179.5 70t307 27v129q0 45 -4 90t-19.5 80.5t-43 57.5t-74.5 22q-57 0 -86 -27t-29 -74q0 -23 4.5 -45t4.5 -47q0 -59 -43.5 -92t-104.5 -33 q-23 0 -47.5 8t-46 25.5t-35.5 45.5t-14 66q0 45 23.5 87t73.5 75t126 52.5t180 19.5q119 0 200 -23.5t130 -67.5t69.5 -106.5t20.5 -140.5v-440q0 -49 10 -80t33 -31q16 0 30.5 11.5t24.5 25.5q12 16 25 39l57 -55q-39 -59 -92 -100.5t-133 -41.5q-74 0 -125 47t-63 113h-9 zM653 471q-84 0 -138 -15.5t-88 -45t-47 -73.5t-13 -99q0 -25 6 -58t21.5 -61.5t39 -48t60.5 -19.5q59 0 90.5 31t47 77t18.5 99t3 100v113zM889 1313q-53 -102 -115.5 -144.5t-128.5 -42.5q-49 0 -86 17.5t-65.5 39t-53 39t-49.5 17.5q-29 0 -56.5 -20.5t-58.5 -73.5 l-79 43q53 102 115.5 144t127.5 42q43 0 79 -17.5t65.5 -39t56.5 -38.5t53 -17q29 0 56.5 19t58.5 75z" />
<glyph unicode="&#xe4;" horiz-adv-x="1105" d="M696 129q-29 -70 -95 -115t-181 -45q-109 0 -178.5 24.5t-109.5 63.5t-54.5 85t-14.5 87q0 57 20.5 113.5t83 99.5t179.5 70t307 27v129q0 45 -4 90t-19.5 80.5t-43 57.5t-74.5 22q-57 0 -86 -27t-29 -74q0 -23 4.5 -45t4.5 -47q0 -59 -43.5 -92t-104.5 -33 q-23 0 -47.5 8t-46 25.5t-35.5 45.5t-14 66q0 45 23.5 87t73.5 75t126 52.5t180 19.5q119 0 200 -23.5t130 -67.5t69.5 -106.5t20.5 -140.5v-440q0 -49 10 -80t33 -31q16 0 30.5 11.5t24.5 25.5q12 16 25 39l57 -55q-39 -59 -92 -100.5t-133 -41.5q-74 0 -125 47t-63 113h-9 zM653 471q-84 0 -138 -15.5t-88 -45t-47 -73.5t-13 -99q0 -25 6 -58t21.5 -61.5t39 -48t60.5 -19.5q59 0 90.5 31t47 77t18.5 99t3 100v113zM211 1249q0 55 39 94t94 39q53 0 93 -38.5t40 -94.5q0 -55 -40 -94t-93 -39q-55 0 -94 39t-39 94zM580 1249q0 55 38.5 94t94.5 39 q53 0 93 -38.5t40 -94.5q0 -55 -40 -94t-93 -39q-55 0 -94 39t-39 94z" />
<glyph unicode="&#xe5;" horiz-adv-x="1105" d="M696 129q-29 -70 -95 -115t-181 -45q-109 0 -178.5 24.5t-109.5 63.5t-54.5 85t-14.5 87q0 57 20.5 113.5t83 99.5t179.5 70t307 27v129q0 45 -4 90t-19.5 80.5t-43 57.5t-74.5 22q-57 0 -86 -27t-29 -74q0 -23 4.5 -45t4.5 -47q0 -59 -43.5 -92t-104.5 -33 q-23 0 -47.5 8t-46 25.5t-35.5 45.5t-14 66q0 45 23.5 87t73.5 75t126 52.5t180 19.5q119 0 200 -23.5t130 -67.5t69.5 -106.5t20.5 -140.5v-440q0 -49 10 -80t33 -31q16 0 30.5 11.5t24.5 25.5q12 16 25 39l57 -55q-39 -59 -92 -100.5t-133 -41.5q-74 0 -125 47t-63 113h-9 zM653 471q-84 0 -138 -15.5t-88 -45t-47 -73.5t-13 -99q0 -25 6 -58t21.5 -61.5t39 -48t60.5 -19.5q59 0 90.5 31t47 77t18.5 99t3 100v113zM526 1448q86 0 137.5 -53.5t51.5 -126.5q0 -78 -51.5 -130.5t-137.5 -52.5q-82 0 -135 52.5t-53 130.5q0 74 53 127t135 53z M428 1268q0 -47 30.5 -77t67.5 -30t68 30t31 77q0 45 -31 72.5t-68 27.5t-67.5 -27.5t-30.5 -72.5z" />
<glyph unicode="&#xe6;" horiz-adv-x="1603" d="M1534 233q-53 -119 -154.5 -194.5t-265.5 -75.5q-115 0 -192.5 48t-128.5 120q-35 -61 -125 -113.5t-248 -52.5q-109 0 -178.5 25.5t-109.5 64.5t-54.5 86t-14.5 88q0 57 20.5 113.5t83 99.5t179.5 70t307 27v129q0 45 -4 90t-19.5 80.5t-43 57.5t-74.5 22q-57 0 -86 -27 t-29 -74q0 -23 4.5 -45t4.5 -47q0 -59 -43.5 -92t-104.5 -33q-23 0 -47.5 8t-46 25.5t-35.5 45.5t-14 66q0 45 23.5 87t73.5 75t126 52.5t180 19.5q123 0 199 -36t112 -91q53 53 120 90t163 37q127 0 210 -42t132 -103.5t68.5 -132t19.5 -128.5q0 -35 -11 -55t-39 -30.5 t-76 -13.5t-122 -3h-362q0 -209 66.5 -315.5t181.5 -106.5q31 0 67.5 10.5t74.5 35t74 67.5t60 108zM1061 539q59 0 97 6t59.5 23.5t28.5 46t7 73.5t-9 86t-26.5 73t-45 51.5t-64.5 19.5q-51 0 -84 -35t-52.5 -90.5t-26.5 -123t-7 -130.5h123zM653 471q-84 0 -138 -15.5 t-88 -45t-47 -73.5t-13 -99q0 -33 6 -67t21.5 -61.5t39 -45t60.5 -17.5q59 0 90.5 32t47 78t18.5 100t3 101v113z" />
<glyph unicode="&#xe7;" horiz-adv-x="1013" d="M369 -326q53 -33 100 -32q8 0 23.5 2t29 8t23.5 19.5t10 35.5q0 16 -17.5 34.5t-33.5 29.5q-27 16 -49.5 37.5t-22.5 50.5q0 37 24.5 61.5t67.5 44.5q-211 14 -331.5 145.5t-120.5 362.5q0 115 32.5 208t97 159.5t158 102.5t213.5 36q104 0 178 -24.5t122.5 -61.5t71 -81 t22.5 -83q0 -41 -14.5 -69.5t-37 -47t-49 -26.5t-49.5 -8q-59 0 -105 30.5t-46 98.5q0 29 6 52t6 46q0 47 -20.5 80t-69.5 33q-94 0 -142.5 -114t-48.5 -331t60.5 -320.5t165.5 -103.5q31 0 66.5 9.5t71.5 33t68.5 64.5t57.5 106l80 -35q-49 -102 -129 -173.5t-207 -86.5 q-35 -16 -47.5 -32.5t-12.5 -49.5q0 -18 17.5 -33.5t38.5 -29.5q31 -20 61.5 -48t30.5 -69q0 -35 -16.5 -58.5t-43 -40t-61.5 -23.5t-70 -7q-18 0 -44.5 1t-54.5 6t-52.5 13.5t-38.5 20.5z" />
<glyph unicode="&#xe8;" horiz-adv-x="1056" d="M981 233q-53 -119 -154.5 -194.5t-265.5 -75.5q-115 0 -205 36t-153.5 101.5t-97 158.5t-33.5 210t34.5 212t98 160.5t154 101.5t200.5 36q127 0 212 -42t135 -103.5t71.5 -132t21.5 -128.5q0 -35 -11 -55t-38.5 -30.5t-76 -13.5t-121.5 -3h-379q0 -209 66.5 -315.5 t181.5 -106.5q31 0 68.5 10.5t76.5 35t76 67.5t61 108zM518 539q59 0 97 6t59.5 23.5t29 46t7.5 73.5t-10.5 86t-29 73t-47 51.5t-65.5 19.5q-51 0 -85 -35t-55.5 -90.5t-30.5 -123t-9 -130.5h139zM664 1085q-106 70 -176 117t-112 81t-58.5 56.5t-16.5 44.5q0 29 20.5 54.5 t73.5 25.5q45 0 84 -27.5t76 -73.5t75 -104.5t81 -119.5z" />
<glyph unicode="&#xe9;" horiz-adv-x="1056" d="M981 233q-53 -119 -154.5 -194.5t-265.5 -75.5q-115 0 -205 36t-153.5 101.5t-97 158.5t-33.5 210t34.5 212t98 160.5t154 101.5t200.5 36q127 0 212 -42t135 -103.5t71.5 -132t21.5 -128.5q0 -35 -11 -55t-38.5 -30.5t-76 -13.5t-121.5 -3h-379q0 -209 66.5 -315.5 t181.5 -106.5q31 0 68.5 10.5t76.5 35t76 67.5t61 108zM518 539q59 0 97 6t59.5 23.5t29 46t7.5 73.5t-10.5 86t-29 73t-47 51.5t-65.5 19.5q-51 0 -85 -35t-55.5 -90.5t-30.5 -123t-9 -130.5h139zM383 1139q45 61 83 119.5t75 104.5t74.5 73.5t82.5 27.5q53 0 74 -25.5 t21 -54.5q0 -18 -14.5 -39.5t-53.5 -53t-110.5 -81t-184.5 -125.5z" />
<glyph unicode="&#xea;" horiz-adv-x="1056" d="M981 233q-53 -119 -154.5 -194.5t-265.5 -75.5q-115 0 -205 36t-153.5 101.5t-97 158.5t-33.5 210t34.5 212t98 160.5t154 101.5t200.5 36q127 0 212 -42t135 -103.5t71.5 -132t21.5 -128.5q0 -35 -11 -55t-38.5 -30.5t-76 -13.5t-121.5 -3h-379q0 -209 66.5 -315.5 t181.5 -106.5q31 0 68.5 10.5t76.5 35t76 67.5t61 108zM518 539q59 0 97 6t59.5 23.5t29 46t7.5 73.5t-10.5 86t-29 73t-47 51.5t-65.5 19.5q-51 0 -85 -35t-55.5 -90.5t-30.5 -123t-9 -130.5h139zM311 1085l-55 56q76 96 123 158.5t76.5 99.5t50 51t43.5 14t45 -15t54 -52 t77 -99.5t117 -156.5l-56 -56l-237 193z" />
<glyph unicode="&#xeb;" horiz-adv-x="1056" d="M981 233q-53 -119 -154.5 -194.5t-265.5 -75.5q-115 0 -205 36t-153.5 101.5t-97 158.5t-33.5 210t34.5 212t98 160.5t154 101.5t200.5 36q127 0 212 -42t135 -103.5t71.5 -132t21.5 -128.5q0 -35 -11 -55t-38.5 -30.5t-76 -13.5t-121.5 -3h-379q0 -209 66.5 -315.5 t181.5 -106.5q31 0 68.5 10.5t76.5 35t76 67.5t61 108zM518 539q59 0 97 6t59.5 23.5t29 46t7.5 73.5t-10.5 86t-29 73t-47 51.5t-65.5 19.5q-51 0 -85 -35t-55.5 -90.5t-30.5 -123t-9 -130.5h139zM223 1249q0 55 39 94t94 39q53 0 93 -38.5t40 -94.5q0 -55 -39.5 -94 t-93.5 -39q-55 0 -94 39t-39 94zM592 1249q0 55 39 94t94 39q53 0 93 -38.5t40 -94.5q0 -55 -40 -94t-93 -39q-55 0 -94 39t-39 94z" />
<glyph unicode="&#xec;" horiz-adv-x="675" d="M498 268q0 -59 1 -98t10 -61.5t29.5 -31.5t57.5 -9h20.5t22.5 2v-76q-78 8 -148.5 11t-130.5 3q-59 0 -137 -4t-147 -14v76q6 0 12 -1.5t12 -1.5q37 0 56.5 10.5t29 35t10.5 63.5t1 96v434q0 47 -1 80t-9.5 52.5t-26 28.5t-47.5 9q-27 0 -70 -6v76q31 -4 61.5 -4h63.5 q82 0 166 8t164 27v-705zM492 1085q-106 70 -176 117t-112 81t-58.5 56.5t-16.5 44.5q0 29 20.5 54.5t73.5 25.5q45 0 84 -27.5t76 -73.5t75 -104.5t81 -119.5z" />
<glyph unicode="&#xed;" horiz-adv-x="675" d="M498 268q0 -59 1 -98t10 -61.5t29.5 -31.5t57.5 -9h20.5t22.5 2v-76q-78 8 -148.5 11t-130.5 3q-59 0 -137 -4t-147 -14v76q6 0 12 -1.5t12 -1.5q37 0 56.5 10.5t29 35t10.5 63.5t1 96v434q0 47 -1 80t-9.5 52.5t-26 28.5t-47.5 9q-27 0 -70 -6v76q31 -4 61.5 -4h63.5 q82 0 166 8t164 27v-705zM180 1139q45 61 83 119.5t75 104.5t75 73.5t83 27.5q53 0 73.5 -25.5t20.5 -54.5q0 -18 -14.5 -39.5t-53.5 -53t-110.5 -81t-184.5 -125.5z" />
<glyph unicode="&#xee;" horiz-adv-x="675" d="M121 1085l-55 56q72 96 114.5 158.5t70.5 99.5t46 51t41 14t43 -15t49 -52t71 -99.5t109 -156.5l-55 -56l-217 189zM498 268q0 -59 1 -98t10 -61.5t29.5 -31.5t57.5 -9h20.5t22.5 2v-76q-78 8 -148.5 11t-130.5 3q-59 0 -137 -4t-147 -14v76q6 0 12 -1.5t12 -1.5 q37 0 56.5 10.5t29 35t10.5 63.5t1 96v434q0 47 -1 80t-9.5 52.5t-26 28.5t-47.5 9q-27 0 -70 -6v76q31 -4 61.5 -4h63.5q82 0 166 8t164 27v-705z" />
<glyph unicode="&#xef;" horiz-adv-x="675" d="M49 1249q0 51 36 88t89 37q51 0 88 -37t37 -88t-37 -87t-88 -36q-53 0 -89 36t-36 87zM377 1249q0 51 36 88t87 37q53 0 90 -37t37 -88t-37 -87t-90 -36q-51 0 -87 36t-36 87zM498 268q0 -59 1 -98t10 -61.5t29.5 -31.5t57.5 -9h20.5t22.5 2v-76q-78 8 -148.5 11 t-130.5 3q-59 0 -137 -4t-147 -14v76q6 0 12 -1.5t12 -1.5q37 0 56.5 10.5t29 35t10.5 63.5t1 96v434q0 47 -1 80t-9.5 52.5t-26 28.5t-47.5 9q-27 0 -70 -6v76q31 -4 61.5 -4h63.5q82 0 166 8t164 27v-705z" />
<glyph unicode="&#xf0;" horiz-adv-x="1118" d="M418 1245q-35 41 -76 88t-90 101q37 0 78 3t81 9t74.5 12t59.5 12l84 -100l168 100l61 -94l-156 -96q184 -240 263 -439.5t79 -385.5q0 -127 -41.5 -219.5t-110.5 -152.5t-156 -90t-175 -30q-121 0 -212 40t-152.5 107.5t-92 156.5t-30.5 188q0 119 32.5 209t92 151.5 t144.5 92t187 30.5q63 0 132 -12q-29 31 -69 88t-101 139l-158 -96l-64 100zM559 39q57 0 93 43t55.5 106.5t26.5 135t7 127.5q0 76 -7 147.5t-27.5 127.5t-55.5 90t-92 34q-59 0 -95 -34t-54.5 -90t-24.5 -127t-6 -144q0 -59 6 -131t24.5 -135.5t54.5 -106.5t95 -43z" />
<glyph unicode="&#xf1;" horiz-adv-x="1273" d="M498 268q0 -59 1 -98t10 -61.5t29.5 -31.5t57.5 -9h20.5t22.5 2v-76q-78 8 -148.5 11t-130.5 3q-59 0 -137 -4t-147 -14v76q6 0 12 -1.5t12 -1.5q37 0 56.5 10.5t29 35t10.5 63.5t1 96v434q0 47 -1 80t-9.5 52.5t-26 28.5t-47.5 9q-27 0 -70 -6v76q31 -4 59.5 -4h57.5 q72 0 140.5 8t148.5 27q6 -35 10 -55.5t7 -38t4 -37t1 -49.5h10q29 76 102.5 128t180.5 52q115 0 183.5 -34t104 -86t47 -115.5t11.5 -125.5v-344q0 -59 1 -98t10 -61.5t29.5 -31.5t57.5 -9h20.5t22.5 2v-76q-78 8 -148.5 11t-129.5 3t-132 -4t-143 -14v76q6 0 12.5 -1.5 t12.5 -1.5q31 0 47 8.5t25.5 31t11.5 62.5t2 103v303q0 90 -7 149.5t-22.5 94.5t-38 49.5t-55.5 14.5q-29 0 -62.5 -13.5t-61 -55.5t-46 -120t-18.5 -207v-215zM987 1313q-53 -102 -115.5 -144.5t-128.5 -42.5q-49 0 -85.5 17.5t-65.5 39t-53.5 39t-49.5 17.5 q-29 0 -56 -20.5t-58 -73.5l-80 43q53 102 115.5 144t128.5 42q43 0 78.5 -17.5t65.5 -39t56.5 -38.5t53.5 -17q29 0 56.5 19t57.5 75z" />
<glyph unicode="&#xf2;" horiz-adv-x="1157" d="M74 471q0 242 133 375t371 133q240 0 372.5 -133t132.5 -375q0 -240 -133 -374t-372 -134q-238 0 -371 134t-133 374zM399 471q0 -100 9.5 -182t31 -140.5t55 -91t83.5 -32.5q49 0 83.5 32.5t56 91t31 140.5t9.5 182t-9.5 182t-31 140.5t-56 91.5t-83.5 33t-83 -33 t-55.5 -91.5t-31 -140.5t-9.5 -182zM696 1085q-106 70 -175.5 117t-111.5 81t-58.5 56.5t-16.5 44.5q0 29 20.5 54.5t73.5 25.5q45 0 84 -27.5t76 -73.5t74.5 -104.5t80.5 -119.5z" />
<glyph unicode="&#xf3;" horiz-adv-x="1157" d="M74 471q0 242 133 375t371 133q240 0 372.5 -133t132.5 -375q0 -240 -133 -374t-372 -134q-238 0 -371 134t-133 374zM399 471q0 -100 9.5 -182t31 -140.5t55 -91t83.5 -32.5q49 0 83.5 32.5t56 91t31 140.5t9.5 182t-9.5 182t-31 140.5t-56 91.5t-83.5 33t-83 -33 t-55.5 -91.5t-31 -140.5t-9.5 -182zM414 1139q45 61 83 119.5t74.5 104.5t74.5 73.5t83 27.5q53 0 73.5 -25.5t20.5 -54.5q0 -18 -14 -39.5t-53 -53t-111 -81t-184 -125.5z" />
<glyph unicode="&#xf4;" horiz-adv-x="1157" d="M74 471q0 242 133 375t371 133q240 0 372.5 -133t132.5 -375q0 -240 -133 -374t-372 -134q-238 0 -371 134t-133 374zM399 471q0 -100 9.5 -182t31 -140.5t55 -91t83.5 -32.5q49 0 83.5 32.5t56 91t31 140.5t9.5 182t-9.5 182t-31 140.5t-56 91.5t-83.5 33t-83 -33 t-55.5 -91.5t-31 -140.5t-9.5 -182zM344 1085l-55 56q76 96 123 158.5t76.5 99.5t50 51t43.5 14t45 -15t54 -52t77 -99.5t116 -156.5l-55 -56l-237 193z" />
<glyph unicode="&#xf5;" horiz-adv-x="1157" d="M74 471q0 242 133 375t371 133q240 0 372.5 -133t132.5 -375q0 -240 -133 -374t-372 -134q-238 0 -371 134t-133 374zM399 471q0 -100 9.5 -182t31 -140.5t55 -91t83.5 -32.5q49 0 83.5 32.5t56 91t31 140.5t9.5 182t-9.5 182t-31 140.5t-56 91.5t-83.5 33t-83 -33 t-55.5 -91.5t-31 -140.5t-9.5 -182zM926 1313q-53 -102 -115.5 -144.5t-128.5 -42.5q-49 0 -86 17.5t-65.5 39t-53 39t-49.5 17.5q-29 0 -56.5 -20.5t-58.5 -73.5l-80 43q53 102 116 144t128 42q43 0 79 -17.5t65.5 -39t56.5 -38.5t53 -17q29 0 56.5 19t58.5 75z" />
<glyph unicode="&#xf6;" horiz-adv-x="1157" d="M74 471q0 242 133 375t371 133q240 0 372.5 -133t132.5 -375q0 -240 -133 -374t-372 -134q-238 0 -371 134t-133 374zM399 471q0 -100 9.5 -182t31 -140.5t55 -91t83.5 -32.5q49 0 83.5 32.5t56 91t31 140.5t9.5 182t-9.5 182t-31 140.5t-56 91.5t-83.5 33t-83 -33 t-55.5 -91.5t-31 -140.5t-9.5 -182zM260 1249q0 55 39 94t94 39q53 0 93 -38.5t40 -94.5q0 -55 -40 -94t-93 -39q-55 0 -94 39t-39 94zM629 1249q0 55 39 94t94 39q53 0 93 -38.5t40 -94.5q0 -55 -40 -94t-93 -39q-55 0 -94 39t-39 94z" />
<glyph unicode="&#xf7;" d="M401 219q0 47 32 78t79 31t78 -31t31 -78t-31 -78.5t-78 -31.5t-79 31.5t-32 78.5zM401 795q0 47 32 77.5t79 30.5t78 -30.5t31 -77.5t-31 -79t-78 -32t-79 32t-32 79zM977 553v-90h-930v90h930z" />
<glyph unicode="&#xf8;" horiz-adv-x="1159" d="M76 471q0 242 133 375t371 133q176 0 297 -76l92 109l63 -54l-90 -106q70 -66 106.5 -162t36.5 -219q0 -240 -133 -374t-372 -134q-190 0 -316 88l-100 -119l-64 54l101 118q-125 136 -125 367zM760 471q0 84 -6 158l-336 -396q18 -98 57 -153t105 -55q49 0 83.5 32.5 t56 91t31 140.5t9.5 182zM401 471v-65.5t5 -59.5l329 391q-18 86 -57 133.5t-98 47.5q-49 0 -83 -33t-55.5 -91.5t-31 -140.5t-9.5 -182z" />
<glyph unicode="&#xf9;" horiz-adv-x="1261" d="M1079 238q0 -47 1 -80t9.5 -52.5t24.5 -28.5t47 -9q29 0 72 6v-78q-31 4 -59.5 4h-57.5q-72 0 -140.5 -8t-148.5 -27q-6 33 -10 55.5t-6 41t-3 38t-3 45.5h-10q-29 -76 -103 -130t-180 -54q-115 0 -183.5 34t-104.5 87t-47 117.5t-11 126.5v376q0 47 -1 80t-9.5 52.5 t-25.5 28.5t-48 9q-27 0 -70 -6v76q31 -4 61.5 -4h63.5q82 0 166 8t164 27v-606q0 -90 7 -149.5t22.5 -95.5t38 -51.5t55.5 -15.5q29 0 62.5 14.5t61 57.5t46 121t18.5 207v247q0 47 -1 80t-9 52.5t-25.5 28.5t-48.5 9q-27 0 -69 -6v76q31 -4 61.5 -4h63.5q82 0 165.5 8 t163.5 27v-735zM741 1085q-106 70 -175.5 117t-111.5 81t-58.5 56.5t-16.5 44.5q0 29 20.5 54.5t73.5 25.5q45 0 84 -27.5t76 -73.5t74.5 -104.5t80.5 -119.5z" />
<glyph unicode="&#xfa;" horiz-adv-x="1261" d="M1079 238q0 -47 1 -80t9.5 -52.5t24.5 -28.5t47 -9q29 0 72 6v-78q-31 4 -59.5 4h-57.5q-72 0 -140.5 -8t-148.5 -27q-6 33 -10 55.5t-6 41t-3 38t-3 45.5h-10q-29 -76 -103 -130t-180 -54q-115 0 -183.5 34t-104.5 87t-47 117.5t-11 126.5v376q0 47 -1 80t-9.5 52.5 t-25.5 28.5t-48 9q-27 0 -70 -6v76q31 -4 61.5 -4h63.5q82 0 166 8t164 27v-606q0 -90 7 -149.5t22.5 -95.5t38 -51.5t55.5 -15.5q29 0 62.5 14.5t61 57.5t46 121t18.5 207v247q0 47 -1 80t-9 52.5t-25.5 28.5t-48.5 9q-27 0 -69 -6v76q31 -4 61.5 -4h63.5q82 0 165.5 8 t163.5 27v-735zM463 1139q45 61 83 119.5t74.5 104.5t74.5 73.5t83 27.5q53 0 73.5 -25.5t20.5 -54.5q0 -18 -14 -39.5t-53 -53t-110.5 -81t-184.5 -125.5z" />
<glyph unicode="&#xfb;" horiz-adv-x="1261" d="M1079 238q0 -47 1 -80t9.5 -52.5t24.5 -28.5t47 -9q29 0 72 6v-78q-31 4 -59.5 4h-57.5q-72 0 -140.5 -8t-148.5 -27q-6 33 -10 55.5t-6 41t-3 38t-3 45.5h-10q-29 -76 -103 -130t-180 -54q-115 0 -183.5 34t-104.5 87t-47 117.5t-11 126.5v376q0 47 -1 80t-9.5 52.5 t-25.5 28.5t-48 9q-27 0 -70 -6v76q31 -4 61.5 -4h63.5q82 0 166 8t164 27v-606q0 -90 7 -149.5t22.5 -95.5t38 -51.5t55.5 -15.5q29 0 62.5 14.5t61 57.5t46 121t18.5 207v247q0 47 -1 80t-9 52.5t-25.5 28.5t-48.5 9q-27 0 -69 -6v76q31 -4 61.5 -4h63.5q82 0 165.5 8 t163.5 27v-735zM393 1085l-55 56q76 96 123 158.5t76.5 99.5t50 51t43.5 14t45 -15t54 -52t77 -99.5t117 -156.5l-56 -56l-237 193z" />
<glyph unicode="&#xfc;" horiz-adv-x="1261" d="M1079 238q0 -47 1 -80t9.5 -52.5t24.5 -28.5t47 -9q29 0 72 6v-78q-31 4 -59.5 4h-57.5q-72 0 -140.5 -8t-148.5 -27q-6 33 -10 55.5t-6 41t-3 38t-3 45.5h-10q-29 -76 -103 -130t-180 -54q-115 0 -183.5 34t-104.5 87t-47 117.5t-11 126.5v376q0 47 -1 80t-9.5 52.5 t-25.5 28.5t-48 9q-27 0 -70 -6v76q31 -4 61.5 -4h63.5q82 0 166 8t164 27v-606q0 -90 7 -149.5t22.5 -95.5t38 -51.5t55.5 -15.5q29 0 62.5 14.5t61 57.5t46 121t18.5 207v247q0 47 -1 80t-9 52.5t-25.5 28.5t-48.5 9q-27 0 -69 -6v76q31 -4 61.5 -4h63.5q82 0 165.5 8 t163.5 27v-735zM309 1249q0 55 39 94t94 39q53 0 93 -38.5t40 -94.5q0 -55 -39.5 -94t-93.5 -39q-55 0 -94 39t-39 94zM678 1249q0 55 39 94t94 39q53 0 93 -38.5t40 -94.5q0 -55 -40 -94t-93 -39q-55 0 -94 39t-39 94z" />
<glyph unicode="&#xfd;" horiz-adv-x="1064" d="M872 643q-88 -227 -146 -399t-99 -296t-72 -205t-61.5 -128t-67.5 -66.5t-92 -19.5q-61 0 -105.5 30.5t-44.5 98.5q0 66 40 104.5t102 38.5q23 0 38 -4t27 -9t22.5 -9t22.5 -4q16 0 27.5 11t23 35.5t25.5 65.5t35 101q-4 0 -2 -1t-2 -1q-23 0 -49.5 15t-49.5 69l-198 493 q-41 100 -67.5 160.5t-47 92.5t-41 41t-47.5 9h-19.5t-19.5 -2v78q29 -2 67 -4t77.5 -3t77.5 -2t69 -1t67.5 1t76.5 3t79 5t70 7v-76q-12 0 -27.5 1t-32.5 1q-33 0 -56 -8t-23 -41q0 -23 12 -60.5t39 -98.5q4 -14 12 -39q8 -23 21.5 -60t35.5 -90q8 -20 20.5 -51t24 -61.5 t20.5 -56t9 -36.5h10q47 141 81 235.5t55.5 155t30.5 96.5t9 62q0 31 -19 40t-52 9q-16 0 -33.5 -1t-32.5 -3v76q41 -4 82 -6t82 -2q53 0 104.5 3t104.5 11v-71q-10 2 -17.5 2h-13.5q-33 0 -52 -12.5t-35.5 -40t-33 -72.5t-41.5 -111zM424 1139q45 61 83 119.5t74.5 104.5 t74.5 73.5t83 27.5q53 0 74 -25.5t21 -54.5q0 -18 -14.5 -39.5t-53.5 -53t-110.5 -81t-184.5 -125.5z" />
<glyph unicode="&#xfe;" horiz-adv-x="1177" d="M442 850l9 -2q29 47 90 86t159 39q193 0 298.5 -123t105.5 -367q0 -117 -34 -211t-94.5 -160.5t-143 -102.5t-181.5 -36q-68 0 -127 26t-86 69l-6 -2q6 -39 7 -76t1 -70v-115q0 -59 2 -98t11.5 -61.5t30 -31.5t57.5 -9h20t23 2v-72q-78 8 -148.5 11t-130.5 3 q-59 0 -137 -4t-148 -14v72q6 0 12.5 -1t12.5 -1q37 0 56.5 10t28.5 34.5t11 63.5t2 96v1395q0 47 -1 80t-9 52.5t-25.5 28.5t-48.5 9q-27 0 -69 -6v74q31 -4 61.5 -4h63.5q82 0 166 6t163 24zM795 510q0 70 -7.5 140.5t-26 125.5t-49 90t-75.5 35t-82 -36t-64.5 -97 t-43 -144t-15.5 -178q0 -80 8.5 -151.5t28.5 -125.5t54 -87t87 -33q45 0 79 35t57.5 96.5t36 146.5t12.5 183z" />
<glyph unicode="&#xff;" horiz-adv-x="1064" d="M872 643q-88 -227 -146 -399t-99 -296t-72 -205t-61.5 -128t-67.5 -66.5t-92 -19.5q-61 0 -105.5 30.5t-44.5 98.5q0 66 40 104.5t102 38.5q23 0 38 -4t27 -9t22.5 -9t22.5 -4q16 0 27.5 11t23 35.5t25.5 65.5t35 101q-4 0 -2 -1t-2 -1q-23 0 -49.5 15t-49.5 69l-198 493 q-41 100 -67.5 160.5t-47 92.5t-41 41t-47.5 9h-19.5t-19.5 -2v78q29 -2 67 -4t77.5 -3t77.5 -2t69 -1t67.5 1t76.5 3t79 5t70 7v-76q-12 0 -27.5 1t-32.5 1q-33 0 -56 -8t-23 -41q0 -23 12 -60.5t39 -98.5q4 -14 12 -39q8 -23 21.5 -60t35.5 -90q8 -20 20.5 -51t24 -61.5 t20.5 -56t9 -36.5h10q47 141 81 235.5t55.5 155t30.5 96.5t9 62q0 31 -19 40t-52 9q-16 0 -33.5 -1t-32.5 -3v76q41 -4 82 -6t82 -2q53 0 104.5 3t104.5 11v-71q-10 2 -17.5 2h-13.5q-33 0 -52 -12.5t-35.5 -40t-33 -72.5t-41.5 -111zM238 1249q0 55 38.5 94t94.5 39 q53 0 93 -38.5t40 -94.5q0 -55 -40 -94t-93 -39q-55 0 -94 39t-39 94zM606 1249q0 55 39 94t94 39q53 0 93 -38.5t40 -94.5q0 -55 -39.5 -94t-93.5 -39q-55 0 -94 39t-39 94z" />
<glyph unicode="&#x104;" horiz-adv-x="1476" d="M1286 242q16 -39 28.5 -71t29 -53.5t40 -33.5t62.5 -12q10 0 24.5 1t26.5 3v-82q-33 4 -67.5 5t-69.5 3q-41 -29 -62.5 -60.5t-31 -62.5t-11.5 -57.5t-2 -44.5q0 -53 27 -92t72 -39q23 0 44 5t52 21l16 -61q-31 -14 -81 -23.5t-85 -9.5q-51 0 -89 14.5t-62.5 38t-36.5 53 t-12 60.5q0 88 53 153.5t121 106.5q-29 2 -57.5 2h-55.5q-76 0 -176 -3t-182 -9v82q12 -2 29.5 -3t37.5 -1q41 0 77 13t36 54q0 18 -5 38t-22 61l-108 274h-449l-96 -254q-23 -63 -22 -104q0 -53 35.5 -69.5t86.5 -16.5q23 0 46.5 2t39.5 6v-82q-82 6 -146.5 9t-139.5 3 q-39 0 -68 -1t-53.5 -2t-48 -4t-51.5 -5v82q10 -2 30 -2q41 0 66.5 4t44 22.5t35 53t41.5 96.5l481 1220h108zM430 594h385q-49 123 -81 207t-51 139t-29.5 90t-18.5 64h-10z" />
<glyph unicode="&#x105;" horiz-adv-x="1105" d="M696 129q-29 -70 -95 -115t-181 -45q-109 0 -178.5 24.5t-109.5 63.5t-54.5 85t-14.5 87q0 57 20.5 113.5t83 99.5t179.5 70t307 27v129q0 45 -4 90t-19.5 80.5t-43 57.5t-74.5 22q-57 0 -86 -27t-29 -74q0 -23 4.5 -45t4.5 -47q0 -59 -43.5 -92t-104.5 -33 q-23 0 -47.5 8t-46 25.5t-35.5 45.5t-14 66q0 45 23.5 87t73.5 75t126 52.5t180 19.5q119 0 200 -23.5t130 -67.5t69.5 -106.5t20.5 -140.5v-440q0 -49 10 -80t33 -31q16 0 30.5 11.5t24.5 25.5q12 16 25 39l57 -55q-29 -41 -62.5 -76t-80.5 -51q-31 -29 -48.5 -57.5 t-24.5 -56.5t-9 -52.5t-2 -40.5q0 -53 26.5 -92t71.5 -39q23 0 44.5 5t51.5 21l17 -61q-31 -14 -81 -23.5t-85 -9.5q-51 0 -89 14.5t-62.5 38t-37 53t-12.5 60.5q0 72 37 129t90 98q-61 10 -104 54.5t-53 103.5h-9zM653 471q-84 0 -138 -15.5t-88 -45t-47 -73.5t-13 -99 q0 -25 6 -58t21.5 -61.5t39 -48t60.5 -19.5q59 0 90.5 31t47 77t18.5 99t3 100v113z" />
<glyph unicode="&#x106;" horiz-adv-x="1327" d="M1227 1417q2 -53 4 -97t5 -86t9 -87t15 -100l-103 -7q-6 106 -36.5 177t-77 111t-102.5 56.5t-116 16.5q-193 0 -298 -177t-105 -507q0 -147 23.5 -269t71.5 -210t122 -137.5t176 -49.5q68 0 129.5 20.5t113.5 57.5t92 87t64 108l82 -37q-78 -168 -218 -246t-306 -78 q-154 0 -282 49t-220 144.5t-143 235.5t-51 325q0 182 55 322.5t154.5 236.5t235.5 145t298 49q139 0 240.5 -18.5t167.5 -34.5zM668 1526l-52 55q59 86 107.5 142.5t88.5 90t73 47t61 13.5q47 0 64.5 -25.5t17.5 -52.5q0 -23 -13.5 -40t-35 -33.5t-49 -34t-53.5 -35.5z" />
<glyph unicode="&#x107;" horiz-adv-x="1013" d="M967 227q-27 -55 -64 -104t-85 -84t-109.5 -55.5t-137.5 -20.5q-231 0 -365 133t-134 377q0 115 32.5 208t97 159.5t158 102.5t213.5 36q104 0 178 -24.5t122.5 -61.5t71 -81t22.5 -83q0 -41 -14.5 -69.5t-37 -47t-49 -26.5t-49.5 -8q-59 0 -105 30.5t-46 98.5q0 29 6 52 t6 46q0 47 -20.5 80t-69.5 33q-94 0 -142.5 -114t-48.5 -331t60.5 -320.5t165.5 -103.5q31 0 66.5 9.5t71.5 33t68.5 64.5t57.5 106zM412 1139q45 61 82.5 119.5t74.5 104.5t75 73.5t83 27.5q53 0 73.5 -25.5t20.5 -54.5q0 -18 -14 -39.5t-53 -53t-111 -81t-184 -125.5z" />
<glyph unicode="&#x10c;" horiz-adv-x="1327" d="M1227 1417q2 -53 4 -97t5 -86t9 -87t15 -100l-103 -7q-6 106 -36.5 177t-77 111t-102.5 56.5t-116 16.5q-193 0 -298 -177t-105 -507q0 -147 23.5 -269t71.5 -210t122 -137.5t176 -49.5q68 0 129.5 20.5t113.5 57.5t92 87t64 108l82 -37q-78 -168 -218 -246t-306 -78 q-154 0 -282 49t-220 144.5t-143 235.5t-51 325q0 182 55 322.5t154.5 236.5t235.5 145t298 49q139 0 240.5 -18.5t167.5 -34.5zM782 1708l213 166l62 -55l-99 -123q-72 -92 -105.5 -131t-70.5 -39q-18 0 -34.5 9t-36 28.5t-44 52.5t-61.5 80l-98 123l61 55z" />
<glyph unicode="&#x10d;" horiz-adv-x="1013" d="M967 227q-27 -55 -64 -104t-85 -84t-109.5 -55.5t-137.5 -20.5q-231 0 -365 133t-134 377q0 115 32.5 208t97 159.5t158 102.5t213.5 36q104 0 178 -24.5t122.5 -61.5t71 -81t22.5 -83q0 -41 -14.5 -69.5t-37 -47t-49 -26.5t-49.5 -8q-59 0 -105 30.5t-46 98.5q0 29 6 52 t6 46q0 47 -20.5 80t-69.5 33q-94 0 -142.5 -114t-48.5 -331t60.5 -320.5t165.5 -103.5q31 0 66.5 9.5t71.5 33t68.5 64.5t57.5 106zM791 1464l55 -55q-76 -96 -123 -158.5t-77 -99.5t-50.5 -51.5t-42.5 -14.5q-23 0 -45.5 14.5t-54 51.5t-77.5 99.5t-116 158.5l55 55 l238 -192z" />
<glyph unicode="&#x10e;" horiz-adv-x="1570" d="M1174 717q0 125 -22 242.5t-73 210t-139 147.5t-223 55q-59 0 -92 -9t-48.5 -28.5t-18.5 -52.5t-3 -80v-969q0 -47 3 -79.5t19.5 -53t48 -29t91.5 -8.5q133 0 221 53.5t140 143.5t74 209t22 248zM55 76q23 -4 38.5 -5t31.5 -1q37 0 62.5 6t41 28.5t22.5 64.5t7 114v868 q0 72 -7 114t-22.5 64.5t-41 28.5t-62.5 6q-16 0 -31.5 -1t-38.5 -5v82q29 -4 49.5 -4h30.5q63 -4 119.5 -6.5t120.5 -2.5q29 0 56.5 1.5t62.5 3.5q45 4 107.5 7t127.5 3q166 0 306.5 -39t241.5 -125t158.5 -224.5t57.5 -336.5q0 -190 -57.5 -326.5t-158.5 -224.5 t-240.5 -130t-303.5 -42q-131 0 -217 6q-35 2 -74 4t-82 2q-63 0 -138 -2t-167 -10v82zM780 1708l213 166l62 -55l-99 -123q-72 -92 -105.5 -131t-70.5 -39q-18 0 -34.5 9t-36 28.5t-44 52.5t-61.5 80l-98 123l61 55z" />
<glyph unicode="&#x10f;" horiz-adv-x="1245" d="M739 1198q0 47 -1 80t-9 52.5t-25.5 28.5t-48.5 9q-27 0 -69 -6v76q31 -4 61.5 -4h63.5q82 0 163.5 6t161.5 24v-1228q0 -47 2 -80t9.5 -52.5t23.5 -28.5t47 -9q29 0 72 6v-76q-31 4 -59.5 4h-57.5q-72 0 -140.5 -8t-148.5 -27q-12 86 -12 180l-8 2q-35 -86 -105.5 -132 t-169.5 -46q-193 0 -303 121t-110 365q0 117 33.5 211t94 160.5t143.5 102.5t181 36q68 0 127.5 -26t85.5 -69l7 2q-6 39 -7.5 76t-1.5 70v180zM385 428q0 -72 7 -140.5t25.5 -123.5t49.5 -89t76 -34t82 35t64.5 96t43 143t15.5 177q0 80 -8.5 151.5t-29 125.5t-55 87 t-86.5 33q-45 0 -78.5 -35t-57 -96.5t-36 -146.5t-12.5 -183zM1235 1202q0 25 -17.5 36t-38 24.5t-38 34t-17.5 61.5q0 45 35 75.5t94 30.5q63 0 100.5 -45t37.5 -135q0 -98 -65.5 -171t-172.5 -122l-47 72q45 23 87 57.5t42 81.5z" />
<glyph unicode="&#x118;" horiz-adv-x="1335" d="M51 76q45 -6 80 -6q37 0 62.5 6t41 27.5t22.5 64.5t7 115v868q0 70 -6 112t-21.5 64.5t-39 29.5t-56.5 7q-39 0 -90 -6v82q68 -4 142.5 -6t150.5 -4.5t145.5 -2.5h128.5q150 0 290.5 3.5t281.5 9.5q0 -55 3 -100.5t7 -89.5t11.5 -92t17.5 -109l-90 -11q-6 113 -31 176.5 t-70 94t-114.5 37t-167.5 6.5q-61 0 -98 -7.5t-56.5 -27t-25 -53t-5.5 -84.5v-389q35 -4 51.5 -4.5t43.5 -0.5q90 0 138 13.5t69.5 40t25.5 65.5t4 92l86 -4q-8 -70 -12 -130t-4 -118q0 -63 4 -123.5t12 -121.5l-86 -4q-2 51 -6 91t-25.5 66.5t-69.5 40t-136 13.5h-44.5 t-50.5 -5v-450q0 -51 4.5 -84t21.5 -52.5t50 -26.5t92 -7q121 0 200 10t128 46t73.5 107.5t35.5 194.5l92 -12q-25 -123 -34 -222.5t-13 -211.5q-29 2 -57.5 3t-57.5 1q-37 -29 -57.5 -59.5t-29.5 -60.5t-11 -56.5t-2 -44.5q0 -53 26.5 -92t71.5 -39q23 0 44 5t52 21l17 -61 q-31 -14 -81.5 -23.5t-84.5 -9.5q-51 0 -89 14.5t-63 38t-37 53t-12 60.5q0 86 51 150.5t117 105.5q-225 6 -438 6h-128t-138.5 -2t-137 -4t-125.5 -6v82z" />
<glyph unicode="&#x119;" horiz-adv-x="1056" d="M981 233q-29 -63 -70 -114t-96 -88h2q-57 -29 -89 -65t-46 -70.5t-17 -66.5t-3 -52q0 -53 26.5 -92t71.5 -39q23 0 44 5t52 21l16 -61q-31 -14 -81 -23.5t-84 -9.5q-51 0 -89 14.5t-63 38t-37 53t-12 60.5q0 72 34.5 127t86.5 96q-16 -2 -32.5 -3t-33.5 -1 q-115 0 -205 36t-153.5 101.5t-97 158.5t-33.5 210t34.5 212t98 160.5t154 101.5t200.5 36q127 0 212 -42t135 -103.5t71.5 -132t21.5 -128.5q0 -35 -11 -55t-38.5 -30.5t-76 -13.5t-121.5 -3h-379q0 -209 66.5 -315.5t181.5 -106.5q31 0 68.5 10.5t76.5 35t76 67.5t61 108z M518 539q59 0 97 6t59.5 23.5t29 46t7.5 73.5t-10.5 86t-29 73t-47 51.5t-65.5 19.5q-51 0 -85 -35t-55.5 -90.5t-30.5 -123t-9 -130.5h139z" />
<glyph unicode="&#x11a;" horiz-adv-x="1335" d="M51 76q45 -6 80 -6q37 0 62.5 6t41 27.5t22.5 64.5t7 115v868q0 70 -6 112t-21.5 64.5t-39 29.5t-56.5 7q-39 0 -90 -6v82q68 -4 142.5 -6t150.5 -4.5t145.5 -2.5h128.5q150 0 290.5 3.5t281.5 9.5q0 -55 3 -100.5t7 -89.5t11.5 -92t17.5 -109l-90 -11q-6 113 -31 176.5 t-70 94t-114.5 37t-167.5 6.5q-61 0 -98 -7.5t-56.5 -27t-25 -53t-5.5 -84.5v-389q35 -4 51.5 -4.5t43.5 -0.5q90 0 138 13.5t69.5 40t25.5 65.5t4 92l86 -4q-8 -70 -12 -130t-4 -118q0 -63 4 -123.5t12 -121.5l-86 -4q-2 51 -6 91t-25.5 66.5t-69.5 40t-136 13.5h-44.5 t-50.5 -5v-450q0 -51 4.5 -84t21.5 -52.5t50 -26.5t92 -7q121 0 200 10t128 46t73.5 107.5t35.5 194.5l92 -12q-25 -123 -34 -222.5t-13 -211.5q-164 6 -326 9t-315 3h-128t-138.5 -2t-137 -4t-125.5 -6v82zM711 1708l213 166l61 -55l-98 -123q-72 -92 -105.5 -131 t-70.5 -39q-18 0 -35 9t-36 28.5t-44 52.5t-61 80l-99 123l62 55z" />
<glyph unicode="&#x11b;" horiz-adv-x="1056" d="M981 233q-53 -119 -154.5 -194.5t-265.5 -75.5q-115 0 -205 36t-153.5 101.5t-97 158.5t-33.5 210t34.5 212t98 160.5t154 101.5t200.5 36q127 0 212 -42t135 -103.5t71.5 -132t21.5 -128.5q0 -35 -11 -55t-38.5 -30.5t-76 -13.5t-121.5 -3h-379q0 -209 66.5 -315.5 t181.5 -106.5q31 0 68.5 10.5t76.5 35t76 67.5t61 108zM518 539q59 0 97 6t59.5 23.5t29 46t7.5 73.5t-10.5 86t-29 73t-47 51.5t-65.5 19.5q-51 0 -85 -35t-55.5 -90.5t-30.5 -123t-9 -130.5h139zM788 1464l56 -55q-76 -96 -123 -158.5t-77 -99.5t-50.5 -51.5t-42.5 -14.5 q-23 0 -45.5 14.5t-54 51.5t-77.5 99.5t-116 158.5l55 55l238 -192z" />
<glyph unicode="&#x141;" horiz-adv-x="1257" d="M59 614l199 93v444q0 72 -6 114t-20.5 64.5t-39 28.5t-61.5 6q-16 0 -31.5 -1t-38.5 -5v82q66 -4 111 -7t82 -4.5t72.5 -1.5h83.5h81.5t74.5 1.5t84 4.5t112 7v-82q-23 4 -38 5t-32 1q-37 0 -61.5 -6t-38.5 -28.5t-20.5 -64.5t-6.5 -114v-301l193 90l39 -86l-232 -109 v-493q0 -51 4 -84t21.5 -52.5t50.5 -26.5t92 -7q121 0 198 14.5t124 55.5t68.5 116.5t31.5 198.5l92 -10q-25 -123 -36 -235.5t-15 -227.5q-164 6 -316.5 9t-306.5 3h-127.5t-138 -2t-137.5 -4t-125 -6v82q45 -6 80 -6q37 0 62.5 7t41 29.5t22.5 64.5t7 114v317l-162 -74z " />
<glyph unicode="&#x142;" horiz-adv-x="677" d="M492 829l153 70l29 -86l-182 -84v-461q0 -59 1 -98t10 -61.5t29.5 -31.5t57.5 -9h23.5t25.5 2v-76q-78 8 -151.5 11t-133.5 3q-59 0 -140 -4t-151 -14v76q6 0 20.5 -1.5t20.5 -1.5q31 0 48.5 11.5t25.5 36t10 63.5t2 94v326l-145 -66l-29 86l174 78v506q0 47 -1 80 t-9 52.5t-25.5 28.5t-48.5 9q-27 0 -69 -6v76q31 -4 61.5 -4h63.5q82 0 166 6t164 24v-635z" />
<glyph unicode="&#x143;" horiz-adv-x="1607" d="M1272 1188q0 100 -25.5 138t-99.5 38q-35 0 -80 -6v82q41 -2 70.5 -4t56.5 -3t55.5 -2t65.5 -1t67.5 1t61.5 2t62.5 3t72.5 4v-82q-23 0 -42 2t-36 2q-78 0 -106.5 -36t-28.5 -138v-1215h-129l-702 951q-27 35 -55.5 76.5t-53.5 81.5t-42 74t-22 50h-10v-960 q0 -102 29 -139t106 -37q37 0 80 6v-82q-41 2 -72.5 4t-62.5 4t-61.5 3t-67.5 1t-65.5 -1t-55 -3t-56.5 -4t-71 -4v82q45 -6 78 -6q74 0 99.5 37.5t25.5 138.5v962q0 90 -25.5 123t-99.5 33q-16 0 -35.5 -2t-42.5 -2v80q84 -6 139.5 -9.5t116.5 -3.5h55.5t69.5 2.5t72 4.5 t59 6q16 -35 29.5 -60.5t26 -46t24.5 -38t25 -35.5l458 -621q16 -23 37 -52.5t40.5 -60t33.5 -58.5t21 -46h10v766zM731 1526l-51 55q59 86 107.5 142.5t88 90t72.5 47t62 13.5q47 0 64.5 -25.5t17.5 -52.5q0 -23 -13.5 -40t-35 -33.5t-49 -34t-54.5 -35.5z" />
<glyph unicode="&#x144;" horiz-adv-x="1273" d="M498 268q0 -59 1 -98t10 -61.5t29.5 -31.5t57.5 -9h20.5t22.5 2v-76q-78 8 -148.5 11t-130.5 3q-59 0 -137 -4t-147 -14v76q6 0 12 -1.5t12 -1.5q37 0 56.5 10.5t29 35t10.5 63.5t1 96v434q0 47 -1 80t-9.5 52.5t-26 28.5t-47.5 9q-27 0 -70 -6v76q31 -4 59.5 -4h57.5 q72 0 140.5 8t148.5 27q6 -35 10 -55.5t7 -38t4 -37t1 -49.5h10q29 76 102.5 128t180.5 52q115 0 183.5 -34t104 -86t47 -115.5t11.5 -125.5v-344q0 -59 1 -98t10 -61.5t29.5 -31.5t57.5 -9h20.5t22.5 2v-76q-78 8 -148.5 11t-129.5 3t-132 -4t-143 -14v76q6 0 12.5 -1.5 t12.5 -1.5q31 0 47 8.5t25.5 31t11.5 62.5t2 103v303q0 90 -7 149.5t-22.5 94.5t-38 49.5t-55.5 14.5q-29 0 -62.5 -13.5t-61 -55.5t-46 -120t-18.5 -207v-215zM494 1139q45 61 82.5 119.5t74.5 104.5t75 73.5t83 27.5q53 0 73.5 -25.5t20.5 -54.5q0 -18 -14.5 -39.5 t-53 -53t-110.5 -81t-184 -125.5z" />
<glyph unicode="&#x147;" horiz-adv-x="1607" d="M1272 1188q0 100 -25.5 138t-99.5 38q-35 0 -80 -6v82q41 -2 70.5 -4t56.5 -3t55.5 -2t65.5 -1t67.5 1t61.5 2t62.5 3t72.5 4v-82q-23 0 -42 2t-36 2q-78 0 -106.5 -36t-28.5 -138v-1215h-129l-702 951q-27 35 -55.5 76.5t-53.5 81.5t-42 74t-22 50h-10v-960 q0 -102 29 -139t106 -37q37 0 80 6v-82q-41 2 -72.5 4t-62.5 4t-61.5 3t-67.5 1t-65.5 -1t-55 -3t-56.5 -4t-71 -4v82q45 -6 78 -6q74 0 99.5 37.5t25.5 138.5v962q0 90 -25.5 123t-99.5 33q-16 0 -35.5 -2t-42.5 -2v80q84 -6 139.5 -9.5t116.5 -3.5h55.5t69.5 2.5t72 4.5 t59 6q16 -35 29.5 -60.5t26 -46t24.5 -38t25 -35.5l458 -621q16 -23 37 -52.5t40.5 -60t33.5 -58.5t21 -46h10v766zM825 1708l213 166l62 -55l-99 -123q-72 -92 -105.5 -131t-70.5 -39q-18 0 -34.5 9t-36 28.5t-44 52.5t-61.5 80l-98 123l61 55z" />
<glyph unicode="&#x148;" horiz-adv-x="1273" d="M498 268q0 -59 1 -98t10 -61.5t29.5 -31.5t57.5 -9h20.5t22.5 2v-76q-78 8 -148.5 11t-130.5 3q-59 0 -137 -4t-147 -14v76q6 0 12 -1.5t12 -1.5q37 0 56.5 10.5t29 35t10.5 63.5t1 96v434q0 47 -1 80t-9.5 52.5t-26 28.5t-47.5 9q-27 0 -70 -6v76q31 -4 59.5 -4h57.5 q72 0 140.5 8t148.5 27q6 -35 10 -55.5t7 -38t4 -37t1 -49.5h10q29 76 102.5 128t180.5 52q115 0 183.5 -34t104 -86t47 -115.5t11.5 -125.5v-344q0 -59 1 -98t10 -61.5t29.5 -31.5t57.5 -9h20.5t22.5 2v-76q-78 8 -148.5 11t-129.5 3t-132 -4t-143 -14v76q6 0 12.5 -1.5 t12.5 -1.5q31 0 47 8.5t25.5 31t11.5 62.5t2 103v303q0 90 -7 149.5t-22.5 94.5t-38 49.5t-55.5 14.5q-29 0 -62.5 -13.5t-61 -55.5t-46 -120t-18.5 -207v-215zM893 1464l55 -55q-76 -96 -123 -158.5t-76.5 -99.5t-50 -51.5t-43.5 -14.5t-45 14.5t-54 51.5t-78 99.5 t-116 158.5l56 55l237 -192z" />
<glyph unicode="&#x152;" horiz-adv-x="2091" d="M883 76q51 0 81.5 12t47 37t21.5 64.5t5 97.5v860q0 68 -5 109.5t-22.5 64t-52 30t-94.5 7.5q-231 0 -337.5 -154.5t-106.5 -482.5q0 -319 113.5 -482t349.5 -163zM799 0q-154 0 -287 49t-229.5 142.5t-151.5 227.5t-55 302t54 301t149.5 225t223.5 141.5t275 49.5 q199 0 358.5 -5.5t276.5 -5.5q74 0 140.5 1.5t130 2.5t128 3t134.5 6q0 -55 3 -100.5t7 -89.5t11 -92t18 -109l-87 -11q-6 113 -29.5 176.5t-67.5 94t-109.5 38t-155.5 7.5q-61 0 -99 -7.5t-58.5 -27t-26.5 -53t-6 -84.5v-389q12 -2 28.5 -3.5t44.5 -1.5q90 0 139.5 13.5 t71 41t25.5 66.5t4 92l74 -4q-8 -70 -12.5 -130t-4.5 -117q0 -63 4 -124t13 -122l-74 -4q-2 51 -6 91t-26.5 67.5t-71 41t-136.5 13.5h-34.5t-38.5 -4v-459q0 -51 5 -84t23.5 -52.5t52 -26.5t93.5 -7q113 0 188.5 10t122.5 46t70.5 107.5t33.5 194.5l88 -10 q-25 -123 -34 -222.5t-13 -211.5q-164 6 -316.5 9t-305.5 3q-121 0 -256 -1t-299 -5z" />
<glyph unicode="&#x153;" horiz-adv-x="1732" d="M1657 233q-53 -119 -154.5 -194.5t-265.5 -75.5q-111 0 -188.5 46t-130.5 118q-49 -76 -132.5 -120t-207.5 -44q-238 0 -371 134t-133 374q0 242 133 375t371 133q127 0 210.5 -45t133.5 -123q53 72 129.5 120t183.5 48q127 0 212 -42t135 -103.5t71.5 -132t21.5 -128.5 q0 -35 -11 -55t-39 -30.5t-76 -13.5t-122 -3h-366q0 -209 66.5 -315.5t181.5 -106.5q31 0 66.5 10.5t72.5 35t71.5 67.5t59.5 108zM399 471q0 -100 8.5 -182t29 -140.5t53 -91t81.5 -32.5t84 32.5t56.5 91t31 140.5t9.5 182t-9.5 182t-31 140.5t-56 91.5t-84.5 33 q-49 0 -81.5 -33t-53 -91.5t-29 -140.5t-8.5 -182zM1194 539q59 0 97 6t59.5 23.5t28.5 46t7 73.5t-9 86t-26.5 73t-45 51.5t-64.5 19.5q-51 0 -85 -35t-55.5 -90.5t-30.5 -123t-9 -130.5h133z" />
<glyph unicode="&#x158;" horiz-adv-x="1460" d="M569 285q0 -53 3 -93t15.5 -67t38 -41t68.5 -14q29 0 70 6v-82q-66 4 -112 7t-84 4t-74.5 1h-81.5h-83t-75 -1t-84 -4t-111 -7v82q23 -4 38.5 -5t31.5 -1q37 0 61.5 6t39 27.5t20.5 64.5t6 115v868q0 53 -3 93t-16.5 66.5t-38 40t-67.5 13.5q-33 0 -72 -6v82 q92 -8 180.5 -10.5t151.5 -2.5q90 0 173 7.5t173 7.5q121 0 219.5 -20.5t168 -63.5t107.5 -108.5t38 -155.5q0 -147 -105.5 -237.5t-292.5 -115.5v-10q90 0 148.5 -16.5t95.5 -48t58.5 -78.5t39.5 -107l86 -297q23 -72 45.5 -92t61.5 -20q14 0 31.5 1t42.5 3v-82 q-47 2 -100.5 4t-100.5 2q-59 0 -127 -4t-137 -14q-6 53 -20.5 111.5t-32 117.5t-35 116.5t-31.5 110.5t-28.5 100.5t-40 83t-70.5 56t-123 20.5q-23 0 -35 -1t-31 -3v-409zM569 768q16 -2 32.5 -3t33.5 -1q145 0 231 77t86 253q0 68 -20.5 119t-55 85.5t-81.5 53t-103 18.5 q-41 0 -64.5 -6t-36.5 -23.5t-17.5 -48t-4.5 -82.5v-442zM725 1708l213 166l61 -55l-98 -123q-72 -92 -105.5 -131t-70.5 -39q-18 0 -34.5 9t-36 28.5t-44 52.5t-61.5 80l-98 123l61 55z" />
<glyph unicode="&#x159;" horiz-adv-x="970" d="M471 786q18 86 80.5 138.5t179.5 52.5q61 0 104.5 -18.5t71 -46t39.5 -61.5t12 -65q0 -27 -8 -55.5t-24.5 -53t-43 -39.5t-65.5 -15q-78 0 -112.5 41t-34.5 92q0 16 4 31.5t4 27.5q0 29 -11.5 46.5t-33.5 17.5q-72 0 -103.5 -110t-31.5 -306v-195q0 -59 1 -98t10 -61.5 t29.5 -31.5t57.5 -9h23.5t25.5 2v-76q-78 8 -151.5 11t-133.5 3q-59 0 -140 -4t-150 -14v76q6 0 20 -1.5t21 -1.5q31 0 47 8.5t25.5 31t11.5 62.5t2 103v434q0 47 -1 80t-9.5 52.5t-26 28.5t-47.5 9q-27 0 -70 -6v76q31 -4 58.5 -4h56.5q72 0 139.5 8t146.5 27 q6 -35 9.5 -56.5t5.5 -40t2 -39v-51.5h10zM737 1464l56 -55q-76 -96 -123 -158.5t-77 -99.5t-50.5 -51.5t-42.5 -14.5q-23 0 -45.5 14.5t-54 51.5t-78 99.5t-115.5 158.5l55 55l238 -192z" />
<glyph unicode="&#x15a;" horiz-adv-x="1187" d="M825 299q0 90 -53 143.5t-132 92t-171 74.5t-171 91.5t-132 141.5t-53 223q0 96 35.5 171t102 127t161 79.5t211.5 27.5q86 0 184 -12t201 -37v-90t3 -80t9 -90t18 -117l-102 -10q-2 61 -14.5 126t-45 118t-91 88t-152.5 35q-78 0 -129 -19.5t-81 -52.5t-42 -75t-12 -85 q0 -84 54 -134t136 -88t177 -75.5t177 -96t136.5 -151t54.5 -237.5q0 -113 -43 -193.5t-118 -132t-175 -75t-213 -23.5t-224.5 17.5t-203.5 42.5q0 59 -1 104t-4 89t-10.5 97.5t-19.5 126.5l103 11q2 -61 16 -134t53 -134.5t108.5 -103.5t180.5 -42q68 0 118 21.5t85 57.5 t52 83t17 100zM492 1526l-52 55q59 86 107.5 142.5t88.5 90t72.5 47t61.5 13.5q47 0 64.5 -25.5t17.5 -52.5q0 -23 -13.5 -40t-35 -33.5t-49 -34t-54.5 -35.5z" />
<glyph unicode="&#x15b;" horiz-adv-x="958" d="M823 930q0 -74 3 -132.5t18 -123.5l-94 -10q0 23 -10.5 64.5t-36 83.5t-69.5 74t-114 32q-84 0 -131 -42t-47 -108q0 -31 16.5 -54.5t45 -42t70.5 -33.5t91 -34q57 -20 114.5 -42.5t103.5 -59.5t75 -92.5t29 -141.5q0 -90 -40 -148.5t-104.5 -93t-143.5 -49t-159 -14.5 q-92 0 -181 13.5t-161 35.5q0 51 -4 121t-14 148l96 10q2 -47 19.5 -94t49 -85t77 -62.5t104.5 -24.5q98 0 147.5 45t49.5 112q0 33 -18.5 58.5t-49.5 45t-72 35t-86 31.5q-59 20 -115.5 44t-99.5 61t-68.5 92t-25.5 141q0 63 29.5 116.5t84 91.5t130.5 59.5t170 21.5 q123 0 196.5 -16.5t124.5 -32.5zM326 1139q45 61 82.5 119.5t74.5 104.5t75 73.5t83 27.5q53 0 73.5 -25.5t20.5 -54.5q0 -18 -14 -39.5t-53 -53t-111 -81t-184 -125.5z" />
<glyph unicode="&#x160;" horiz-adv-x="1187" d="M825 299q0 90 -53 143.5t-132 92t-171 74.5t-171 91.5t-132 141.5t-53 223q0 96 35.5 171t102 127t161 79.5t211.5 27.5q86 0 184 -12t201 -37v-90t3 -80t9 -90t18 -117l-102 -10q-2 61 -14.5 126t-45 118t-91 88t-152.5 35q-78 0 -129 -19.5t-81 -52.5t-42 -75t-12 -85 q0 -84 54 -134t136 -88t177 -75.5t177 -96t136.5 -151t54.5 -237.5q0 -113 -43 -193.5t-118 -132t-175 -75t-213 -23.5t-224.5 17.5t-203.5 42.5q0 59 -1 104t-4 89t-10.5 97.5t-19.5 126.5l103 11q2 -61 16 -134t53 -134.5t108.5 -103.5t180.5 -42q68 0 118 21.5t85 57.5 t52 83t17 100zM606 1708l213 166l62 -55l-99 -123q-72 -92 -105.5 -131t-70.5 -39q-18 0 -34.5 9t-36 28.5t-44 52.5t-61.5 80l-98 123l61 55z" />
<glyph unicode="&#x161;" horiz-adv-x="958" d="M823 930q0 -74 3 -132.5t18 -123.5l-94 -10q0 23 -10.5 64.5t-36 83.5t-69.5 74t-114 32q-84 0 -131 -42t-47 -108q0 -31 16.5 -54.5t45 -42t70.5 -33.5t91 -34q57 -20 114.5 -42.5t103.5 -59.5t75 -92.5t29 -141.5q0 -90 -40 -148.5t-104.5 -93t-143.5 -49t-159 -14.5 q-92 0 -181 13.5t-161 35.5q0 51 -4 121t-14 148l96 10q2 -47 19.5 -94t49 -85t77 -62.5t104.5 -24.5q98 0 147.5 45t49.5 112q0 33 -18.5 58.5t-49.5 45t-72 35t-86 31.5q-59 20 -115.5 44t-99.5 61t-68.5 92t-25.5 141q0 63 29.5 116.5t84 91.5t130.5 59.5t170 21.5 q123 0 196.5 -16.5t124.5 -32.5zM721 1464l55 -55q-76 -96 -123 -158.5t-76.5 -99.5t-50 -51.5t-43.5 -14.5t-45 14.5t-54 51.5t-78 99.5t-116 158.5l56 55l237 -192z" />
<glyph unicode="&#x164;" horiz-adv-x="1277" d="M799 283q0 -53 3 -93t16 -67t39 -40t71 -13q27 0 67 6v-82q-66 4 -111.5 7t-84.5 4t-77 1h-83h-84t-76 -1t-85 -4t-111 -7v82q39 -6 71 -6q80 0 102.5 49t22.5 164v874q0 68 -6 107t-23.5 60.5t-45 27.5t-70.5 6q-82 0 -125 -29t-62.5 -75t-24.5 -103t-11 -115l-95 13 q23 109 28 197.5t7 193.5q41 -4 118 -6t164 -3t170 -2.5t136 -1.5t136 1.5t170 2.5t164 3t118 6q2 -104 7 -193.5t28 -197.5l-95 -13q-6 57 -11 114.5t-25.5 103.5t-62.5 75t-124 29q-43 0 -70.5 -6t-45 -27.5t-23.5 -60.5t-6 -107v-874zM641 1708l213 166l61 -55l-98 -123 q-72 -92 -105.5 -131t-70.5 -39q-18 0 -34.5 9t-36 28.5t-44 52.5t-61.5 80l-98 123l61 55z" />
<glyph unicode="&#x165;" horiz-adv-x="720" d="M25 862v80q172 0 261 79t89 239h98v-318h227v-80h-227v-618q0 -68 10.5 -112t44.5 -44q35 0 65 37t50 90l70 -41q-31 -86 -106 -142.5t-173 -56.5q-127 0 -194.5 62.5t-67.5 220.5v604h-147zM801 1202q0 25 -17.5 36t-38 24.5t-38 34t-17.5 61.5q0 45 35 75.5t94 30.5 q63 0 100 -45t37 -135q0 -98 -65.5 -171t-171.5 -122l-47 72q45 23 87 57.5t42 81.5z" />
<glyph unicode="&#x16e;" horiz-adv-x="1564" d="M543 530q0 -242 73.5 -360.5t241.5 -118.5q94 0 171 37t130 113q29 41 46.5 90t26.5 113.5t11 146.5t2 190v467q0 96 -28.5 126t-98.5 30q-20 0 -41.5 -1t-48.5 -3v80q41 -2 74 -4t62.5 -3t61 -2t68.5 -1t66 1t56.5 2t58 3t71.5 4v-80q-55 6 -92 6q-66 0 -90.5 -31.5 t-24.5 -126.5v-610q0 -104 -16 -217t-69.5 -205t-157 -152.5t-275.5 -60.5q-311 0 -454.5 147.5t-143.5 467.5v573q0 53 -3 93t-16.5 66.5t-39 40t-70.5 13.5q-31 0 -67 -6v82q66 -4 111.5 -7t84.5 -4.5t76 -1.5h84h83t77 1.5t85 4.5t111 7v-82q-20 4 -36.5 4h-30.5 q-41 0 -66.5 -11.5t-40 -37t-18.5 -65.5t-4 -97v-621zM680 1700q0 43 15.5 76.5t42 55t59 33t67.5 11.5t68 -11.5t59.5 -33t42 -55t15.5 -76.5q0 -45 -15.5 -78t-42 -54.5t-59.5 -32.5t-68 -11t-67.5 11t-59 32.5t-42 54.5t-15.5 78zM764 1700q0 -53 31.5 -81t68.5 -28 q39 0 71 28t32 81t-32 79.5t-71 26.5q-37 0 -68.5 -26.5t-31.5 -79.5z" />
<glyph unicode="&#x16f;" horiz-adv-x="1261" d="M1079 238q0 -47 1 -80t9.5 -52.5t24.5 -28.5t47 -9q29 0 72 6v-78q-31 4 -59.5 4h-57.5q-72 0 -140.5 -8t-148.5 -27q-6 33 -10 55.5t-6 41t-3 38t-3 45.5h-10q-29 -76 -103 -130t-180 -54q-115 0 -183.5 34t-104.5 87t-47 117.5t-11 126.5v376q0 47 -1 80t-9.5 52.5 t-25.5 28.5t-48 9q-27 0 -70 -6v76q31 -4 61.5 -4h63.5q82 0 166 8t164 27v-606q0 -90 7 -149.5t22.5 -95.5t38 -51.5t55.5 -15.5q29 0 62.5 14.5t61 57.5t46 121t18.5 207v247q0 47 -1 80t-9 52.5t-25.5 28.5t-48.5 9q-27 0 -69 -6v76q31 -4 61.5 -4h63.5q82 0 165.5 8 t163.5 27v-735zM627 1448q86 0 137 -53.5t51 -126.5q0 -78 -51 -130.5t-137 -52.5q-82 0 -135.5 52.5t-53.5 130.5q0 74 53.5 127t135.5 53zM528 1268q0 -47 31 -77t68 -30t67.5 30t30.5 77q0 45 -30.5 72.5t-67.5 27.5t-68 -27.5t-31 -72.5z" />
<glyph unicode="&#x178;" horiz-adv-x="1351" d="M516 631l-301 549q-23 39 -40 72.5t-35.5 58t-42 38t-58.5 13.5q-10 0 -19.5 -1t-19.5 -3v82q39 -4 87 -6t96 -3t94.5 -2.5t82.5 -1.5q76 0 160 3.5t166 9.5v-82q-23 2 -34 3t-31 1q-59 0 -88 -9.5t-29 -47.5q0 -23 10 -43.5t33 -61.5l123 -221q10 -18 25.5 -51t30.5 -69 t28.5 -68.5t19.5 -51.5h12l242 432q20 35 30.5 67t12.5 54q0 35 -26.5 52.5t-94.5 17.5h-40.5t-59.5 -4v82q82 -6 142.5 -9.5t135.5 -3.5q39 0 68 1.5t53.5 2.5t49 3t53.5 6v-82q-8 0 -20.5 1t-20.5 1q-33 0 -53.5 -9.5t-38 -31t-37 -58t-49.5 -92.5l-297 -538v-348 q0 -70 5 -112t19 -64.5t36 -29.5t56 -7q20 0 36 1t44 5v-82q-66 4 -112 7t-84.5 4t-76.5 1h-83h-84t-76 -1t-85 -4t-112 -7v82q23 -4 38.5 -5t31.5 -1q37 0 61.5 6t39 27.5t20.5 64.5t6 115v348zM389 1700q0 55 39 93t94 38q53 0 93 -38t40 -93t-40 -92t-93 -37 q-55 0 -94 37t-39 92zM756 1700q0 55 39 93t94 38q53 0 93 -38t40 -93t-40 -92t-93 -37q-55 0 -94 37t-39 92z" />
<glyph unicode="&#x179;" horiz-adv-x="1234" d="M395 90q43 -2 74 -4t59.5 -3t60.5 -2t81 -1q113 0 188.5 12t121.5 50t67.5 107.5t25.5 186.5l103 -10q-14 -70 -21.5 -122t-11.5 -101t-5 -100.5t-1 -114.5q-102 4 -248 11t-295 7q-90 0 -155.5 -1t-122 -4t-110.5 -6t-124 -7l-49 63l598 1020q20 33 37.5 63.5t37 62.5 t43 67.5t56.5 83.5q-37 4 -95.5 6t-140.5 2q-94 0 -161.5 -9.5t-112.5 -43t-68.5 -99t-29.5 -176.5l-103 10q8 39 14.5 81t10.5 89t6 105.5t2 132.5q51 -2 112.5 -5t128 -6t132 -5.5t125.5 -2.5q94 0 150 1.5t103.5 3.5t100.5 5t139 9l47 -64l-612 -1046 q-18 -31 -33.5 -57.5t-33 -54t-39 -59.5t-52.5 -75zM522 1526l-51 55q59 86 107.5 142.5t88.5 90t72.5 47t61.5 13.5q47 0 64.5 -25.5t17.5 -52.5q0 -23 -13.5 -40t-35 -33.5t-49 -34t-54.5 -35.5z" />
<glyph unicode="&#x17a;" horiz-adv-x="958" d="M373 864q-104 -2 -149.5 -58t-53.5 -181l-86 8q6 25 10 52.5t7 62t4 84t1 116.5q25 -4 66 -6t92 -3t109.5 -2t118.5 -1q109 0 210 3t166 9l21 -57l-383 -639q-23 -39 -36 -61.5t-24.5 -39t-24.5 -33t-34 -40.5h168q80 0 126 19.5t71.5 55t35 87t13.5 112.5l86 -8 q-16 -74 -20.5 -125t-4.5 -102q0 -29 1 -58.5t1 -64.5q-25 2 -66.5 4t-94 4t-113 3t-121.5 1q-117 0 -225.5 -3t-171.5 -9l-21 53l398 664q23 39 38 62.5t27 40.5t23.5 28.5l25.5 25.5zM326 1139q45 61 82.5 119.5t74.5 104.5t75 73.5t83 27.5q53 0 73.5 -25.5t20.5 -54.5 q0 -18 -14 -39.5t-53 -53t-111 -81t-184 -125.5z" />
<glyph unicode="&#x17b;" horiz-adv-x="1234" d="M395 90q43 -2 74 -4t59.5 -3t60.5 -2t81 -1q113 0 188.5 12t121.5 50t67.5 107.5t25.5 186.5l103 -10q-14 -70 -21.5 -122t-11.5 -101t-5 -100.5t-1 -114.5q-102 4 -248 11t-295 7q-90 0 -155.5 -1t-122 -4t-110.5 -6t-124 -7l-49 63l598 1020q20 33 37.5 63.5t37 62.5 t43 67.5t56.5 83.5q-37 4 -95.5 6t-140.5 2q-94 0 -161.5 -9.5t-112.5 -43t-68.5 -99t-29.5 -176.5l-103 10q8 39 14.5 81t10.5 89t6 105.5t2 132.5q51 -2 112.5 -5t128 -6t132 -5.5t125.5 -2.5q94 0 150 1.5t103.5 3.5t100.5 5t139 9l47 -64l-612 -1046 q-18 -31 -33.5 -57.5t-33 -54t-39 -59.5t-52.5 -75zM498 1700q0 59 37.5 98t101.5 39q61 0 100 -39t39 -98t-37 -96t-102 -37q-61 0 -99 38t-40 95z" />
<glyph unicode="&#x17c;" horiz-adv-x="958" d="M373 864q-104 -2 -149.5 -58t-53.5 -181l-86 8q6 25 10 52.5t7 62t4 84t1 116.5q25 -4 66 -6t92 -3t109.5 -2t118.5 -1q109 0 210 3t166 9l21 -57l-383 -639q-23 -39 -36 -61.5t-24.5 -39t-24.5 -33t-34 -40.5h168q80 0 126 19.5t71.5 55t35 87t13.5 112.5l86 -8 q-16 -74 -20.5 -125t-4.5 -102q0 -29 1 -58.5t1 -64.5q-25 2 -66.5 4t-94 4t-113 3t-121.5 1q-117 0 -225.5 -3t-171.5 -9l-21 53l398 664q23 39 38 62.5t27 40.5t23.5 28.5l25.5 25.5zM367 1251q0 57 36.5 98.5t102.5 41.5t102.5 -42t36.5 -98q0 -53 -37 -94t-102 -41 q-66 0 -102.5 40t-36.5 95z" />
<glyph unicode="&#x17d;" horiz-adv-x="1234" d="M395 90q43 -2 74 -4t59.5 -3t60.5 -2t81 -1q113 0 188.5 12t121.5 50t67.5 107.5t25.5 186.5l103 -10q-14 -70 -21.5 -122t-11.5 -101t-5 -100.5t-1 -114.5q-102 4 -248 11t-295 7q-90 0 -155.5 -1t-122 -4t-110.5 -6t-124 -7l-49 63l598 1020q20 33 37.5 63.5t37 62.5 t43 67.5t56.5 83.5q-37 4 -95.5 6t-140.5 2q-94 0 -161.5 -9.5t-112.5 -43t-68.5 -99t-29.5 -176.5l-103 10q8 39 14.5 81t10.5 89t6 105.5t2 132.5q51 -2 112.5 -5t128 -6t132 -5.5t125.5 -2.5q94 0 150 1.5t103.5 3.5t100.5 5t139 9l47 -64l-612 -1046 q-18 -31 -33.5 -57.5t-33 -54t-39 -59.5t-52.5 -75zM625 1708l213 166l61 -55l-98 -123q-72 -92 -105.5 -131t-70.5 -39q-18 0 -35 9t-36 28.5t-44 52.5t-61 80l-99 123l62 55z" />
<glyph unicode="&#x17e;" horiz-adv-x="958" d="M373 864q-104 -2 -149.5 -58t-53.5 -181l-86 8q6 25 10 52.5t7 62t4 84t1 116.5q25 -4 66 -6t92 -3t109.5 -2t118.5 -1q109 0 210 3t166 9l21 -57l-383 -639q-23 -39 -36 -61.5t-24.5 -39t-24.5 -33t-34 -40.5h168q80 0 126 19.5t71.5 55t35 87t13.5 112.5l86 -8 q-16 -74 -20.5 -125t-4.5 -102q0 -29 1 -58.5t1 -64.5q-25 2 -66.5 4t-94 4t-113 3t-121.5 1q-117 0 -225.5 -3t-171.5 -9l-21 53l398 664q23 39 38 62.5t27 40.5t23.5 28.5l25.5 25.5zM735 1464l56 -55q-76 -96 -123 -158.5t-77 -99.5t-50.5 -51.5t-42.5 -14.5 q-23 0 -45.5 14.5t-54 51.5t-78 99.5t-115.5 158.5l55 55l238 -192z" />
<glyph unicode="&#x2c6;" horiz-adv-x="819" d="M172 1085l-55 56q76 96 123 158.5t76.5 99.5t50 51t43.5 14t45 -15t54 -52t77 -99.5t116 -156.5l-55 -56l-237 193z" />
<glyph unicode="&#x2da;" horiz-adv-x="819" d="M408 1448q86 0 137 -53.5t51 -126.5q0 -78 -51 -130.5t-137 -52.5q-82 0 -135.5 52.5t-53.5 130.5q0 74 53.5 127t135.5 53zM309 1268q0 -47 31 -77t68 -30t67.5 30t30.5 77q0 45 -31 72.5t-67 27.5q-37 0 -68 -27.5t-31 -72.5z" />
<glyph unicode="&#x2dc;" horiz-adv-x="819" d="M756 1313q-53 -102 -115.5 -144.5t-128.5 -42.5q-49 0 -86 17.5t-65.5 39t-53 39t-49.5 17.5q-29 0 -56.5 -20.5t-58.5 -73.5l-80 43q53 102 116 144t128 42q43 0 79 -17.5t65.5 -39t56.5 -38.5t53 -17q29 0 56.5 19t58.5 75z" />
<glyph unicode="&#x2013;" horiz-adv-x="1093" d="M993 541v-111h-893v111h893z" />
<glyph unicode="&#x2014;" horiz-adv-x="1605" d="M1505 541v-111h-1405v111h1405z" />
<glyph unicode="&#x2018;" horiz-adv-x="524" d="M430 1042q0 -68 -47 -118t-123 -50q-43 0 -74.5 15.5t-53 42t-32 59.5t-10.5 70q0 84 25.5 154.5t65.5 127t86 96.5t87 62l47 -65q-20 -14 -46.5 -35t-50 -45.5t-40 -53t-16.5 -59.5q0 -6 4 -20.5t29 -16.5q55 -4 102 -47t47 -117z" />
<glyph unicode="&#x2019;" horiz-adv-x="520" d="M100 1303q0 68 47.5 117.5t122.5 49.5q43 0 75 -15t53.5 -42t31.5 -59.5t10 -69.5q0 -84 -25.5 -154.5t-65.5 -127t-86 -97.5t-87 -61l-47 65l45 35t51.5 45.5t41 53t16.5 59.5q0 6 -4.5 20.5t-28.5 16.5q-55 4 -102.5 47t-47.5 117z" />
<glyph unicode="&#x201a;" horiz-adv-x="550" d="M104 133q0 68 47.5 118t122.5 50q43 0 75 -15.5t53.5 -42t31.5 -59t10 -69.5q0 -84 -25.5 -155t-65.5 -127t-86 -97t-87 -62l-47 66q18 14 45 34.5t51.5 45t41 53.5t16.5 59q0 6 -4 20.5t-29 16.5q-55 4 -102.5 47t-47.5 117z" />
<glyph unicode="&#x201c;" horiz-adv-x="925" d="M831 1042q0 -68 -47 -118t-122 -50q-43 0 -75 15.5t-53.5 42t-31.5 59.5t-10 70q0 84 25.5 154.5t65.5 127t86 96.5t87 62l47 -65q-20 -14 -47 -35t-50.5 -45.5t-40 -53t-16.5 -59.5q0 -6 4 -20.5t29 -16.5q55 -4 102 -47t47 -117zM430 1042q0 -68 -47 -118t-123 -50 q-43 0 -74.5 15.5t-53 42t-32 59.5t-10.5 70q0 84 25.5 154.5t65.5 127t86 96.5t87 62l47 -65q-20 -14 -46.5 -35t-50 -45.5t-40 -53t-16.5 -59.5q0 -6 4 -20.5t29 -16.5q55 -4 102 -47t47 -117z" />
<glyph unicode="&#x201d;" horiz-adv-x="921" d="M100 1303q0 68 47.5 117.5t122.5 49.5q43 0 75 -15t53.5 -42t31.5 -59.5t10 -69.5q0 -84 -25.5 -154.5t-65.5 -127t-86 -97.5t-87 -61l-47 65l45 35t51.5 45.5t41 53t16.5 59.5q0 6 -4.5 20.5t-28.5 16.5q-55 4 -102.5 47t-47.5 117zM502 1303q0 68 47 117.5t123 49.5 q43 0 74.5 -15t53 -42t32 -59.5t10.5 -69.5q0 -84 -25.5 -154.5t-65.5 -127t-86.5 -97.5t-86.5 -61l-48 65l45 35t50.5 45.5t41 53t17.5 59.5q0 6 -4 20.5t-29 16.5q-55 4 -102 47t-47 117z" />
<glyph unicode="&#x201e;" horiz-adv-x="952" d="M104 133q0 68 47.5 118t122.5 50q43 0 75 -15.5t53.5 -42t31.5 -59t10 -69.5q0 -84 -25.5 -155t-65.5 -127t-86 -97t-87 -62l-47 66q18 14 45 34.5t51.5 45t41 53.5t16.5 59q0 6 -4 20.5t-29 16.5q-55 4 -102.5 47t-47.5 117zM506 133q0 68 47 118t123 50 q43 0 74.5 -15.5t53 -42t32 -59t10.5 -69.5q0 -84 -25.5 -155t-65.5 -127t-86 -97t-87 -62l-47 66q18 14 44.5 34.5t50 45t41 53.5t17.5 59q0 6 -4 20.5t-29 16.5q-55 4 -102 47t-47 117z" />
<glyph unicode="&#x2022;" horiz-adv-x="835" d="M418 961q57 0 106 -20.5t86 -57.5t58.5 -87.5t21.5 -107.5t-21.5 -106.5t-58.5 -86t-86 -57t-106 -20.5t-106.5 20.5t-86.5 57t-58.5 86t-21.5 106.5t21.5 107.5t58.5 87.5t86.5 57.5t106.5 20.5z" />
<glyph unicode="&#x2026;" horiz-adv-x="1650" d="M100 154q0 76 52.5 128t128.5 52q78 0 129 -52.5t51 -127.5q0 -76 -51.5 -128.5t-128.5 -52.5q-76 0 -128.5 52.5t-52.5 128.5zM645 154q0 76 52.5 128t127.5 52q78 0 129.5 -52.5t51.5 -127.5q0 -76 -51.5 -128.5t-129.5 -52.5q-76 0 -128 52.5t-52 128.5zM1190 154 q0 76 52 128t128 52q78 0 129 -52.5t51 -127.5q0 -76 -51 -128.5t-129 -52.5q-76 0 -128 52.5t-52 128.5z" />
<glyph unicode="&#x2039;" horiz-adv-x="579" d="M496 127l-70 -53q-119 131 -188.5 206.5t-106.5 117.5t-47 62.5t-10 43.5t10 43t47 62t106.5 117t188.5 206l70 -51l-197 -377z" />
<glyph unicode="&#x203a;" horiz-adv-x="579" d="M281 504l-197 377l70 51q119 -131 188.5 -206t106 -117t47 -62.5t10.5 -42.5q0 -23 -10.5 -43.5t-47 -62.5t-106.5 -117.5t-188 -206.5l-70 53z" />
<glyph unicode="&#x20ac;" horiz-adv-x="1390" d="M215 901q25 139 84 245.5t146 178.5t197 108.5t237 36.5q117 0 207 -17t161 -38l4 -108q2 -66 5.5 -130.5t11.5 -132.5l-109 -10q-4 106 -28.5 176t-64.5 111t-90 56.5t-102 15.5q-150 0 -234.5 -119t-107.5 -373h531l-23 -94h-512q-2 -23 -2 -43.5v-42.5v-62h473 l-22 -94h-447q18 -268 104.5 -396t239.5 -128q51 0 104.5 15.5t97.5 56.5t72 109.5t32 176.5l108 -10q-16 -90 -18 -178t-2 -193q-61 -16 -164 -35.5t-225 -19.5q-135 0 -249 38t-201 113.5t-143.5 188.5t-74.5 262h-150l23 94h119q-2 16 -2 31v31v43t2 43h-142l23 94h131z " />
<glyph unicode="&#x2122;" horiz-adv-x="1675" d="M457 895q0 -33 1 -51.5t6 -27.5t13 -12t23 -3h17t32 4v-49q-59 4 -93 5t-77 1t-77 -1t-93 -5v49q23 -4 32 -4h17q14 0 22.5 3t12.5 12t6 27.5t2 51.5v408q0 31 -2 49t-8 26t-17.5 10.5t-29.5 2.5q-29 0 -46.5 -10.5t-26.5 -29t-14 -46t-7 -60.5l-60 4q10 51 13 93t3 94 q18 -2 54.5 -3t76 -2t78.5 -1h64h63.5t78.5 1t77 2t55 3q0 -51 2 -93.5t13 -93.5l-58 -4q-6 68 -21.5 107t-74.5 39q-18 0 -29.5 -2.5t-17.5 -10.5t-8 -26.5t-2 -48.5v-408zM1112 977l137 364q10 31 15.5 49.5t15.5 47.5q31 -6 72 -7t61 -1q29 0 59.5 1t69.5 5v-50 q-18 4 -29.5 4.5t-17.5 0.5q-29 0 -39 -14.5t-10 -55.5v-424q0 -66 11 -81t40 -15h17.5t31.5 4v-49q-61 4 -98 5t-80 1h-40t-35.5 -1t-40 -2t-52.5 -3v49q16 -4 24.5 -4h14.5h16q23 0 34 18.5t11 77.5v403l-202 -520h-68l-194 512v-411q0 -47 12 -63.5t41 -16.5h18.5t28.5 4 v-49q-63 4 -88 5t-47 1q-20 0 -43 -1t-84 -5v49q23 -4 32 -4h17q27 0 36 17.5t9 62.5v440q0 41 -8 55.5t-37 14.5h-16.5t-32.5 -5v50q76 -6 131 -6q23 0 64.5 1t72.5 7q4 -18 11.5 -43t17.5 -47z" />
<glyph unicode="&#x25fc;" horiz-adv-x="952" d="M0 952h952v-952h-952v952z" />
<glyph unicode="&#x2715;" d="M215 1083l299 -301l297 297l68 -61l-295 -295l290 -301l-67 -66l-291 299l-297 -297l-67 62l297 297l-302 299z" />
<glyph horiz-adv-x="784" d="M135 776h514v-121h-514v121z" />
<glyph horiz-adv-x="1175" d="M1034 772v-110h-893v110h893z" />
<glyph horiz-adv-x="1687" d="M1546 772v-110h-1405v110h1405z" />
<glyph horiz-adv-x="784" d="M135 776h514v-121h-514v121z" />
<glyph horiz-adv-x="980" d="M516 342l-70 -53q-119 131 -188.5 206.5t-106 117.5t-47 62.5t-10.5 43.5t10.5 43t47 62t106.5 117t188 206l70 -51l-197 -377zM864 342l-69 -53q-119 131 -188.5 206.5t-106.5 117.5t-47.5 62.5t-10.5 43.5t10.5 43t47.5 62t106.5 117t188.5 206l69 -51l-196 -377z" />
<glyph horiz-adv-x="980" d="M662 717l-197 377l70 51q119 -131 188.5 -206t106 -117t47 -62.5t10.5 -42.5q0 -23 -10.5 -43.5t-47 -62.5t-106.5 -117.5t-188 -206.5l-70 53zM313 717l-196 377l69 51q119 -131 188.5 -206t106.5 -117t47.5 -62.5t10.5 -42.5q0 -23 -10.5 -43.5t-47.5 -62.5 t-106.5 -117.5t-188.5 -206.5l-69 53z" />
<glyph horiz-adv-x="632" d="M516 342l-70 -53q-119 131 -188.5 206.5t-106 117.5t-47 62.5t-10.5 43.5t10.5 43t47 62t106.5 117t188 206l70 -51l-197 -377z" />
<glyph horiz-adv-x="632" d="M313 717l-196 377l69 51q119 -131 188.5 -206t106.5 -117t47.5 -62.5t10.5 -42.5q0 -23 -10.5 -43.5t-47.5 -62.5t-106.5 -117.5t-188.5 -206.5l-69 53z" />
<glyph horiz-adv-x="649" d="M354 684q0 -166 16.5 -302t47.5 -250t76 -211t104 -185l-78 -53q-100 125 -183 247.5t-142.5 246.5t-92 250t-32.5 257t32.5 258t92 252t142.5 248t183 248l78 -54q-59 -88 -104 -185t-76 -213t-47.5 -252t-16.5 -302z" />
<glyph horiz-adv-x="649" d="M295 684q0 166 -16.5 302t-47 252t-76.5 213t-104 185l78 54q100 -125 183 -248t142.5 -248t92.5 -252t33 -258t-33 -257t-92.5 -250t-142.5 -247t-183 -247l-78 53q57 88 103.5 185t77 211t47 250t16.5 302z" />
<glyph horiz-adv-x="694" d="M651 -123v-90h-467v1819h467v-90h-200l-9 -1639h209z" />
<glyph horiz-adv-x="692" d="M250 -125l-8 1638h-199v91h465v-1819h-465v90h207z" />
<glyph horiz-adv-x="667" d="M193 506q0 41 -4.5 70.5t-19.5 49t-44 30t-78 16.5q-8 8 -8 20q0 16 8 25q49 4 78 15t44 33.5t19.5 57.5t4.5 84v379q0 104 43 168t104 97.5t131 44t123 10.5l16 -64q-57 -10 -90 -29.5t-50 -46t-22.5 -57.5t-5.5 -61v-435q-6 -88 -46 -141t-120 -74v-8q80 -20 123 -73.5 t43 -141.5v-428q0 -31 5.5 -61.5t22.5 -57t50 -47t90 -28.5l-16 -64q-53 0 -123 10.5t-131 44t-104 97t-43 168.5v397z" />
<glyph horiz-adv-x="667" d="M475 109q0 -104 -43 -168t-104.5 -97.5t-131 -44t-122.5 -10.5l-17 64q57 8 90 28.5t50.5 47t22.5 57t5 61.5v428q0 88 43 141.5t123 73.5v8q-80 20 -120 73.5t-46 141.5v435q0 31 -5 61.5t-22.5 57t-50 46t-90.5 29.5l17 64q53 0 122.5 -10.5t131 -44t104.5 -97 t43 -168.5v-379q0 -49 4 -84t19.5 -57.5t44 -33.5t78.5 -15q8 -8 8 -25q0 -12 -8 -20q-49 -6 -78 -16.5t-44.5 -30t-19.5 -49t-4 -70.5v-397z" />
<glyph horiz-adv-x="491" d="M307 -328h-123v2048h123v-2048z" />
<glyph horiz-adv-x="487" d="M305 -174h-123v752h123v-752zM305 856h-123v752h123v-752z" />
<glyph d="M565 1188v-422h414v-94h-414v-420h-102v420h-416v94h416v422h102z" />
<glyph d="M977 920v-91h-930v91h930zM977 604v-90h-930v90h930z" />
<glyph horiz-adv-x="1861" d="M995 1053q-74 0 -126 -58.5t-83.5 -140.5t-47 -169t-15.5 -142q0 -178 90 -178q59 0 109.5 50t86 125.5t56 166t20.5 170.5q0 31 -3 61.5t-12 56t-26.5 42t-48.5 16.5zM1053 444q-18 -23 -44 -49t-58.5 -49.5t-72.5 -39t-85 -15.5q-33 0 -83.5 8t-98.5 40t-81.5 95.5 t-33.5 173.5q0 102 34.5 195.5t96 164t146.5 112.5t185 42q57 0 92 -9t57.5 -21.5t38 -21.5t34.5 -9q16 0 27.5 4t33.5 33l107 -13l-13 -57q-23 -98 -42 -191.5t-36 -191.5q-8 -45 -17 -92t-9 -88q0 -49 19.5 -78t68.5 -29q70 0 121 40t85 107.5t51 157t17 187.5 q0 154 -43 266.5t-118.5 184t-178 106.5t-221.5 35q-135 0 -267 -54.5t-236.5 -157t-169 -253t-64.5 -342.5q0 -176 46 -300t126 -202t187.5 -114.5t230.5 -36.5q53 0 117.5 7t136.5 25l6 -80q-158 -31 -287 -30q-186 0 -330.5 55t-243 152.5t-149.5 229.5t-51 284 q0 156 60.5 314.5t178 286.5t294 209t407.5 81q199 0 344 -55.5t241.5 -147.5t143.5 -212t47 -249q0 -125 -41 -229.5t-111.5 -180t-162.5 -117.5t-193 -42q-102 0 -167.5 37.5t-71.5 123.5z" />
<glyph d="M565 1208v-358h353v-94h-353v-350h-102v350h-354v94h354v358h102zM109 229v95h809v-95h-809z" />
<glyph d="M842 829h-795v91h889v-484h-94v393z" />
<glyph d="M401 430q0 47 32 78t79 31t78 -31t31 -78t-31 -79t-78 -32t-79 32t-32 79zM401 1006q0 47 32 77.5t79 30.5t78 -30.5t31 -77.5t-31 -79t-78 -32t-79 32t-32 79zM977 764v-90h-930v90h930z" />
<glyph horiz-adv-x="1226" d="M92 717q0 373 134 563t388 190t387.5 -190t133.5 -563t-133.5 -563.5t-387.5 -190.5q-256 0 -389 190.5t-133 563.5zM401 717q0 -154 7.5 -278t30 -212t64.5 -136t111 -48q70 0 111 48t63.5 136t29.5 213t7 277t-7 276.5t-29.5 212.5t-63.5 136.5t-111 48.5t-111.5 -48.5 t-64 -136.5t-30 -212.5t-7.5 -276.5z" />
<glyph horiz-adv-x="958" d="M727 283q0 -70 5 -112t19.5 -64.5t36 -29.5t56.5 -7q23 0 38 1t42 5v-82q-66 4 -111 7t-83 4t-75 1h-82h-90t-88 -1t-97 -4t-118 -7v82q23 -4 48.5 -5t41.5 -1q37 0 66 6t47 27.5t28.5 64.5t10.5 115v757q0 88 -30 119t-66 31q-31 0 -70 -13.5t-78 -31t-73.5 -35.5 t-55.5 -31l-33 97q137 51 224.5 89t150 69.5t111.5 63.5t108 72l129 -36q-4 -51 -8 -118t-4 -142v-891z" />
<glyph horiz-adv-x="1144" d="M709 1118q0 119 -40 198t-143 79q-70 0 -108.5 -35t-38.5 -86q0 -14 4 -27.5t10 -29t10.5 -35t4.5 -47.5q0 -66 -39 -115t-125 -49q-74 0 -119 54t-45 126q0 61 31.5 118.5t93 102.5t150.5 71.5t206 26.5q121 0 209 -31.5t144.5 -83.5t84 -116.5t27.5 -132.5 q0 -98 -31.5 -171t-84 -128t-119 -97t-136 -80t-136 -76t-119 -84t-84 -105.5t-31.5 -139.5q35 4 79 6t72 2h342q61 0 97 25t54.5 61.5t23.5 77.5t5 72l107 -12q-25 -115 -30 -230.5t-5 -234.5q-125 10 -203.5 12t-146.5 2h-324q-61 0 -122.5 -3t-153.5 -13q0 164 47 274.5 t116.5 191.5t151.5 144.5t151.5 134t116 160.5t46.5 223z" />
<glyph horiz-adv-x="1138" d="M418 1145q0 -68 -42 -114t-112 -46q-80 0 -122 49t-42 123q0 61 33 117.5t92.5 100.5t145.5 69.5t194 25.5q125 0 212 -32.5t140.5 -83.5t78 -114.5t24.5 -125.5q0 -113 -37 -182.5t-87 -109.5t-101.5 -54t-79.5 -16v-11q33 -2 90 -20.5t111.5 -60.5t94.5 -111.5 t40 -175.5q0 -121 -49.5 -200t-125 -126t-163.5 -65.5t-166 -18.5q-111 0 -200 25.5t-150.5 69.5t-94 102.5t-32.5 126.5q0 25 8 56.5t26.5 59t51 47t82.5 19.5q90 0 123.5 -46t33.5 -114q0 -39 -12 -71.5t-12 -77.5q0 -37 14 -60.5t36.5 -36t48.5 -16.5t50 -4 q96 0 157.5 90t61.5 248q0 94 -28.5 155.5t-72.5 98.5t-99.5 51t-108.5 14h-24.5t-22.5 -2v90q10 -2 20.5 -2h20.5q57 0 110.5 13.5t94.5 50.5t66.5 100.5t25.5 163.5q0 51 -10.5 102.5t-34 90.5t-59 63.5t-87.5 24.5q-61 0 -99 -28t-38 -79q0 -37 12.5 -69.5t12.5 -73.5z " />
<glyph horiz-adv-x="1171" d="M936 549q35 0 88 1t100 5v-164q-47 4 -100 5t-88 1h-45v-114q0 -70 5 -112t19.5 -64.5t36 -29.5t56.5 -7q23 0 38 1t41 5v-82q-66 4 -109.5 7t-80.5 4t-73 1h-81h-90t-88 -1t-97 -4t-118 -7v82q23 -4 48.5 -5t41.5 -1q37 0 66 6t47 27.5t28.5 64.5t10.5 115v114h-301h-71 t-56.5 -1t-55 -2t-71.5 -3l-29 152q334 393 512 628.5t207 298.5l176 -40q-4 -39 -6 -89.5t-3 -102.5t-2 -101.5t-1 -83.5v-504h45zM608 887q0 72 2 125t17 125l-9 4l-466 -598l2 -6q39 6 97 9t93 3h264v338z" />
<glyph horiz-adv-x="1142" d="M932 1022q-4 57 -13.5 93t-33 55.5t-65.5 25.5t-109 6h-293q-39 0 -66.5 -2t-45 -13t-27 -35t-11.5 -69l-16 -229q-2 -12 -3 -30.5t-5 -53.5l8 -2q45 51 121 89t198 38q102 0 191.5 -28.5t155 -85t103.5 -139.5t38 -193q0 -150 -54.5 -244t-134 -148.5t-173 -74 t-169.5 -19.5q-217 0 -333.5 91t-116.5 233q0 31 8 60.5t27.5 53t50.5 38t78 14.5q80 0 119.5 -45.5t39.5 -102.5q0 -31 -4 -49t-10 -31.5t-10 -28t-4 -36.5q0 -61 35.5 -89t105.5 -28q51 0 94 22.5t75 70.5t49.5 125t17.5 185q0 76 -16.5 141.5t-47.5 114t-75 75t-97 26.5 q-92 0 -150.5 -40t-105.5 -122l-135 21q14 84 17 133t7 90l25 323q4 37 4 59.5v51.5v50.5t-4 70.5q27 -2 62.5 -4t75.5 -4t80 -3.5t75 -1.5h268q47 0 107.5 1.5t146.5 11.5q-2 -14 -2 -29.5v-32.5q0 -78 9.5 -172t25.5 -180z" />
<glyph horiz-adv-x="1204" d="M666 1391q-82 0 -136.5 -46.5t-86 -133.5t-45 -214t-13.5 -288l8 -4q37 86 118 133t179 47q90 0 169 -29t136.5 -85t90 -142t32.5 -201q0 -109 -39 -195t-104.5 -146t-153.5 -93t-188 -33q-145 0 -247.5 55.5t-168 150.5t-96.5 223t-31 274q0 182 27.5 313t74 221 t104.5 143.5t121.5 82t125 37.5t112.5 9q129 0 211 -32.5t129 -78.5t64.5 -96.5t17.5 -84.5q0 -25 -7 -55.5t-25.5 -57.5t-48 -44t-74.5 -17q-72 0 -118 39.5t-46 101.5q0 43 10 75.5t10 63.5q0 47 -26.5 77t-85.5 30zM813 401q0 84 -10 153t-34 117t-59.5 74.5t-86.5 26.5 q-104 0 -153.5 -102.5t-49.5 -272.5q0 -78 12 -142.5t37 -112.5t62.5 -74.5t91.5 -26.5q51 0 86.5 27.5t58.5 76t34 113.5t11 143z" />
<glyph horiz-adv-x="1003" d="M795 1210l-9 7q-18 -4 -31.5 -6.5t-27.5 -5.5t-36.5 -4t-59.5 -1h-287q-68 0 -108.5 -14.5t-64.5 -42t-32 -71.5t-12 -101l-92 4q8 45 16 101.5t14.5 116.5t9.5 123.5t3 123.5q86 -10 146.5 -11.5t107.5 -1.5h243q35 0 90.5 1.5t113 3.5t108.5 4t78 4l49 -70 q-90 -152 -166 -284t-131 -249.5t-86 -224t-31 -211.5q0 -39 5 -69.5t10.5 -59t10.5 -60.5t5 -71q0 -106 -51.5 -150t-122.5 -44q-88 0 -131 45t-43 131q0 123 76.5 281.5t195.5 371.5z" />
<glyph horiz-adv-x="1189" d="M395 711q-143 72 -203.5 158.5t-60.5 220.5q0 66 27.5 133t86 122.5t149.5 90t220 34.5q217 0 334 -96t117 -250q0 -68 -21.5 -121t-59.5 -94t-90 -70.5t-116 -50.5q61 -25 120.5 -61.5t106 -88.5t74 -118.5t27.5 -148.5q0 -84 -36 -159t-103.5 -130t-164.5 -87t-222 -32 q-238 0 -368 97.5t-130 283.5q0 78 25.5 136.5t68.5 102.5t100.5 74.5t118.5 53.5zM678 846q29 16 54.5 36.5t44 52.5t29.5 79t11 119q0 39 -9 87t-32.5 88t-62.5 67.5t-99 27.5q-59 0 -97 -25.5t-59.5 -63.5t-29.5 -84t-8 -87q0 -74 32.5 -123t75.5 -83t86.5 -54.5 t63.5 -36.5zM487 655q-61 -31 -101 -106.5t-40 -212.5q0 -55 13.5 -110.5t41 -98.5t72.5 -69.5t107 -26.5q68 0 111.5 25.5t70 65.5t38 91t11.5 100q0 92 -44 150.5t-100.5 96.5t-109 58.5t-70.5 36.5z" />
<glyph horiz-adv-x="1222" d="M551 43q82 0 136 51t86 145.5t46.5 223.5t14.5 287h-11q-16 -37 -44.5 -70t-68.5 -57.5t-87.5 -39t-96.5 -14.5q-88 0 -166.5 24.5t-139 77t-95.5 134.5t-35 199q0 113 38 199.5t105.5 146t158.5 90t196 30.5q143 0 246.5 -53t170 -145t97.5 -218t31 -272 q0 -184 -27 -317t-72 -224t-103.5 -145.5t-120.5 -84t-125.5 -39t-117.5 -9.5q-129 0 -215 33t-138 81t-73.5 100t-21.5 91q0 27 6 59.5t24.5 60.5t51 46.5t88.5 18.5q84 0 122 -46.5t38 -115.5q0 -43 -13.5 -77t-13.5 -64q0 -49 31.5 -78t97.5 -29zM397 1034 q0 -162 48.5 -256t148.5 -94q98 0 149.5 90t51.5 260q0 76 -12.5 142.5t-37 113.5t-62.5 75t-89 28t-88 -28t-61.5 -75t-36 -113.5t-11.5 -142.5z" />
</font>
</defs>
</svg>
