<?xml version="1.0" standalone="no"?>
<!DOCTYPE svg PUBLIC "-//W3C//DTD SVG 1.1//EN" "http://www.w3.org/Graphics/SVG/1.1/DTD/svg11.dtd" >
<svg xmlns="http://www.w3.org/2000/svg">
<metadata></metadata>
<defs>
<font id="media77bold_italic" horiz-adv-x="1024" >
<font-face units-per-em="2048" ascent="1536" descent="-512" />
<missing-glyph horiz-adv-x="446" />
<glyph unicode="&#xfb00;" horiz-adv-x="1282" d="M1284 1470q74 0 124 -15t80 -42t43 -61.5t13 -71.5q0 -53 -42 -90t-95 -37q-41 0 -66.5 15.5t-40 38t-18.5 48t-4 48.5q0 14 1 27t1 24q0 20 -7 32.5t-30 12.5q-43 0 -61.5 -40t-18.5 -106q0 -35 1 -66.5t1 -74.5q0 -39 -10 -96l-14 -74h205l-13 -82h-205l-151 -860h-293 l154 860h-293l-152 -860h-293l152 860h-164l14 82h164l25 127q20 104 63 175t107.5 114t148.5 60.5t187 17.5q72 0 131 -9.5t114 -35.5q41 31 102.5 55t139.5 24zM850 942q14 78 31.5 153.5t17.5 172.5q0 53 -24.5 73.5t-73.5 20.5q-57 0 -96 -19.5t-65 -64.5t-43 -119 t-34 -180l-6 -37h293z" />
<glyph unicode="&#xfb01;" horiz-adv-x="1234" d="M1004 1096q-66 0 -110 33.5t-44 97.5q4 29 12 55.5t8 46.5q0 29 -11 48.5t-71 19.5q-102 0 -148 -107.5t-79 -310.5l-6 -37h147q90 0 156 1t116 3t90 6t79 11l-127 -711q-8 -39 -12.5 -66.5t-4.5 -48.5q0 -41 20.5 -54t72.5 -13q12 0 25 1t30 3l-14 -78q-39 2 -86.5 6 t-83.5 4q-78 0 -143.5 -4t-137.5 -10l121 667q6 35 11 63t5 48q0 14 -3 29.5t-16.5 29t-39 21.5t-70.5 8h-147l-152 -858h-295l154 858h-144l15 84h143l21 115q20 129 73.5 210t127 126t160.5 61t175 16q53 0 115.5 -8t117 -30.5t90.5 -61.5t36 -100q0 -33 -10.5 -63.5 t-32 -55.5t-55 -40t-78.5 -15z" />
<glyph unicode="&#xfb02;" horiz-adv-x="1220" d="M1018 252q-8 -39 -12.5 -66.5t-4.5 -48.5q0 -41 19.5 -54t71.5 -13q12 0 26.5 1t30.5 3l-14 -78q-39 2 -86.5 6t-83.5 4q-78 0 -144.5 -4t-140.5 -10l205 1132q12 61 12 103q0 43 -5 67.5t-16.5 38t-32 18.5t-50.5 9q-98 0 -148.5 -91t-83.5 -290l-6 -37h209l-12 -84 h-209l-152 -858h-295l154 858h-144l15 84h143l21 117q18 102 60 174t102.5 117t135 65.5t154.5 20.5q59 0 111.5 -3t99.5 -3q74 0 142.5 6t140.5 18z" />
<glyph unicode="&#xfb03;" horiz-adv-x="1822" d="M1591 1096q-66 0 -109.5 33.5t-43.5 97.5q4 29 12 55.5t8 46.5q0 29 -11 48.5t-71 19.5q-102 0 -148 -107.5t-79 -310.5l-6 -37h147q90 0 155.5 1t116 3t90.5 6t79 11l-127 -711q-8 -39 -12.5 -66.5t-4.5 -48.5q0 -41 20.5 -54t71.5 -13q12 0 25.5 1t30.5 3l-15 -78 q-39 2 -86 6t-84 4q-78 0 -143.5 -4t-136.5 -10l121 667q6 35 11 63t5 48q0 14 -3 30.5t-16.5 30t-39 21.5t-70.5 8h-148l-151 -860h-295l154 860h-293l-152 -860h-293l152 860h-164l14 82h164l25 127q20 104 62 175t106.5 114t148.5 60.5t189 17.5q25 0 57.5 -3t69.5 -11.5 t74.5 -19.5t72.5 -26q76 59 161 76.5t177 17.5q53 0 115.5 -8t117 -30.5t90 -61.5t35.5 -100q0 -33 -10 -63.5t-31.5 -55.5t-55.5 -40t-79 -15zM557 942h295q6 39 15.5 88t18.5 95t15 84t6 57q0 53 -28.5 74.5t-77.5 21.5q-59 0 -97 -19.5t-64 -64.5t-42 -119t-35 -180z" />
<glyph unicode="&#xfb04;" horiz-adv-x="1810" d="M1608 252q-8 -39 -12.5 -66.5t-4.5 -48.5q0 -41 19.5 -54t70.5 -13q12 0 26.5 1t31.5 3l-15 -78q-39 2 -86 6t-84 4q-78 0 -144.5 -4t-139.5 -10q49 289 85 490.5t60.5 335.5t38.5 212t21.5 120t9.5 55.5t2 21.5q0 43 -5 67.5t-16.5 38t-32 18.5t-51.5 9q-98 0 -148 -91 t-83 -290l-6 -37h209l-13 -82h-208l-152 -860h-295l154 860h-295l-152 -860h-295l154 860h-164l14 82h164l25 127q20 104 62 175t106.5 114t148.5 60.5t189 17.5q25 0 60.5 -4.5t74.5 -11.5t78 -19t73 -29q53 35 116 49.5t128 14.5q59 0 111.5 -3t99.5 -3q74 0 142.5 6 t140.5 18zM850 942q6 39 16.5 87t19.5 94t15 83t6 56q0 53 -28.5 76.5t-77.5 23.5q-59 0 -97 -19.5t-64 -64.5t-42 -119t-35 -180l-6 -37h293z" />
<glyph unicode="tt" horiz-adv-x="1325" d="M528 860l-102 -577q-6 -35 -12 -68t-6 -61q0 -29 10 -48.5t37 -19.5q23 0 55.5 23.5t71.5 97.5l67 -41q-61 -106 -127.5 -154.5t-175.5 -48.5q-223 0 -223 199q0 18 2 39.5t6 44.5l109 614h-154l14 82q92 0 159 19.5t114 59.5t79.5 99.5t57.5 139.5h86l-55 -318h151 q92 0 159 19.5t114 59.5t79.5 99.5t57.5 139.5h86l-55 -318h231l-12 -82h-232l-102 -577q-6 -35 -12.5 -68t-6.5 -61q0 -29 10.5 -48.5t37.5 -19.5q33 0 71.5 28.5t85.5 123.5l68 -41q-53 -106 -131 -170t-203 -64q-225 0 -225 199q0 18 2 39.5t6 44.5l110 614h-303z" />
<glyph unicode="ft" horiz-adv-x="1331" d="M1143 942h227l-12 -82h-232l-102 -577q-6 -35 -12 -68t-6 -61q0 -29 10 -48.5t37 -19.5q33 0 71.5 28.5t85.5 123.5l68 -41q-53 -106 -131 -170t-203 -64q-225 0 -225 199q0 18 2 39.5t6 44.5l111 614h-293l-152 -860h-293l152 860h-164l14 82h164l21 127q16 106 65 178 t118 115t152 61.5t169 18.5q113 0 224 -24.5t204 -57.5zM854 942l33 182q6 31 13 66t7 67q0 41 -22.5 72t-89.5 31q-98 0 -148.5 -91t-83.5 -290l-6 -37h297z" />
<glyph unicode="fk" horiz-adv-x="1736" d="M1079 578h31q53 0 82 24.5t70 54.5l90 72q41 33 68.5 60.5t27.5 46.5q0 29 -45 28q-16 0 -52 -3t-71 -7l16 88q59 -6 100.5 -7t94.5 -1q63 0 129 8t141 25q0 -27 -17.5 -50.5t-47 -48t-70.5 -52.5t-88 -60l-244 -172l4 -6q37 0 60.5 -16.5t39 -43t26 -59.5t20.5 -66 l74 -233q23 -49 44 -66.5t62 -17.5q10 0 25.5 1t48.5 5l-17 -88q-8 0 -29.5 2t-48 4t-53 3t-47.5 1q-66 0 -119 -5t-124 -9q-4 35 -8.5 55.5t-13.5 56t-26.5 100t-48.5 187.5q-10 41 -17 65.5t-16.5 37t-22.5 15.5t-38 3l-90 -510h-291l199 1124q4 29 11 69t7 69 q0 47 -22.5 72.5t-87.5 25.5q-98 0 -148.5 -91t-83.5 -290l-6 -37h209l-12 -82h-209l-152 -860h-295l154 860h-164l14 82h164l21 117q18 102 60 174t102.5 117t135 65.5t154.5 20.5q59 0 111.5 -3t99.5 -3q74 0 142.5 6t140.5 18z" />
<glyph unicode="fj" horiz-adv-x="1202" d="M805 659q6 35 11 63t5 48q0 14 -3 30.5t-16.5 30t-39 21.5t-70.5 8h-147l-152 -860h-293l152 860h-164l14 82h164l21 115q23 129 77 210t126.5 126t158.5 61t174 16q53 0 115.5 -8t117 -30.5t90.5 -61.5t36 -100q0 -33 -10.5 -63.5t-32 -55.5t-55 -40t-78.5 -15 q-66 0 -110 33.5t-44 97.5q4 29 12 55.5t8 46.5q0 29 -11 48.5t-70 19.5q-102 0 -148.5 -107.5t-79.5 -310.5l-6 -37h148q90 0 155.5 1t115.5 3t90 6t79 11l-131 -721q-14 -80 -26.5 -165t-30 -164t-44 -148.5t-71.5 -122t-111.5 -83t-163.5 -30.5q-61 0 -124.5 19.5 t-92.5 41.5l43 74q63 -43 111 -43q45 0 73.5 27.5t46 67.5t26.5 84t14 75z" />
<glyph unicode="fh" horiz-adv-x="1792" d="M1130 850q47 51 106.5 87t166.5 36q72 0 122 -18.5t82.5 -51.5t47 -75t14.5 -87q0 -41 -6 -84t-12 -84q-23 -139 -37.5 -220t-21.5 -126t-10 -63.5t-3 -28.5q0 -41 18.5 -54t69.5 -13q12 0 25.5 1t29.5 3l-14 -78q-39 2 -86 6t-84 4q-78 0 -143.5 -4t-139.5 -10l103 583 q12 68 24.5 127.5t12.5 100.5q0 86 -86 86q-29 0 -62 -15.5t-65.5 -59.5t-62 -123t-52.5 -206l-86 -483h-293l199 1124q4 29 11 69t7 69q0 47 -22.5 72.5t-87.5 25.5q-98 0 -148.5 -91t-83.5 -290l-6 -37h209l-12 -82h-209l-152 -860h-293l152 860h-164l14 82h164l21 119 q18 102 60 174t102.5 116t135 64.5t154.5 20.5q59 0 111.5 -3t99.5 -3q74 0 142.5 6t140.5 18l-59 -381q-8 -47 -22.5 -106.5t-31.5 -110.5z" />
<glyph unicode="ffh" horiz-adv-x="2377" d="M1716 850q47 51 106.5 87t166.5 36q72 0 122 -18.5t82.5 -51.5t47 -75t14.5 -87q0 -41 -6 -84t-13 -84q-23 -139 -37 -220t-21 -126t-10 -63.5t-3 -28.5q0 -41 18.5 -54t69.5 -13q12 0 25.5 1t29.5 3l-14 -78q-39 2 -86 6t-84 4q-78 0 -143.5 -4t-139.5 -10l103 583 q12 68 24 127.5t12 100.5q0 86 -86 86q-29 0 -61.5 -15.5t-65 -59.5t-62.5 -123t-52 -206l-86 -483h-293q51 291 87 494.5t60.5 341t38 217.5t20.5 124t9 59t2 26q0 47 -22.5 72.5t-88.5 25.5q-98 0 -148 -91t-83 -290l-6 -37h209l-13 -82h-209l-151 -860h-293l152 860h-293 l-152 -860h-295l154 860h-164l14 82h164l25 127q20 104 62 175t106.5 114t148.5 60.5t189 17.5q49 0 130 -14.5t148 -45.5q53 31 116.5 45.5t133.5 14.5q59 0 111.5 -3t99.5 -3q74 0 142.5 6t140.5 18l-60 -381q-8 -47 -22.5 -106.5t-30.5 -110.5zM850 942q18 86 29.5 142.5 t17.5 92t8 55t2 32.5q0 53 -28.5 75.5t-77.5 22.5q-59 0 -97 -19.5t-64 -64.5t-42 -119t-35 -180l-6 -37h293z" />
<glyph unicode="ffb" horiz-adv-x="2359" d="M979 0h-293l152 860h-293l-152 -860h-293l152 860h-164l14 82h164l25 127q20 104 62 175t106.5 114t148.5 60.5t189 17.5q49 0 130 -14.5t148 -45.5q53 31 116.5 45.5t133.5 14.5q59 0 111.5 -3t99.5 -3q74 0 142.5 6t140.5 18l-64 -379q-4 -23 -18.5 -82t-30.5 -127 l10 -2q59 55 116.5 82t129.5 27t133.5 -22.5t105.5 -68.5t68.5 -120t24.5 -174q0 -154 -43 -269.5t-119 -192.5t-176.5 -115t-214.5 -38q-49 0 -85 12.5t-65.5 28t-57.5 27.5t-60 12q-31 0 -55.5 -21.5t-45.5 -58.5l-98 39q10 66 30.5 177.5t44 243.5t48 270.5t45 255 t33 198.5t12.5 105q0 66 -26.5 82t-80.5 16q-98 0 -148 -91t-83 -290l-6 -37h209l-13 -82h-209zM2007 668q0 45 -4 86t-14.5 70.5t-30 47t-51.5 17.5q-55 0 -108.5 -56.5t-93.5 -148.5t-64.5 -208t-24.5 -232q0 -100 22.5 -144.5t83.5 -44.5q66 0 117 60.5t88 151.5 t57.5 199t22.5 202zM850 942q16 86 27.5 141.5t17.5 91t9 55t3 32.5q0 53 -28.5 76.5t-77.5 23.5q-59 0 -97 -19.5t-64 -64.5t-42 -119t-35 -180l-6 -37h293z" />
<glyph unicode="fb" horiz-adv-x="1773" d="M393 0h-293l152 860h-164l14 82h164l17 107q14 102 56 174.5t102.5 120t137 70t160.5 22.5q59 0 111.5 -3t99.5 -3q74 0 142.5 6t140.5 18l-64 -379q-4 -23 -18 -82t-31 -127l10 -2q59 55 117 82t129 27q72 0 133.5 -22.5t105.5 -68.5t68.5 -120t24.5 -174 q0 -154 -43 -269.5t-119 -192.5t-176 -115t-215 -38q-49 0 -85 12.5t-65.5 28t-57 27.5t-60.5 12q-31 0 -55.5 -21.5t-45.5 -58.5l-98 39q51 289 87 488.5t59.5 333t36 208t18.5 113.5t8 51.5t2 20.5q0 10 1 18t1 17q0 66 -26.5 82t-79.5 16q-98 0 -148.5 -91t-83.5 -290 l-6 -37h209l-12 -82h-209zM1421 668q0 45 -4 86t-14 70.5t-29.5 47t-52.5 17.5q-55 0 -108.5 -56.5t-93.5 -148.5t-64.5 -208t-24.5 -232q0 -100 22.5 -144.5t84.5 -44.5q66 0 117 60.5t87.5 151.5t57 199t22.5 202z" />
<glyph horiz-adv-x="0" />
<glyph unicode="&#xd;" />
<glyph horiz-adv-x="0" />
<glyph horiz-adv-x="0" />
<glyph unicode=" "  horiz-adv-x="446" />
<glyph unicode="&#x09;" horiz-adv-x="446" />
<glyph unicode="&#xa0;" horiz-adv-x="446" />
<glyph unicode="!" horiz-adv-x="626" d="M473 1473q82 0 127 -42t45 -108q0 -80 -29.5 -156.5t-76.5 -175.5q-59 -123 -109.5 -262t-56.5 -303h-123q23 92 34 179t11 177q0 72 -7 128.5t-12 113.5q-4 45 -9 86t-5 76q0 59 11.5 111.5t37 91t65.5 61.5t97 23zM238 -27q-76 0 -119 43t-43 107q0 78 58.5 133 t144.5 55q74 0 116.5 -43t42.5 -104q0 -39 -15 -74t-43 -60.5t-64.5 -41t-77.5 -15.5z" />
<glyph unicode="&#x22;" horiz-adv-x="626" d="M356 1470q43 0 60.5 -22.5t17.5 -61.5q0 -37 -13 -87t-33.5 -106t-45.5 -114.5t-45 -111.5h-78v32q0 80 2 164t15.5 151.5t41 111.5t78.5 44zM623 1470q43 0 60 -22.5t17 -61.5q0 -37 -13 -87t-33.5 -106t-45 -114.5t-45.5 -111.5h-78v32q0 80 2 164t15.5 151.5 t41.5 111.5t79 44z" />
<glyph unicode="#" horiz-adv-x="1148" d="M322 1079h223l153 391h127l-155 -391h198l154 391h127l-156 -391h201l-74 -196h-205l-110 -283h201l-76 -197h-203l-174 -442h-127l174 442h-197l-174 -442h-127l174 442h-221l78 197h221l113 283h-221zM481 600h197l113 283h-199z" />
<glyph unicode="$" horiz-adv-x="1124" d="M772 1434q100 -4 169 -31t111 -63.5t60 -79.5t18 -80q0 -33 -9 -67t-29.5 -61.5t-53 -45t-80.5 -17.5q-41 0 -67.5 11.5t-40.5 30t-19.5 40t-5.5 41.5q0 43 16.5 81t16.5 85q0 37 -31.5 56.5t-66.5 25.5l-92 -516q57 -35 120.5 -69t116.5 -79t87 -105.5t34 -150.5 q0 -117 -37 -198.5t-104.5 -134t-161.5 -78t-207 -29.5l-43 -246h-86l43 246q-115 6 -190.5 33.5t-120.5 67.5t-63.5 87.5t-18.5 92.5q0 27 8 59.5t28.5 61t54.5 49t85 20.5q80 0 113.5 -39t33.5 -94q0 -47 -19 -88t-19 -90q0 -39 34.5 -60.5t87.5 -25.5l95 532 q-55 35 -114.5 69t-107 77t-78 101t-30.5 140q0 90 27.5 169t86 137.5t148.5 93t217 41.5l37 208h86zM735 336q0 76 -33.5 127t-85.5 92l-86 -477q106 16 155.5 85t49.5 173zM487 1098q0 -70 28 -118t75 -85l84 461q-96 -18 -141.5 -89t-45.5 -169z" />
<glyph unicode="%" horiz-adv-x="1718" d="M1317 1548l106 -53l-1003 -1720l-103 57zM600 1470q135 0 220 -81.5t85 -241.5q0 -111 -35.5 -197t-95 -143t-138.5 -87t-167 -30q-135 0 -220 82t-85 242q0 111 34.5 196.5t95 143t139.5 87t167 29.5zM592 1407q-53 0 -93 -43t-68 -109.5t-42 -145.5t-14 -153 q0 -88 18.5 -146t85.5 -58q53 0 93 43t68 109.5t41 146t13 153.5q0 88 -17 145.5t-85 57.5zM1337 743q135 0 220 -81.5t85 -241.5q0 -111 -35.5 -197t-95 -143t-138.5 -87t-167 -30q-135 0 -220 82t-85 242q0 111 35 196.5t95.5 143t139 87t166.5 29.5zM1329 680 q-53 0 -93 -43t-67.5 -109.5t-42 -145.5t-14.5 -153q0 -88 18.5 -146t86.5 -58q53 0 93 43t67.5 109.5t41 146t13.5 153.5q0 88 -17.5 145.5t-85.5 57.5z" />
<glyph unicode="&#x26;" horiz-adv-x="1486" d="M1044 334q53 76 77 140.5t24 111.5q0 33 -21.5 50t-79.5 19q-14 0 -39.5 -2t-54.5 -6l11 92q41 -4 71.5 -4h59.5q51 0 99 7.5t126 29.5q0 -51 -15.5 -117.5t-44 -138.5t-68.5 -142.5t-91 -125.5q49 -66 85 -96.5t70 -30.5q47 0 113 69l74 -63q-61 -86 -138 -124t-163 -38 q-66 0 -129.5 23.5t-106.5 77.5q-53 -39 -101 -59.5t-94 -30t-90.5 -11.5t-91.5 -2q-109 0 -195.5 25.5t-148 74t-94.5 115t-33 150.5q0 72 17.5 133t60.5 114.5t117 100.5t186 90q-55 80 -81.5 164t-26.5 155q0 80 29.5 150t88 122t143.5 82.5t195 30.5q78 0 144.5 -20 t115 -57t76 -89.5t27.5 -115.5q0 -86 -38 -150.5t-95.5 -110.5t-124 -79t-121.5 -57l-16 -9zM874 1223q0 92 -30.5 127.5t-71.5 35.5q-31 0 -58.5 -12t-50 -41.5t-36 -76t-13.5 -113.5q0 -66 20.5 -130.5t65.5 -146.5q90 59 132 149.5t42 207.5zM492 676q-39 -35 -61.5 -75 t-35 -82t-15.5 -84t-3 -81q0 -66 11 -121t36 -97t64.5 -65.5t97.5 -23.5q59 0 124.5 17.5t127.5 68.5z" />
<glyph unicode="'" horiz-adv-x="358" d="M354 1470q43 0 60.5 -22.5t17.5 -61.5q0 -37 -13 -87t-32.5 -106t-44.5 -114.5t-47 -111.5h-74q4 59 4 87.5v47.5q0 70 3 136.5t16.5 117.5t39 82.5t70.5 31.5z" />
<glyph unicode="(" horiz-adv-x="630" d="M74 457q0 168 57 320.5t148.5 290.5t203 265t219.5 244l72 -57q-66 -88 -116 -167t-86.5 -153t-65.5 -144.5t-51 -142.5q-51 -158 -84 -341t-33 -371q0 -150 24.5 -293.5t79.5 -272.5l-88 -45q-139 248 -209.5 459t-70.5 408z" />
<glyph unicode=")" horiz-adv-x="630" d="M600 721q0 -170 -56.5 -321.5t-146.5 -291t-202.5 -267.5t-225.5 -251l-71 58q66 88 114.5 169t87.5 155.5t68 147.5t51 144q49 154 83 305.5t34 329.5q0 80 -2 160t-11.5 158.5t-30 156.5t-59.5 158l86 45q139 -248 210 -453.5t71 -402.5z" />
<glyph unicode="*" horiz-adv-x="815" d="M500 1174q0 31 -10.5 57t-23.5 50t-23.5 47.5t-10.5 49.5q0 45 28.5 68.5t65.5 23.5t66 -22.5t29 -69.5q0 -27 -11.5 -50t-25 -47t-24.5 -50.5t-11 -56.5l6 -5q33 10 56.5 33t45 45.5t45 40t58.5 17.5q41 0 65.5 -29t24.5 -70q0 -35 -23.5 -63.5t-76.5 -28.5q-31 0 -62 7 t-65 7q-27 0 -52 -6l-2 -6q20 -31 54 -48t65 -33.5t53.5 -38t22.5 -60.5q0 -37 -31 -65.5t-67 -28.5q-45 0 -63.5 25.5t-27 63.5t-16.5 81t-31 75h-8q-23 -33 -31 -75.5t-17 -80.5t-27.5 -63.5t-63.5 -25.5q-37 0 -66.5 28.5t-29.5 65.5q0 39 22.5 60.5t53 38t63.5 33.5 t55 48l-2 6q-29 6 -51 6q-35 0 -65.5 -7t-59.5 -7q-53 0 -77.5 28.5t-24.5 63.5q0 41 25.5 70t66.5 29q33 0 56.5 -17.5t44 -40t44 -45t58.5 -33.5z" />
<glyph unicode="+" d="M571 979v-422h414v-94h-414v-420h-102v420h-416v94h416v422h102z" />
<glyph unicode="," horiz-adv-x="540" d="M162 -12q-51 6 -88 45t-37 117q0 82 57.5 138t138.5 56q70 0 117 -45t47 -141q0 -102 -40 -186.5t-96 -149t-116.5 -110.5t-101.5 -72l-66 86q27 20 64 45.5t70.5 54.5t58.5 62.5t25 70.5q0 23 -33 29z" />
<glyph unicode="-" horiz-adv-x="741" d="M141 633h514l-20 -121h-514z" />
<glyph unicode="." horiz-adv-x="516" d="M182 -39q-70 0 -113.5 44t-43.5 112q0 43 16 78.5t44 63.5t64.5 43t77.5 15q70 0 114 -44t44 -111q0 -43 -16.5 -79t-44 -63.5t-64.5 -43t-78 -15.5z" />
<glyph unicode="/" horiz-adv-x="917" d="M944 1554l98 -47l-999 -1724l-98 51z" />
<glyph unicode="0" horiz-adv-x="1165" d="M498 -37q-94 0 -166 35t-120 99.5t-72.5 155.5t-24.5 204q0 94 12 197.5t41 203.5t76 190.5t114.5 159t159.5 108.5t211 40q94 0 167 -35t123 -99.5t75.5 -155.5t25.5 -204q0 -143 -30.5 -301t-102.5 -291t-191.5 -220t-297.5 -87zM504 43q57 0 103 61.5t83 155.5 t63.5 209t44 220.5t25.5 188.5t8 115q0 147 -23.5 214t-84.5 67q-55 0 -101.5 -59.5t-82 -152.5t-62 -206t-44 -218.5t-26 -190.5t-8.5 -121q0 -82 6.5 -136.5t19.5 -87t32.5 -46t46.5 -13.5z" />
<glyph unicode="1" horiz-adv-x="892" d="M618 238q-4 -14 -5 -34t-1 -36q0 -47 21.5 -73.5t79.5 -26.5h31.5t39.5 4l-14 -76q-90 6 -150.5 8t-115.5 2h-113q-53 0 -125.5 -2t-171.5 -8l15 76q20 -4 34.5 -4h26.5q66 0 102.5 47t55.5 145q33 174 63.5 358.5t59.5 358.5q6 37 6 57q0 33 -13.5 45.5t-37.5 12.5 q-55 0 -107.5 -19.5t-124.5 -56.5l-41 94q100 31 181 58.5t152 56t134.5 62.5t124.5 81l96 -43q-20 -59 -31.5 -130t-23.5 -136l-8 -43z" />
<glyph unicode="2" horiz-adv-x="1085" d="M16 -4q10 115 53.5 207t109 172t151.5 151.5t182 145.5q43 33 86 71.5t77 89t55.5 113t21.5 141.5q0 78 -30 136.5t-97 58.5q-59 0 -90 -25.5t-31 -91.5q0 -25 8 -44t8 -46q0 -74 -45 -122t-129 -48q-68 0 -110.5 45t-42.5 105q0 61 27.5 116.5t83.5 96.5t143.5 65.5 t205.5 24.5q98 0 175 -22.5t129.5 -61.5t80 -92.5t27.5 -114.5q0 -86 -28.5 -147.5t-76 -107.5t-106.5 -81t-121 -65q-74 -39 -150.5 -89.5t-143 -109.5t-117 -128t-72.5 -142q41 6 73.5 8t61.5 2h297q55 0 88 17.5t51.5 47t26.5 68.5t14 82l125 -23q-35 -92 -53.5 -188 t-34.5 -215q-109 8 -223.5 9t-224.5 1q-111 0 -216.5 -1t-218.5 -9z" />
<glyph unicode="3" horiz-adv-x="1081" d="M494 1165q0 -23 5 -43t5 -67q0 -70 -50.5 -107t-113.5 -37q-59 0 -101 33t-42 103q0 68 33.5 125t94 98t146.5 63.5t191 22.5q106 0 179.5 -29t119 -73t66 -99t20.5 -108q0 -109 -37 -175.5t-89.5 -104.5t-106.5 -53.5t-87 -19.5l-4 -12q39 -6 83 -23.5t81 -51.5 t61.5 -85t24.5 -125q0 -129 -50.5 -213t-126 -133t-164.5 -68.5t-165 -19.5q-98 0 -176 20.5t-132.5 56.5t-82 85t-27.5 106q0 31 9.5 64t31 60.5t55 46t84.5 18.5q76 0 112 -42t36 -89q0 -31 -5 -51.5t-10.5 -37t-10.5 -32.5t-5 -39q0 -29 12.5 -45t31 -25.5t37.5 -12.5 t36 -3q98 0 152.5 91t54.5 284q0 123 -50.5 171t-154.5 48h-29q-8 0 -17 -1t-20 -1l15 94q14 -2 31.5 -2h33.5q74 0 126 26.5t85 72.5t48.5 110.5t15.5 140.5q0 39 -5.5 75t-19.5 63.5t-39.5 45t-64.5 17.5q-70 0 -100.5 -30t-30.5 -83z" />
<glyph unicode="4" horiz-adv-x="1079" d="M532 496l41 227q10 57 17.5 98t14.5 72t13.5 54.5t14.5 47.5l-6 2l-471 -501h376zM508 358h-494l25 148l807 856l117 -49l-144 -817h211l-26 -138h-211q-6 -49 -14.5 -98t-8.5 -92q0 -47 21.5 -73.5t78.5 -26.5h33t39 4l-14 -76q-90 6 -149.5 8t-116.5 2h-113 q-53 0 -126 -2t-171 -8l16 76q18 -4 33.5 -4h26.5q68 0 104.5 42t56.5 150z" />
<glyph unicode="5" horiz-adv-x="1075" d="M299 748l12 -3q51 51 118 70t132 19q190 0 306 -96.5t116 -272.5q0 -125 -37 -219t-104.5 -156.5t-162.5 -94.5t-212 -32q-184 0 -295 67.5t-111 184.5q0 33 8.5 68.5t27 64.5t50 47.5t78.5 18.5q43 0 72 -10.5t47 -28t26.5 -40t8.5 -44.5q0 -35 -5 -56.5t-11.5 -39 t-11.5 -33t-5 -37.5q0 -45 35 -65.5t76 -20.5q39 0 77.5 25.5t69.5 83t50.5 148.5t19.5 222q0 119 -44 173t-126 54q-66 0 -134.5 -43t-105.5 -135l-119 37l101 445q8 37 21.5 114.5t25.5 161.5q76 -8 160 -9t172 -1h47q92 0 175 1t173 9q-20 -82 -27.5 -187.5t-7.5 -203.5 h-106l6 82q4 63 -34 81.5t-118 18.5h-239q-45 0 -82 -21.5t-56 -97.5z" />
<glyph unicode="6" horiz-adv-x="1155" d="M459 723q51 57 111.5 75.5t125.5 18.5q76 0 142.5 -25.5t116 -72.5t77 -112.5t27.5 -147.5q0 -135 -45 -230.5t-120 -154t-171 -85t-199 -26.5q-111 0 -188.5 37t-126.5 102.5t-71.5 154.5t-22.5 194q0 86 11 187t39 201.5t74 193.5t114.5 165t161.5 115t216 43 q113 0 186.5 -25.5t116.5 -64.5t60.5 -82t17.5 -78q0 -20 -5 -52t-22.5 -62.5t-49 -52t-85.5 -21.5q-70 0 -107.5 33.5t-37.5 84.5q0 41 16.5 77t16.5 83q0 35 -22.5 58.5t-70.5 23.5q-49 0 -86.5 -30.5t-66.5 -79t-50.5 -110t-37 -123t-28.5 -117.5t-23 -93zM537 43 q59 0 99 47t64.5 114.5t36 142.5t11.5 130q0 51 -4.5 98.5t-16.5 83t-35.5 56t-62.5 20.5q-47 0 -86 -36.5t-66.5 -100t-43 -148.5t-15.5 -180q0 -102 30 -164.5t89 -62.5z" />
<glyph unicode="7" horiz-adv-x="976" d="M852 1114l-6 6q-29 -10 -75 -11t-87 -1h-252q-47 0 -77.5 -3t-50 -23.5t-31 -62.5t-19.5 -122l-123 14q14 45 27.5 102.5t24 116t19.5 112.5t13 95q94 -10 167 -16t116 -6h204q61 0 138.5 6t189.5 16l62 -84q-117 -154 -210.5 -286.5t-160 -250.5t-101 -223.5 t-34.5 -205.5q0 -45 3 -65.5t3 -31.5q0 -66 -15.5 -108.5t-41 -70t-58.5 -39t-69 -11.5q-82 0 -126 38t-44 103q0 53 17 108.5t50 117t81 133t110 157.5l67 95z" />
<glyph unicode="8" horiz-adv-x="1122" d="M72 287q0 76 25.5 137t71.5 107.5t108.5 79t136.5 55.5q-109 57 -160 131.5t-51 167.5q0 63 23.5 132.5t78.5 127t146.5 94.5t226.5 37q94 0 170 -21.5t127 -59.5t78.5 -89t27.5 -109q0 -68 -23.5 -122t-65.5 -96t-96 -72.5t-116 -51.5q127 -57 183.5 -143t56.5 -199 q0 -86 -37 -163.5t-105.5 -137t-167 -94.5t-221.5 -35q-92 0 -168.5 24.5t-132 67.5t-86 102.5t-30.5 129.5zM696 788q57 27 94 92.5t37 200.5q0 35 -7 71t-23.5 64.5t-41 47t-61.5 18.5q-53 0 -88 -25.5t-56.5 -62.5t-30.5 -79t-9 -75q0 -55 18.5 -95t46 -69.5t60 -51.5 t61.5 -36zM705 338q0 59 -20.5 103t-51.5 76t-67 53.5t-64 35.5q-70 -33 -120 -112.5t-50 -212.5q0 -47 9 -90.5t27.5 -78t49.5 -55t74 -20.5q59 0 100 29.5t65.5 73.5t36 97.5t11.5 100.5z" />
<glyph unicode="9" horiz-adv-x="1144" d="M463 41q104 0 178 143.5t119 423.5l-8 2q-43 -45 -98.5 -66.5t-112.5 -21.5q-78 0 -144.5 23.5t-116 68.5t-77 111t-27.5 152q0 115 38 203.5t104.5 149t154.5 92.5t191 32q223 0 327.5 -131t104.5 -375q0 -162 -33 -320.5t-106.5 -284.5t-191.5 -204t-290 -78 q-115 0 -190.5 28.5t-120.5 70.5t-63.5 88.5t-18.5 80.5q0 27 6 60t25.5 62.5t55.5 49t93 19.5q70 0 111 -41t41 -92q0 -31 -4 -50.5t-9.5 -35t-9.5 -31.5t-4 -43q0 -41 18.5 -63.5t57.5 -22.5zM678 1274q-55 0 -94 -44t-61.5 -108.5t-33 -137.5t-10.5 -128q0 -104 31 -173 t90 -69q43 0 79 31t62.5 88.5t42 137t15.5 176.5q0 102 -31 164.5t-90 62.5z" />
<glyph unicode=":" horiz-adv-x="571" d="M207 -39q-70 0 -114 44t-44 112q0 43 16.5 78.5t44 63.5t64.5 43t78 15q70 0 114 -44t44 -111q0 -43 -16.5 -79t-44 -63.5t-64.5 -43t-78 -15.5zM322 621q-70 0 -114 44t-44 111q0 43 16.5 79t44 63.5t64.5 43t78 15.5q70 0 113.5 -44t43.5 -112q0 -43 -16 -78.5 t-44 -63.5t-64.5 -43t-77.5 -15z" />
<glyph unicode=";" horiz-adv-x="575" d="M319 621q-70 0 -113.5 44t-43.5 111q0 43 16.5 79t44 63.5t64.5 43t78 15.5q70 0 113.5 -44t43.5 -112q0 -43 -16.5 -78.5t-44 -63.5t-64.5 -43t-78 -15zM178 -12q-51 6 -88 45t-37 117q0 82 57.5 138t139.5 56q70 0 117 -45t47 -141q0 -102 -40 -186.5t-96.5 -149 t-117 -110.5t-101.5 -72l-65 86q27 20 63.5 45.5t70.5 54.5t58.5 62.5t24.5 70.5q0 23 -33 29z" />
<glyph unicode="&#x3c;" d="M72 535l786 444l45 -88l-717 -402l717 -405l-45 -84l-786 442v93z" />
<glyph unicode="=" d="M983 707v-91h-930v91h930zM983 391v-90h-930v90h930z" />
<glyph unicode="&#x3e;" d="M961 442l-787 -442l-45 84l717 405l-717 402l45 88l787 -444v-93z" />
<glyph unicode="?" horiz-adv-x="1019" d="M416 414q0 109 25.5 185.5t63.5 137t81 109.5t81 103.5t63.5 119t25.5 154.5q0 31 -5.5 61.5t-18.5 55t-37.5 39t-61.5 14.5q-72 0 -97.5 -44t-25.5 -110q0 -18 4 -35.5t4 -40.5q0 -82 -51 -127t-129 -45q-68 0 -112 43t-44 103q0 66 29 127t88 107t149.5 74t215.5 28 q100 0 177 -23t129 -60.5t79.5 -90t27.5 -111.5q0 -109 -41 -175.5t-101.5 -113.5t-132 -85t-132 -88t-101.5 -123t-41 -189h-112zM418 -27q-76 0 -119 43t-43 107q0 78 58.5 133t144.5 55q74 0 116.5 -43t42.5 -104q0 -39 -15 -74t-43 -60.5t-64.5 -41t-77.5 -15.5z" />
<glyph unicode="@" horiz-adv-x="2068" d="M1137 834q-63 0 -132 -55.5t-125.5 -143.5t-92 -198.5t-35.5 -221.5q0 -66 21.5 -106.5t64.5 -40.5q74 0 145.5 59t127.5 148.5t91 193.5t35 195q0 68 -20.5 119t-79.5 51zM1116 158q-23 -25 -54.5 -55.5t-71.5 -56.5t-87 -43t-98 -17q-35 0 -82 10t-90 41t-74 88 t-31 149q0 117 48.5 230.5t129 204t187 145.5t225.5 55q63 0 99 -11t59.5 -25.5t39 -25.5t38.5 -11q25 0 46 21.5t34 37.5l100 -27l-23 -63q-39 -109 -76.5 -214.5t-72.5 -223.5q-16 -55 -32.5 -111.5t-16.5 -101.5q0 -41 19.5 -67t66.5 -26q86 0 161.5 57.5t131 153t87 218 t31.5 251.5q0 135 -50 234.5t-133 163t-192.5 94.5t-226.5 31q-164 0 -330.5 -60.5t-301 -183.5t-219.5 -309.5t-85 -438.5q0 -152 45 -269.5t125 -197t186.5 -121.5t229.5 -42q12 0 49 3t82 7t88 9t68 11l-6 -82q-90 -16 -171 -25t-153 -9q-186 0 -328.5 60t-237.5 161.5 t-143.5 234.5t-48.5 279q0 121 33 247t98.5 243.5t163 221t225.5 180.5t286.5 122t348.5 45q199 0 350.5 -50.5t253 -136.5t152.5 -200.5t51 -241.5q0 -160 -57 -296t-150.5 -235.5t-212 -156t-241.5 -56.5q-117 0 -179.5 42.5t-62.5 138.5z" />
<glyph unicode="A" horiz-adv-x="1421" d="M1212 211q16 -66 40 -101.5t79 -35.5h17.5t19.5 2l-14 -82q-78 6 -159 8t-157 2t-155.5 -2t-163.5 -8l14 82q16 -2 35.5 -4t42.5 -2q35 0 64.5 13t29.5 58q0 23 -4 44.5t-8 45.5l-57 271h-455l-129 -246q-39 -72 -39 -115q0 -70 102 -69q14 0 29.5 1t32.5 3l-15 -82 q-41 2 -70.5 4t-58 4t-58.5 2h-66h-66t-50.5 -2t-46 -4t-52.5 -4l14 82q10 -2 29 -2q45 0 76.5 18.5t57 52t50 81.5t57.5 108l617 1136h125zM422 584h393l-51 233q-14 59 -29.5 138t-21.5 147h-11z" />
<glyph unicode="B" horiz-adv-x="1318" d="M621 788h36q143 0 230.5 87.5t87.5 271.5q0 35 -6 74t-23.5 71.5t-46.5 54t-74 21.5q-39 0 -60.5 -7t-34.5 -25.5t-21.5 -52.5t-16.5 -89zM524 244q-4 -27 -7 -47.5t-3 -38.5q0 -55 16.5 -76t67.5 -21q129 0 214 100.5t85 295.5q0 121 -53 190.5t-176 69.5h-39.5 t-22.5 -4zM223 1446q76 -4 153 -9t154 -5q10 0 46 1t84.5 3t100.5 3t95 1q139 0 225 -32t134.5 -79t64.5 -101t16 -100q0 -92 -33.5 -160.5t-88 -114.5t-123 -68.5t-140.5 -24.5q0 -4 -2 -6t-2 -6q68 -2 126.5 -25t102.5 -65t69.5 -101t25.5 -135q0 -121 -46 -203t-129 -132 t-197 -71.5t-249 -21.5q-94 0 -186 2t-191 2q-57 0 -119.5 -1t-123.5 -5l16 88q23 -4 36 -4h30q41 0 65.5 10t41 34.5t26.5 64.5t20 100l152 872q4 31 8 56.5t4 48.5q0 51 -24.5 75.5t-96.5 24.5q-12 0 -27.5 -1t-31.5 -3z" />
<glyph unicode="C" horiz-adv-x="1271" d="M1317 1419q-10 -51 -17.5 -95t-12.5 -90t-8 -97.5t-3 -114.5h-94q4 20 4 41.5v38.5q0 82 -21.5 138t-58.5 91t-86 49.5t-102 14.5q-100 0 -185.5 -55.5t-148 -163t-98 -265t-35.5 -364.5q0 -111 17 -202t54 -155.5t96.5 -100.5t143.5 -36q129 0 224 75t151 191l90 -43 q-92 -168 -212 -240.5t-278 -72.5q-293 0 -454.5 164t-161.5 475q0 211 58.5 373t164 272.5t251.5 166.5t325 56q133 0 235.5 -17.5t161.5 -33.5z" />
<glyph unicode="D" horiz-adv-x="1529" d="M8 76q10 -2 27.5 -3t23.5 -1q43 0 70 7t44 29.5t27.5 63.5t22.5 109l152 874q6 35 10 64.5t4 52.5q0 47 -25.5 68.5t-97.5 21.5h-27.5t-31.5 -2l16 82q43 -4 77 -7t70 -4t81 -1h108q66 0 138.5 6t187.5 6q147 0 262 -41t193.5 -116t118.5 -180.5t40 -236.5 q0 -233 -64.5 -399t-179 -271.5t-273.5 -154.5t-347 -49q-33 0 -61.5 1t-62.5 3t-76 3t-101 1q-61 0 -143 -2t-199 -6zM651 82q111 0 194 40t141 108.5t95 156.5t58.5 185.5t30 194.5t8.5 183q0 70 -11.5 142.5t-46.5 130t-97 94.5t-167 37q-43 0 -70.5 -8.5t-47 -31 t-32 -61.5t-22.5 -98l-152 -874q-4 -29 -9 -53.5t-5 -47.5q0 -55 28.5 -76.5t104.5 -21.5z" />
<glyph unicode="E" horiz-adv-x="1265" d="M8 76q10 -2 27.5 -3t23.5 -1q43 0 70 7t44 29.5t27.5 63.5t22.5 109l152 872q6 35 10 64.5t4 52.5q0 47 -25.5 68.5t-97.5 21.5h-27.5t-31.5 -2l18 84q135 -10 240.5 -12.5t204.5 -2.5q72 0 141.5 1.5t143 3.5t154.5 4t175 4q-10 -55 -16 -99.5t-10.5 -87.5t-6.5 -89 t-2 -107h-86q6 61 6 104q0 63 -13 101t-39.5 58.5t-63.5 26t-82 5.5q-74 0 -123 -4.5t-82 -22.5t-51.5 -58t-30.5 -114l-63 -367h94q59 0 99 12.5t65.5 39t40 64.5t20.5 91h90q-41 -145 -60.5 -265t-25.5 -243h-98q8 35 13 65t5 52q0 35 -12 55.5t-41 31.5t-78 15.5 t-125 4.5q-29 -162 -44 -250t-23.5 -129t-9.5 -50l-1 -8q-6 -29 -10 -54t-4 -46q0 -59 55.5 -74.5t171.5 -15.5q68 0 123.5 8t99.5 41t75.5 99.5t54.5 181.5l94 -15q-18 -61 -32.5 -110t-25 -95.5t-19.5 -93.5t-19 -104q-162 6 -309.5 9t-301.5 3h-104t-121.5 -1t-132.5 -4 t-133 -7z" />
<glyph unicode="F" horiz-adv-x="1175" d="M375 1153q6 35 10 64.5t4 52.5q0 47 -25.5 68.5t-97.5 21.5h-27.5t-31.5 -2l18 84q49 -4 122 -7t152 -4t157.5 -2.5t144.5 -1.5q137 0 243.5 3.5t212.5 7.5q6 0 13.5 1t13.5 1q-10 -55 -16 -104.5t-10.5 -97.5t-6.5 -99.5t-2 -112.5h-86q4 33 6 60.5t2 52.5 q0 70 -14 112.5t-39.5 64t-63.5 29t-83 7.5h-125q-41 0 -67.5 -8.5t-44 -31t-29 -61.5t-21.5 -98l-68 -387h97q59 0 98 12.5t63.5 39t39 64.5t24.5 91h90q-20 -70 -32.5 -130.5t-22.5 -117.5q-10 -63 -18.5 -131t-12.5 -129h-98q8 35 13 63.5t5 53.5q0 51 -32.5 78.5 t-129.5 27.5h-98l-70 -407q-4 -31 -8 -55.5t-4 -47.5q0 -53 25.5 -78.5t93.5 -25.5h27.5t31.5 2l-14 -82q-160 12 -326 12q-168 0 -364 -12l14 82q10 -2 27.5 -3t23.5 -1q43 0 70 7t44 29.5t27.5 63.5t22.5 109z" />
<glyph unicode="G" horiz-adv-x="1435" d="M719 51q57 0 90 8.5t52.5 30t29.5 61t22 101.5q14 70 25.5 123t11.5 92q0 59 -20.5 87t-95.5 28q-23 0 -45.5 -2t-40.5 -5l14 95q61 -4 109.5 -7.5t91.5 -4.5t82.5 -1h84.5h77t70 1t79 4.5t104 7.5l-12 -95q-16 2 -28.5 3.5t-24.5 1.5q-41 0 -65.5 -10.5t-40 -34 t-26 -62.5t-20.5 -96q-6 -29 -13 -75t-15.5 -98t-13.5 -101.5t-5 -79.5q-82 -29 -200.5 -44.5t-260.5 -15.5q-293 0 -454.5 164t-161.5 475q0 211 64.5 373t176 272.5t264 166.5t330.5 56q133 0 241 -17t167 -34q-16 -84 -31.5 -168t-15.5 -170v-30.5t2 -28.5h-94 q2 20 3 39.5t1 38.5q0 82 -22.5 139t-60.5 91t-88 49.5t-104 15.5q-104 0 -196 -60.5t-161 -176.5t-109 -286t-40 -387q0 -98 13.5 -178t45.5 -136t84 -87t130 -33z" />
<glyph unicode="H" horiz-adv-x="1599" d="M1313 281q-6 -35 -10.5 -65t-4.5 -52q0 -47 26 -68.5t97 -21.5h27.5t32.5 2l-15 -82q-160 12 -325 12q-168 0 -365 -12l15 82q10 -2 27.5 -3t23.5 -1q43 0 69.5 7t44 29.5t27.5 63.5t23 109l75 430h-475l-76 -430q-12 -66 -12 -109q0 -51 25.5 -75.5t95.5 -24.5 q12 0 27.5 1t31.5 3l-14 -82q-160 12 -326 12q-168 0 -364 -12l14 82q10 -2 27.5 -3t23.5 -1q43 0 70 7t44 29.5t27.5 63.5t22.5 109l152 872q6 35 10 64.5t4 52.5q0 47 -25.5 68.5t-97.5 21.5h-27.5t-31.5 -2l14 82q160 -12 326 -13q168 0 364 13l-14 -82q-10 2 -27.5 3 t-23.5 1q-43 0 -70.5 -7t-44 -29.5t-27 -63.5t-22.5 -109l-61 -360h475l61 360q6 35 10 64.5t4 52.5q0 47 -25.5 68.5t-96.5 21.5h-27.5t-32.5 -2l15 82q160 -12 325 -13q168 0 365 13l-15 -82q-10 2 -27.5 3t-23.5 1q-43 0 -70.5 -7t-44 -29.5t-26.5 -63.5t-23 -109z" />
<glyph unicode="I" horiz-adv-x="817" d="M530 281q-6 -35 -10 -65t-4 -52q0 -47 25.5 -68.5t97.5 -21.5h27.5t31.5 2l-14 -82q-160 12 -326 12q-168 0 -364 -12l14 82q10 -2 27.5 -3t23.5 -1q43 0 70 7t44 29.5t27.5 63.5t22.5 109l152 872q6 35 10 64.5t4 52.5q0 47 -25.5 69.5t-97.5 22.5q-12 0 -27.5 -1 t-31.5 -3l14 82q160 -12 326 -13q168 0 364 13l-14 -82q-10 2 -27.5 3t-23.5 1q-43 0 -70.5 -7t-44 -29.5t-27 -63.5t-22.5 -109z" />
<glyph unicode="J" horiz-adv-x="827" d="M575 291q-18 -102 -53 -166t-80 -99.5t-96 -49t-100 -13.5q-106 0 -186 24.5t-130 55.5l52 86q37 -25 67.5 -33t59.5 -8q125 0 159 193l150 872q6 35 10 64.5t4 52.5q0 47 -25.5 68.5t-97.5 21.5h-27.5t-31.5 -2l14 82q160 -12 326 -13q168 0 364 13l-14 -82 q-10 2 -27.5 3t-23.5 1q-43 0 -70.5 -7t-44 -29.5t-27 -63.5t-22.5 -109z" />
<glyph unicode="K" horiz-adv-x="1429" d="M618 795q33 0 52.5 7t38 22.5t39 39t55.5 58.5l223 227q66 66 105.5 111t39.5 69q0 33 -73 33q-14 0 -30.5 -1t-37.5 -3l14 82q61 -6 122 -9.5t132 -3.5h57.5t52.5 2.5t54.5 4.5t63.5 6l-15 -82q-10 2 -21 3t-22 1q-51 0 -96 -23q-16 -8 -32.5 -18t-43 -31.5t-63.5 -57.5 t-94.5 -92.5t-136 -138t-185.5 -196.5q45 0 80 -4t62.5 -18.5t48 -45t36.5 -82.5q61 -186 96.5 -300.5t63 -177t55 -84t74.5 -21.5h21.5t27.5 4l-14 -82q-53 6 -107.5 10t-115.5 4q-57 0 -118.5 -4t-115.5 -16q-2 18 -9 49t-14 62.5t-15.5 58t-10.5 37.5l-123 428 q-18 61 -45.5 78.5t-87.5 17.5l-76 -438q-6 -35 -10 -65t-4 -52q0 -47 25.5 -69.5t97.5 -22.5q12 0 27.5 1t31.5 3l-14 -82q-160 12 -326 12q-168 0 -364 -12l14 82q10 -2 27.5 -3t23.5 -1q43 0 70 7t44 29.5t27.5 63.5t22.5 109l152 872q6 35 10 64.5t4 52.5 q0 47 -25.5 68.5t-97.5 21.5h-27.5t-31.5 -2l14 82q160 -12 326 -13q168 0 364 13l-14 -82q-10 2 -27.5 3t-23.5 1q-43 0 -70.5 -7t-44 -29.5t-27 -63.5t-22.5 -109z" />
<glyph unicode="L" horiz-adv-x="1173" d="M375 1153q6 37 11 66.5t5 52.5q0 45 -25.5 66.5t-97.5 21.5h-27.5t-31.5 -2l14 82q160 -12 326 -13q168 0 364 13l-14 -82q-10 2 -27.5 3t-23.5 1q-43 0 -70.5 -7t-44 -29.5t-27 -63.5t-22.5 -109l-152 -872q-4 -16 -10 -47t-6 -62q0 -51 37 -70.5t109 -19.5q82 0 145 8 t109.5 44t80 108.5t58.5 203.5l94 -14q-39 -123 -57.5 -224.5t-38.5 -213.5q-80 2 -151 5t-138.5 4t-136 2t-144.5 1h-104t-121.5 -1t-132.5 -4t-133 -7l16 82q10 -2 27.5 -3t23.5 -1q43 0 70 7t44 29.5t27.5 63.5t22.5 109z" />
<glyph unicode="M" horiz-adv-x="1863" d="M1587 281q-4 -35 -8 -61.5t-4 -49.5q0 -66 30.5 -82t90.5 -16h31.5t39.5 4l-14 -82q-84 4 -167 7t-169 3q-80 0 -161.5 -3t-170.5 -7l15 82q23 -4 32 -4h25q33 0 54.5 5t37 26.5t25.5 62.5t20 115l66 487q4 33 11 90t15.5 121.5t17.5 128t17 111.5h-16l-596 -1174h-119 l-135 809q-6 33 -12 86t-11.5 107.5t-9.5 101.5t-4 65h-20l-201 -970q-4 -23 -7 -41.5t-3 -34.5q0 -53 29.5 -74.5t101.5 -21.5q16 0 37.5 1t46.5 3l-15 -82q-66 4 -143.5 7t-159.5 3q-57 0 -112.5 -2t-104.5 -8l15 82q23 -4 35 -4h28q37 0 61.5 8t42 27.5t29.5 53.5t23 83 l182 864q2 10 6 34.5t8 52.5l7.5 52.5t3.5 30.5q0 51 -28 67.5t-87 16.5q-16 0 -28.5 -1t-35.5 -3l15 82q82 -6 137 -9.5t117 -3.5h59.5t78.5 2.5t81 4.5t65 6q2 -29 7.5 -78t13.5 -105q33 -225 54.5 -366t33.5 -225t18 -128t9 -77h12l393 782l25.5 51t30 59.5t24.5 52.5 t14 34q25 -4 60.5 -6t72.5 -4.5t72 -2.5h57q31 0 56.5 2.5t52.5 4.5t58.5 4t74.5 2l-14 -78q-23 2 -32 3t-26 1q-72 0 -100.5 -33t-40.5 -123z" />
<glyph unicode="N" horiz-adv-x="1517" d="M1323 1190q4 25 6 45t2 37q0 53 -23.5 71.5t-78.5 18.5h-48t-55 -4l15 82q41 -2 70.5 -4t55 -3t54.5 -2t65 -1q37 0 68 1t59.5 2t61.5 3t74 4l-15 -82q-23 2 -38 3t-31 1q-41 0 -65.5 -8t-40 -27.5t-26 -52.5t-18.5 -84l-215 -1213h-129q-115 242 -199 415t-144 294 t-99 199t-64.5 128t-41 83.5t-27.5 66.5h-17l-166 -919q-6 -41 -6 -68q0 -61 31 -82.5t94 -21.5h37.5t42.5 4l-14 -82q-45 2 -81 4t-68 4t-62.5 2h-63.5q-37 0 -63.5 -1t-51 -2t-52 -3t-68.5 -4l14 82q23 -4 38 -4h32q35 0 59.5 8t40.5 27.5t26.5 53.5t20.5 83l170 966 q6 37 6 66q0 51 -24.5 68.5t-83.5 17.5q-16 0 -39 -1t-45 -3l14 82q82 -6 142.5 -9.5t121.5 -3.5h54.5t65.5 2.5t66.5 4.5t59.5 6q33 -104 61.5 -174t53.5 -123q98 -211 157.5 -334t94 -192.5t51 -106.5t29.5 -76h16z" />
<glyph unicode="O" horiz-adv-x="1503" d="M911 1470q127 0 231.5 -39.5t178.5 -115.5t115 -183.5t41 -244.5q0 -215 -56.5 -387t-160 -291t-251 -182.5t-327.5 -63.5q-127 0 -231.5 41t-178 118t-113.5 186.5t-40 248.5q0 217 56 387t158.5 287t249 178t328.5 61zM688 39q115 0 201 85t142 219t85 297t29 318 q0 207 -53.5 321t-186.5 114q-115 0 -201 -84t-142 -215t-83.5 -292t-27.5 -317q0 -213 51 -329.5t186 -116.5z" />
<glyph unicode="P" horiz-adv-x="1230" d="M606 721q14 -2 30.5 -3t33.5 -1q84 0 144 38t98 96t55.5 131t17.5 142q0 100 -32.5 169t-123.5 69q-43 0 -68.5 -14.5t-39.5 -41t-22.5 -66.5t-16.5 -89zM530 281q-6 -35 -10 -65t-4 -52q0 -47 25.5 -68.5t97.5 -21.5h27.5t31.5 2l-14 -82q-160 12 -326 12 q-168 0 -364 -12l14 82q10 -2 27.5 -3t23.5 -1q43 0 70 7t44 29.5t27.5 63.5t22.5 109l154 872q6 35 10 64.5t4 52.5q0 47 -25.5 69.5t-97.5 22.5q-12 0 -27.5 -1t-31.5 -3l14 82q160 -12 326 -13q63 0 143 6.5t166 6.5q84 0 164 -12.5t143.5 -48.5t101.5 -101.5t38 -171.5 q0 -80 -31 -164t-99.5 -151.5t-178 -110.5t-267.5 -43q-51 0 -87 2t-46 2z" />
<glyph unicode="Q" horiz-adv-x="1503" d="M911 1470q127 0 231.5 -39.5t178.5 -115.5t115 -183.5t41 -244.5q0 -197 -47.5 -357.5t-135.5 -277.5t-212 -188.5t-279 -92.5q43 -31 73.5 -71.5t58.5 -76.5t60.5 -61.5t81.5 -25.5q35 0 79 16.5t99 57.5l48 -62q-98 -80 -189.5 -113.5t-161.5 -33.5q-80 0 -144.5 36.5 t-116.5 93t-93 123t-72 128.5q-190 43 -298.5 191.5t-108.5 383.5q0 217 56 387t158.5 287t249 178t328.5 61zM688 39q115 0 201 85t142 219t85 297t29 318q0 207 -53.5 321t-186.5 114q-115 0 -201 -84t-142 -215t-83.5 -292t-27.5 -317q0 -213 51 -329.5t186 -116.5z" />
<glyph unicode="R" horiz-adv-x="1411" d="M618 774h64q88 0 145.5 32t92 85t49 121.5t14.5 142.5q0 45 -7 83t-25.5 65.5t-48.5 43t-75 15.5q-49 0 -75.5 -14.5t-40 -41t-18.5 -66.5t-13 -89zM928 725q68 0 106.5 -17.5t61 -49t34 -75.5t21.5 -98l49 -303q8 -72 34 -92t71 -20q20 0 25 1t32 3l-14 -80 q-31 2 -54.5 4t-44 3l-41 2t-45.5 1q-61 0 -123.5 -3t-146.5 -19v10q0 57 -7 124.5t-20 159.5l-24 193q-12 72 -24.5 116t-31 68.5t-45 32.5t-63.5 8h-72l-76 -413q-6 -35 -10 -65t-4 -52q0 -47 25.5 -68.5t97.5 -21.5h27.5t31.5 2l-14 -82q-160 12 -326 12q-168 0 -364 -12 l14 82q10 -2 27.5 -3t23.5 -1q43 0 70 7t44 29.5t27.5 63.5t22.5 109l152 872q6 35 10 64.5t4 52.5q0 47 -25.5 69.5t-97.5 22.5q-12 0 -27.5 -1t-31.5 -3l14 82q160 -12 326 -13q66 0 149.5 6.5t169.5 6.5q82 0 161 -11.5t140.5 -45t98.5 -95t37 -162.5q0 -162 -93.5 -263 t-279.5 -124z" />
<glyph unicode="S" horiz-adv-x="1157" d="M489 -37q-106 0 -216.5 18.5t-209.5 47.5q25 102 35.5 201.5t14.5 226.5h104q-4 -27 -6 -52.5t-2 -48.5q0 -154 75.5 -232.5t192.5 -78.5q55 0 105.5 17.5t89.5 50t61.5 81t22.5 111.5q0 55 -20.5 100.5t-54.5 84t-79 71.5t-92 64q-57 37 -111.5 76.5t-97.5 88 t-69.5 107.5t-26.5 139q0 96 34.5 176t102.5 137.5t166 89t225 31.5q106 0 206.5 -16t199.5 -45q-12 -51 -20.5 -94t-14.5 -88t-9 -94.5t-5 -112.5h-105q4 33 7 62.5t3 56.5q0 137 -61.5 195.5t-175.5 58.5q-70 0 -117 -25t-76.5 -63.5t-42 -83.5t-12.5 -86 q0 -104 67.5 -175t176.5 -139q55 -35 110.5 -73.5t99.5 -85t71.5 -101.5t27.5 -125q0 -123 -45 -213t-123 -147.5t-182.5 -85t-223.5 -27.5z" />
<glyph unicode="T" horiz-adv-x="1228" d="M211 1440q283 -12 569 -13q143 0 280.5 3.5t285.5 9.5q-18 -82 -27.5 -183.5t-18.5 -240.5h-94q6 45 9.5 94t3.5 84q0 37 -6.5 66.5t-25 49t-54 31t-93.5 11.5q-41 0 -66.5 -9.5t-42 -32t-26.5 -60.5t-20 -97l-152 -872q-6 -37 -11 -67t-5 -52q0 -45 25.5 -66.5 t97.5 -21.5h27.5t31.5 2l-14 -82q-160 12 -326 12q-168 0 -364 -12l14 82q10 -2 27.5 -3t23.5 -1q43 0 69.5 7t44 29.5t28 63.5t22.5 109l151 872q6 35 10.5 64.5t4.5 52.5q0 47 -25.5 64.5t-97.5 17.5q-66 0 -104.5 -21.5t-62.5 -59.5t-37 -89.5t-27 -112.5l-13 -53l-94 14 q33 123 50.5 215.5t31.5 194.5z" />
<glyph unicode="U" horiz-adv-x="1478" d="M553 614q-12 -76 -24.5 -153.5t-12.5 -149.5q0 -57 10.5 -106t36 -84t71.5 -55.5t120 -20.5q102 0 172.5 45t117.5 121q35 53 57.5 116.5t39 131t28 138.5t23.5 138q25 150 42 243t27.5 151.5t14.5 91t4 57.5q0 53 -36 68.5t-81 15.5q-20 0 -40.5 -2t-39.5 -2l15 82 q76 -4 135 -7t131 -3q35 0 63.5 1t56 2t57.5 3t71 4l-6 -82q-74 0 -115 -5t-63.5 -32t-36 -80t-31.5 -151l-64 -357q-18 -109 -32.5 -190.5t-32 -148t-40 -121t-58.5 -105.5q-33 -45 -69 -82t-84 -64.5t-111.5 -43t-153.5 -15.5q-125 0 -218.5 34t-154.5 95.5t-91 148.5 t-30 193q0 70 12 144l103 575q6 35 10 64.5t4 52.5q0 47 -25.5 69.5t-97.5 22.5q-12 0 -27.5 -1t-31.5 -3l14 82q80 -6 160 -8t166 -2t176 2t188 8l-14 -82q-10 2 -27.5 3t-23.5 1q-47 0 -74.5 -7t-44 -29.5t-26 -63.5t-19.5 -109z" />
<glyph unicode="V" horiz-adv-x="1361" d="M293 1194q-8 39 -14.5 70.5t-18.5 53t-33.5 33t-60.5 11.5q-10 0 -14.5 -1t-16.5 -3l15 82q78 -6 169 -9.5t166 -3.5q76 0 144.5 3.5t152.5 9.5l-14 -82q-23 4 -32 4h-29q-43 0 -80 -12.5t-37 -63.5q0 -10 3 -29.5t8 -42t9 -45t8 -36.5l82 -412q6 -27 16.5 -67t19.5 -87 t16.5 -100t7.5 -109h12l432 820q20 37 31.5 65.5t11.5 50.5q0 35 -26.5 51.5t-94.5 16.5q-16 -2 -35.5 -1t-41.5 -3l14 82q80 -6 148.5 -9.5t144.5 -3.5q39 0 63.5 1.5t44 2.5t40 3t50.5 6l-14 -82q-10 2 -19.5 2h-19.5q-41 0 -67.5 -13.5t-46 -36t-35 -55t-35.5 -69.5 l-649 -1223h-117z" />
<glyph unicode="W" horiz-adv-x="1826" d="M1665 1178q10 23 20.5 49t10.5 57q0 78 -113 78h-39t-41 -4l15 82q80 -6 144 -9.5t140 -3.5q39 0 63.5 1.5t44 2.5t40 3t51.5 6l-14 -82q-10 2 -19.5 2h-19.5q-41 0 -67 -14.5t-45 -38t-33.5 -56t-30.5 -69.5l-535 -1219h-121l-82 651q-4 27 -8 64t-7 80t-5 89t-4 89h-11 l-432 -973h-121l-157 1217q-6 39 -11.5 72.5t-16.5 58t-33.5 38t-61.5 13.5q-10 0 -16.5 -1t-14.5 -3l15 82q78 -6 169 -9.5t166 -3.5q76 0 145.5 3.5t153.5 9.5l-16 -82q-23 4 -32 4h-29q-43 0 -80 -12.5t-37 -63.5q0 -18 3 -54t7 -65l53 -385q10 -72 16.5 -149.5 t6.5 -163.5h12l426 965h121l82 -652q10 -72 17 -150.5t9 -160.5h15z" />
<glyph unicode="X" horiz-adv-x="1384" d="M1102 256q8 -23 22.5 -54.5t33 -60t43 -49t54.5 -20.5q10 0 27.5 1t30.5 3l-17 -82q-39 2 -87 4t-97 4t-97 2h-85q-76 0 -155 -2t-163 -8l17 82q10 0 20 -2t33 -2q20 0 45 2t45.5 9t34.5 22.5t14 41.5q0 31 -23.5 82.5t-54 112.5t-58.5 128t-34 128h-10l-258 -287 q-125 -141 -129 -194q0 -31 31.5 -38t87.5 -7h24.5t28.5 4l-16 -82q-41 2 -72 4t-60.5 4t-60.5 2h-67h-70t-58.5 -2t-53 -4t-56.5 -4l16 82q8 -2 15.5 -2h13.5q41 0 75 16t65.5 44t61 62.5t62.5 69.5l371 410l-207 502q-20 47 -35.5 81.5t-33 57t-40 34t-57.5 11.5 q-10 0 -18 -1t-21 -3l17 82q39 -4 86 -6t96 -3t96 -2.5t84 -1.5q152 0 318 13l-17 -82q-10 2 -25.5 3t-27.5 1q-23 0 -46.5 -2t-44 -10.5t-34.5 -22.5t-14 -41q0 -33 19.5 -80t44 -101t48 -111.5t33.5 -112.5h10l269 293q43 47 72.5 82.5t31.5 60.5q0 45 -82 45h-42t-44 -4 l16 82q39 -4 68 -6t53.5 -3t51 -2.5t63.5 -1.5q78 0 132 3.5t114 9.5l-17 -82q-10 2 -30 2q-45 0 -81 -16.5t-68 -43t-61.5 -61.5t-60.5 -70l-340 -368z" />
<glyph unicode="Y" horiz-adv-x="1286" d="M819 606l-55 -325q-6 -35 -10 -65t-4 -52q0 -47 25.5 -68.5t96.5 -21.5h27.5t32.5 2l-14 -82q-160 12 -326 12q-168 0 -365 -12l15 82q10 -2 27.5 -3t23.5 -1q43 0 69.5 7t44 29.5t27.5 63.5t23 109l57 325l-184 576q-14 37 -23.5 69.5t-23 57t-35 38t-60.5 13.5 q-8 0 -14 -1t-14 -1l14 82q78 -6 166 -9.5t164 -3.5t138.5 3.5t145.5 9.5l-14 -82q-23 2 -33 3t-30 1q-66 0 -88.5 -12.5t-22.5 -65.5q0 -16 8 -47t19 -59l90 -297q14 -37 24.5 -79t18.5 -100h12l309 472q31 47 49.5 79.5t18.5 57.5q0 31 -31 41t-98 10h-12h-8.5t-11.5 -1 t-23 -3l14 82q39 -4 71.5 -6t62.5 -3t61.5 -2.5t68.5 -1.5q39 0 65.5 1.5t50 2.5t46 3t53.5 6l-14 -82q-10 0 -17.5 1t-15.5 1q-49 0 -76.5 -10.5t-48 -34t-41 -61t-55.5 -91.5z" />
<glyph unicode="Z" horiz-adv-x="1212" d="M553 6h-153.5t-124 -2t-114 -4t-120.5 -6l-35 84l750 1098q20 31 36.5 51t32 38.5t34 36t44.5 41.5q-27 2 -57.5 3.5t-60 2.5t-56.5 1h-43q-90 0 -156.5 -10.5t-115.5 -44t-84 -99.5t-60 -176l-98 18q23 70 37 117t24.5 89t18.5 86t18 110q96 -4 222 -8.5t239 -4.5h140.5 t97.5 1.5t95 4.5t134 7l35 -84l-723 -1055q-20 -29 -35.5 -52.5t-34 -46t-41 -48t-55.5 -60.5q63 -6 143 -8t160 -2q90 0 156.5 16.5t116 58.5t84 114.5t59.5 183.5l100 -15q-23 -66 -37 -118t-24 -103t-19.5 -105.5t-19.5 -121.5q-47 2 -111.5 4t-134 4t-139.5 3t-125 1z " />
<glyph unicode="[" horiz-adv-x="665" d="M510 -258l-16 -90h-467l321 1818h467l-16 -90h-201l-297 -1638h209z" />
<glyph unicode="\" horiz-adv-x="878" d="M723 -172l-96 -37l-398 1716l95 41z" />
<glyph unicode="]" horiz-adv-x="663" d="M188 1380l17 90h467l-322 -1818h-467l17 90h200l297 1638h-209z" />
<glyph unicode="^" d="M594 1444l432 -793l-82 -43l-393 715l-383 -715l-82 43l420 793h88z" />
<glyph unicode="_" d="M889 -287h-1024l20 103h1024z" />
<glyph unicode="`" horiz-adv-x="819" d="M479 1247q-31 29 -65.5 64t-34.5 67q0 51 28.5 69.5t53.5 18.5q37 0 68.5 -26.5t61.5 -72.5t60.5 -106.5t63.5 -130.5l-66 -43z" />
<glyph unicode="a" horiz-adv-x="1081" d="M780 -29q-72 0 -114.5 45t-47.5 107l-6 2q-45 -63 -121.5 -108.5t-177.5 -45.5q-86 0 -142 21.5t-89 54.5t-45 73t-12 77q0 57 21.5 117.5t86 111.5t183 85t313.5 38q10 63 18 107t13.5 76t8.5 53.5t3 37.5q0 39 -20.5 64.5t-73.5 25.5q-47 0 -74 -16t-41 -41 t-18.5 -52.5t-4.5 -49.5q0 -70 -42 -105t-111 -35q-49 0 -83 34t-34 93q0 45 26.5 87t79 76t132 54.5t184.5 20.5q182 0 260 -67.5t78 -184.5q0 -20 -2 -42.5t-6 -45.5l-74 -410q-2 -10 -6 -31.5t-4 -43.5q0 -18 7 -33t27 -15q23 0 49.5 20.5t51.5 68.5l65 -37 q-27 -53 -59.5 -89t-66 -57.5t-67.5 -31t-65 -9.5zM614 475q-160 0 -230.5 -84t-70.5 -217q0 -41 17.5 -72.5t58.5 -31.5q94 0 138 76.5t67 211.5z" />
<glyph unicode="b" horiz-adv-x="1150" d="M547 1075q-4 -23 -17.5 -82t-31.5 -127l10 -2q59 55 116.5 82t129.5 27t133 -22.5t105 -68.5t68.5 -120t24.5 -174q0 -154 -43 -269.5t-118.5 -192.5t-176 -115t-215.5 -38q-49 0 -84.5 12.5t-65.5 28t-57.5 27.5t-60.5 12q-31 0 -55.5 -21.5t-44.5 -58.5l-98 39 l208 1182q12 63 13 100q0 35 -17.5 47.5t-52.5 12.5h-40.5t-43.5 -4l14 88q39 -4 77 -7.5t75 -3.5q82 0 160 5.5t155 21.5zM799 668q0 92 -18.5 154.5t-82.5 66.5q-55 0 -108 -56.5t-93 -148.5t-64.5 -208t-24.5 -232q0 -100 22.5 -144.5t83.5 -44.5q66 0 117 60.5t88 151.5 t57.5 199t22.5 202z" />
<glyph unicode="c" horiz-adv-x="980" d="M911 240q-68 -141 -172 -209t-260 -68q-121 0 -199.5 34t-124.5 91t-65.5 132t-19.5 157q0 137 37.5 248.5t110.5 190.5t176.5 121t232.5 42q94 0 157.5 -22.5t102.5 -56.5t56.5 -75t17.5 -77q0 -45 -15.5 -79t-39 -55.5t-54.5 -32t-61 -10.5q-51 0 -90 29t-39 84 q0 31 6 50.5t12 34.5t12 29.5t6 35.5q0 72 -67 71q-53 0 -100.5 -54t-82 -140t-54 -190.5t-19.5 -203.5q0 -143 48 -208.5t118 -65.5q72 0 150.5 61.5t137.5 178.5z" />
<glyph unicode="d" horiz-adv-x="1181" d="M575 969q82 0 140.5 -20.5t99.5 -74.5l10 3q-6 23 -8 45t-2 45q0 86 18.5 162.5t32.5 156.5q2 10 2 11v6q0 33 -24.5 46t-55.5 13q-12 0 -32.5 -1t-61.5 -5l15 82q51 -4 103 -7.5t106 -3.5q70 0 134 8.5t126 18.5l-207 -1175q-6 -33 -12.5 -73t-6.5 -59q0 -45 14.5 -58 t51.5 -13q23 0 44 2t38 4l-15 -82q-39 4 -70.5 5t-66.5 1q-66 0 -134.5 -4t-143.5 -20q4 45 8 78.5t8 64.5l-8 4q-53 -68 -121 -112t-166 -44q-147 0 -234 99.5t-87 304.5q0 137 41 246.5t110.5 186.5t160.5 118t193 41zM356 262q4 -90 24.5 -150.5t80.5 -60.5q45 0 97 51.5 t95 137.5t72 199.5t29 238.5q0 98 -28 159.5t-93 61.5q-43 0 -81 -29.5t-68.5 -79t-54 -115t-40 -136t-25 -142.5t-8.5 -135z" />
<glyph unicode="e" horiz-adv-x="1017" d="M918 248q-76 -135 -184.5 -210t-280.5 -75q-94 0 -166 31t-121 85t-74.5 128t-25.5 160q0 135 40.5 247.5t115.5 193.5t180.5 126t236.5 45q166 0 257 -70.5t91 -177.5q0 -94 -42 -147.5t-114.5 -79t-167 -33.5t-198.5 -10q-23 0 -44.5 1t-43.5 1q-12 -78 -12 -141 q0 -72 6 -123.5t26.5 -84t55 -49t94.5 -16.5q66 0 146.5 51.5t152.5 178.5zM385 535q61 0 119.5 6t104.5 33.5t75 83t29 153.5q0 45 -19.5 73.5t-64.5 28.5q-55 0 -95 -34.5t-69 -90t-48.5 -123t-31.5 -130.5z" />
<glyph unicode="f" horiz-adv-x="696" d="M391 0h-293l154 860h-168l16 82h164l27 148q8 45 28.5 109.5t66.5 124.5t125 103t202 43q74 0 123 -15t77.5 -42t41 -61.5t12.5 -71.5q0 -53 -42 -90t-96 -37q-41 0 -66.5 15.5t-39.5 38t-18.5 48t-4.5 48.5q0 14 1 27t1 24q0 20 -7 32.5t-29 12.5q-43 0 -60.5 -40 t-17.5 -106q0 -35 -4 -70.5t-4 -76.5q-2 -18 -6.5 -53t-18.5 -111h205l-12 -82h-205z" />
<glyph unicode="g" horiz-adv-x="1028" d="M387 -389q158 0 233.5 51t75.5 129q0 39 -27.5 63.5t-71.5 37t-98.5 17.5t-105.5 9t-95 8t-69 15q-33 -16 -50 -38t-25.5 -43.5t-9.5 -39t-1 -23.5q0 -35 13.5 -67.5t43 -59t75.5 -43t112 -16.5zM569 899q-53 0 -88 -35t-57.5 -87t-31.5 -111.5t-9 -108.5 q0 -90 22.5 -139t75.5 -49q37 0 69 24.5t56.5 67.5t38.5 102.5t14 130.5q0 92 -20.5 148.5t-69.5 56.5zM1055 854q-33 0 -62.5 -1t-52.5 -1h-90q92 -82 92 -188q0 -96 -31.5 -166t-89 -116t-138.5 -67.5t-177 -21.5q-27 0 -52.5 1t-50.5 5q-53 -23 -75.5 -46.5t-22.5 -47.5 q0 -14 6 -25.5t30 -19.5t69 -14.5t125 -10.5q115 -6 189.5 -26.5t117.5 -53t60.5 -77t17.5 -97.5q0 -88 -40 -154.5t-113 -110.5t-174 -65.5t-226 -21.5q-90 0 -169 18.5t-138.5 52t-93.5 80t-34 103.5q0 66 53.5 125t168.5 82q-51 29 -69.5 60.5t-18.5 72.5q0 55 61 114.5 t170 90.5q-102 41 -149.5 115.5t-47.5 154.5q0 70 25 137.5t79 119.5t143 84t218 32q45 0 83 -6.5t77 -12.5t85 -12t108 -6q6 0 27.5 2t46 3t47 3t28.5 2z" />
<glyph unicode="h" horiz-adv-x="1167" d="M506 850q47 51 106.5 87t165.5 36q72 0 122 -18.5t83 -51.5t47 -75t14 -87q0 -41 -6 -84t-12 -84q-23 -139 -37 -220t-21 -126t-10.5 -63.5t-3.5 -28.5q0 -41 18.5 -54t69.5 -13q12 0 25.5 1t30.5 3l-15 -78q-39 2 -86 6t-84 4q-78 0 -143 -4t-139 -10l102 583 q12 68 24.5 127.5t12.5 100.5q0 86 -86 86q-29 0 -61.5 -15.5t-65.5 -59.5t-62.5 -123t-52.5 -206l-86 -483h-293l211 1204q4 25 6.5 47.5t2.5 38.5q0 41 -17.5 57.5t-64.5 16.5q-12 0 -28.5 -1t-33.5 -3l15 78q43 -4 96 -6t96 -2q72 0 134.5 4t133.5 20l-65 -381 q-8 -47 -22.5 -106.5t-30.5 -110.5z" />
<glyph unicode="i" horiz-adv-x="653" d="M444 309q-4 -23 -8 -47t-8 -49t-7 -45.5t-3 -30.5q0 -41 20.5 -54t71.5 -13q12 0 25.5 1t29.5 3l-14 -78q-39 2 -86 6t-84 4q-78 0 -144.5 -4t-140.5 -10l125 680q10 47 13.5 79.5t3.5 61.5q0 35 -20.5 45t-67.5 10q-12 0 -29 -1t-33 -3l14 82q18 -2 47 -4t58 -3t56.5 -2 t45.5 -1q39 0 69 2t57.5 5t57 8t68.5 12zM436 1130q-37 0 -63.5 13.5t-43 34t-24.5 47t-8 53.5q0 37 12.5 70.5t37 61.5t62 44t87.5 16q37 0 63.5 -13t42.5 -33.5t24.5 -47t8.5 -53.5q0 -37 -12.5 -70.5t-37 -61.5t-62.5 -44.5t-87 -16.5z" />
<glyph unicode="j" horiz-adv-x="618" d="M213 645q8 47 16.5 93t8.5 75q0 35 -20.5 46t-67.5 11q-12 0 -29 -1t-33 -3l14 80q39 -4 78 -6t76 -2q78 0 152.5 5t152.5 20l-129 -721q-14 -80 -26.5 -165t-30 -164t-44 -148.5t-71.5 -122t-111.5 -83t-162.5 -30.5q-61 0 -125 19.5t-92 41.5l43 74q63 -43 110 -43 q45 0 73 27.5t44 67.5t24.5 84t12.5 75q10 68 27.5 161t37.5 206zM434 1126q-37 0 -64.5 13.5t-46 35t-27.5 48t-9 53.5q0 37 13 71.5t37.5 62.5t61.5 44t84 16q37 0 66 -14t47 -35.5t27.5 -49.5t9.5 -54q0 -37 -12.5 -71t-37 -60.5t-61.5 -43t-88 -16.5z" />
<glyph unicode="k" horiz-adv-x="1114" d="M268 1161q8 47 13.5 81t5.5 63q0 35 -21.5 46t-68.5 11h-28.5t-33.5 -2l15 78q18 -2 44.5 -3t54 -2t53.5 -2t44 -1q39 0 71 1t62.5 4t61 8t69.5 11l-153 -876h30q53 0 82 24.5t70 54.5l90 72q41 33 68.5 60.5t27.5 46.5q0 29 -45 28q-16 0 -52 -3t-71 -7l17 88 q59 -6 100 -7t94 -1q63 0 129 8t142 25q0 -27 -17.5 -50.5t-47.5 -48t-70.5 -52.5t-88.5 -60l-243 -172l4 -6q43 0 67.5 -15.5t39 -40t22.5 -56.5t18 -65l72 -241q14 -47 40 -65.5t66 -18.5q10 0 25.5 1t48.5 5l-16 -88q-8 0 -29.5 2t-48.5 4t-53.5 3t-46.5 1q-66 0 -119 -5 t-125 -9q-6 43 -11 67.5t-14.5 59.5t-25 93t-45.5 173q-10 41 -17.5 66.5t-16.5 39t-22.5 17.5t-38.5 4l-90 -510h-293l50 266z" />
<glyph unicode="l" horiz-adv-x="618" d="M418 264q-8 -43 -14.5 -74.5t-6.5 -54.5q0 -41 20.5 -54t71.5 -13q12 0 26.5 1t31.5 3l-15 -78q-39 2 -86 6t-84 4q-78 0 -144 -4t-140 -10l215 1212q8 41 8 57.5v45.5q0 35 -19.5 46t-66.5 11q-12 0 -28.5 -1t-32.5 -3l14 80q18 -2 45 -3t54.5 -2t53 -2t44.5 -1 q39 0 70.5 1t62 4t61.5 8t70 11z" />
<glyph unicode="m" horiz-adv-x="1673" d="M1581 -6q-37 4 -95.5 7t-94.5 3q-39 0 -67 -1t-53.5 -3t-53 -5t-64.5 -5l102 583q12 68 20.5 121.5t8.5 93.5q0 41 -19.5 66t-60.5 25q-23 0 -50.5 -13.5t-55 -50.5t-53 -104.5t-44.5 -175.5l-94 -535h-280l100 539q8 53 18.5 115.5t10.5 133.5q0 41 -18.5 68t-59.5 27 q-23 0 -50.5 -13.5t-55 -51.5t-53 -105.5t-44.5 -173.5l-96 -539h-279l95 541q6 31 13 66.5t13 73.5t10.5 74t4.5 64q0 51 -70 51h-33.5t-40.5 -4l14 80q25 -2 48.5 -5t52.5 -3q72 0 141.5 4t140.5 21q0 -23 -1 -40.5t-3 -35t-5 -39t-7 -51.5h12q45 86 109.5 131t175.5 45 t168 -47t76 -117q47 78 113.5 121t170.5 43q68 0 115 -18.5t78 -51.5t44 -75t13 -87q0 -41 -3 -84t-11 -84l-55 -309q-8 -43 -12.5 -74.5t-4.5 -54.5q0 -41 20.5 -54t69.5 -13q10 0 18.5 1t24.5 3z" />
<glyph unicode="n" horiz-adv-x="1202" d="M500 791q47 86 121.5 134t191.5 48q72 0 122 -18.5t82 -51.5t46 -75t14 -87q0 -41 -5 -84t-11 -84l-55 -321q-6 -39 -11.5 -66.5t-5.5 -48.5q0 -39 24.5 -53t71.5 -14q12 0 20.5 1t24.5 3l-14 -78q-39 4 -95 6t-93 2q-78 0 -133.5 -5t-128.5 -11l102 579 q12 68 21.5 130.5t9.5 103.5t-18.5 60.5t-61.5 19.5q-27 0 -58.5 -15.5t-65.5 -59.5t-64.5 -123t-53.5 -206l-86 -477h-293l125 702q12 63 13 105q0 29 -11.5 47t-54.5 18h-33.5t-42.5 -4l15 78q29 -2 81 -5t80 -3q37 0 64.5 1t53.5 3t52.5 7t63.5 14q0 -23 -1 -40.5t-3 -36 t-4 -41t-7 -52.5z" />
<glyph unicode="o" horiz-adv-x="1128" d="M496 -37q-201 0 -314.5 113.5t-113.5 306.5q0 133 41 242.5t115.5 188.5t178 122t230.5 43q201 0 315.5 -113.5t114.5 -306.5q0 -133 -41 -242.5t-117 -188.5t-180 -122t-229 -43zM494 27q59 0 108 55t85 146t55.5 207t19.5 239q0 113 -31 177t-100 64q-59 0 -107.5 -55 t-83 -146t-53 -207t-18.5 -239q0 -113 29.5 -177t95.5 -64z" />
<glyph unicode="p" horiz-adv-x="1183" d="M610 -31q-78 0 -135 23.5t-98 77.5l-10 -2q10 -47 10 -86q0 -51 -10 -103l-27 -143q0 -2 -2 -12.5t-3 -21.5t-3 -21.5t-2 -12.5q0 -29 24.5 -41t55.5 -12q12 0 32.5 1t61.5 5l-15 -82q-51 4 -103 7t-105 3q-70 0 -136.5 -5t-128.5 -15l166 938q2 16 11.5 63.5t18.5 100.5 t16.5 101t7.5 65q0 45 -23 58t-61 13q-23 0 -34.5 -2t-27.5 -4l14 82q39 -4 72 -5t68 -1q66 0 134 4t144 21q-4 -45 -7 -79t-7 -65l8 -4q53 68 116.5 112t162.5 44q147 0 235 -99.5t88 -304.5q0 -129 -41 -238.5t-111.5 -189.5t-163 -125t-192.5 -45zM834 682 q0 92 -21.5 151.5t-81.5 59.5q-47 0 -98 -51t-94 -137.5t-72 -200t-29 -238.5q0 -96 24.5 -161.5t90.5 -65.5t118 64.5t88 161.5t55.5 209t19.5 208z" />
<glyph unicode="q" horiz-adv-x="1148" d="M614 -96q4 23 11.5 61.5t25.5 106.5l-10 2q-59 -55 -116.5 -82t-129.5 -27t-132 21.5t-103 68.5t-67.5 119t-24.5 174q0 154 43 270.5t116.5 194.5t174 117t214.5 39q47 0 83 -12.5t67 -28t58.5 -27.5t60.5 -12q31 0 55.5 21.5t44.5 58.5l100 -41l-198 -1139 q-12 -66 -13 -100q0 -35 19.5 -47.5t69.5 -12.5q10 0 24 1t43 5l-16 -86q-47 4 -91 6.5t-89 2.5q-74 0 -145 -6.5t-142 -22.5zM350 250q0 -92 17.5 -144.5t83.5 -56.5q55 0 108 55.5t93 143.5t64.5 197.5t24.5 220.5q0 117 -22.5 169t-83.5 52q-66 0 -117 -64.5t-88 -160 t-57.5 -207t-22.5 -205.5z" />
<glyph unicode="r" horiz-adv-x="942" d="M494 778q41 94 117.5 145.5t187.5 51.5q55 0 91 -18.5t57.5 -45t30.5 -58.5t9 -58q0 -43 -14.5 -75t-38 -53.5t-53 -31.5t-58.5 -10q-47 0 -85 25.5t-38 78.5q0 29 7.5 55.5t7.5 42.5q0 35 -31 37q-37 0 -69.5 -35.5t-61.5 -94t-51.5 -135.5t-36.5 -159l-76 -440h-293 l127 709q6 33 10.5 57.5t4.5 44.5q0 35 -15.5 50.5t-64.5 15.5q-16 0 -31.5 -1.5t-40.5 -5.5l14 76q49 -4 102.5 -6t102.5 -2q88 0 199 25q-2 -45 -8.5 -84t-16.5 -101h15z" />
<glyph unicode="s" horiz-adv-x="919" d="M856 928q-23 -74 -31 -137.5t-10 -137.5h-94q6 45 7 59.5t1 24.5q0 80 -41 123t-135 43q-72 0 -116 -38t-44 -109q0 -49 32 -82t79 -59.5t102.5 -52t102.5 -58.5t78.5 -80t31.5 -115q0 -98 -38 -164.5t-99 -106.5t-141 -57.5t-166 -17.5q-94 0 -185.5 14.5t-164.5 38.5 q16 78 31.5 147.5t15.5 162.5h96q-6 -29 -6 -74q0 -43 10 -82t34.5 -68.5t63.5 -47t95 -17.5q88 0 126.5 48t38.5 120q0 53 -30.5 90t-75.5 66.5t-99.5 57t-99.5 61.5t-75.5 79t-30.5 111q0 86 38 145t99 96t140 52.5t161 15.5t160 -14t139 -37z" />
<glyph unicode="t" horiz-adv-x="731" d="M86 860l14 82q92 0 159 19.5t114 59.5t79.5 99.5t57.5 139.5h86l-55 -318h231l-12 -82h-232l-102 -565q-6 -35 -12 -67.5t-6 -61.5t10 -48.5t37 -19.5q33 0 71.5 29t85.5 123l68 -41q-53 -106 -131 -170t-203 -64q-225 0 -225 199q0 18 2 40t6 44l111 602h-154z" />
<glyph unicode="u" horiz-adv-x="1193" d="M700 147q-47 -86 -123.5 -130t-193.5 -44q-72 0 -121 18.5t-79.5 51.5t-44 74t-13.5 88q0 41 4 80t12 80l56 311q8 43 14 74.5t6 54.5q0 41 -16.5 54t-67.5 13q-12 0 -25.5 -1t-29.5 -3l14 78q39 -2 82 -6t80 -4q78 0 143.5 4t139.5 10l-103 -585q-12 -68 -24.5 -123.5 t-12.5 -96.5q0 -86 86 -86q25 0 57.5 14.5t66.5 56.5t64.5 120t53.5 205l86 487h293l-125 -704q-6 -33 -11 -59.5t-5 -47.5q0 -29 15 -45t58 -16h33.5t42.5 4l-12 -78q-29 2 -53.5 4t-53.5 2q-76 0 -149.5 -7t-147.5 -24q2 45 4 80t13 96h-13z" />
<glyph unicode="v" horiz-adv-x="1036" d="M588 289l166 274q47 74 82.5 140.5t35.5 119.5q0 33 -38.5 43.5t-85.5 10.5q-23 0 -42.5 -1.5t-31.5 -3.5l12 74q39 -4 78 -6t80 -2q49 0 104.5 3t108.5 11q-4 -33 -19.5 -70.5t-44 -88t-69.5 -116t-97 -153.5l-344 -553h-139l-94 592q-16 96 -23.5 157.5t-17.5 95.5 t-28.5 46t-55.5 12q-14 0 -29.5 -1t-34.5 -3l15 74q41 -4 82 -6t82 -2q68 0 133 5t127 15q2 -92 13 -177t24.5 -167t24.5 -161.5t13 -161.5h13z" />
<glyph unicode="w" horiz-adv-x="1449" d="M989 -29h-127l-57 287q-18 92 -34.5 167t-16.5 134h-11l-294 -588h-123l-93 629q-12 84 -17 137.5t-14 83t-26.5 40.5t-56.5 11h-26.5t-31.5 -2l13 74q41 -4 80 -6t77 -2q66 0 127.5 5t122.5 15q6 -119 27.5 -239.5t21.5 -231.5q0 -63 -5 -105t-7 -58h8l301 620h123 l64 -324q16 -88 28.5 -156.5t18.5 -139.5h10l123 233q8 18 26.5 54t35 76t29.5 78t13 60q0 33 -33.5 43.5t-74.5 10.5q-20 0 -38.5 -1.5t-31.5 -3.5l13 74q61 -6 116 -6q51 0 103.5 4t115.5 14q0 -35 -12 -70.5t-35.5 -83.5t-60.5 -115.5t-86 -162.5z" />
<glyph unicode="x" horiz-adv-x="1009" d="M420 369q-74 -68 -120 -109t-71.5 -67.5t-35 -44t-9.5 -37.5q0 -35 78 -35h45.5t57.5 4l-19 -84q-47 4 -95 7t-97 3t-95.5 -4t-95.5 -14q4 51 50 109.5t134 135.5l224 199l-129 299q-12 31 -22.5 55.5t-23 43t-32 28.5t-51.5 10h-17.5t-19.5 -2l16 80q35 -4 72 -6t76 -2 q59 0 122.5 4t122.5 14q6 -63 23.5 -117.5t38 -99.5t37 -80.5t20.5 -60.5l121 115q27 27 42 44t22.5 29.5t9.5 22.5t2 20q0 25 -25.5 35t-60.5 10q-25 0 -50.5 -2t-46.5 -4l15 78q29 -2 72 -5t71 -3h50.5t48 2t55.5 6t71 10q0 -41 -20 -80.5t-51 -76.5t-67 -71t-68 -64 l-152 -138q23 -51 43 -96q16 -39 31.5 -76t23.5 -55q29 -76 49.5 -121t42 -67.5t50 -29.5t75.5 -7l-16 -76q-51 2 -104.5 5t-102.5 3q-47 0 -93 -4t-95 -14q-10 49 -29.5 96t-39 93t-36 93.5t-22.5 98.5z" />
<glyph unicode="y" horiz-adv-x="1040" d="M367 -29l-119 604q-18 96 -31.5 152.5t-28 86.5t-31 38t-40.5 8h-26.5t-31.5 -2l17 88q47 -4 76.5 -6t64.5 -2q61 0 122.5 2t147.5 16q4 -119 17.5 -213t30 -171.5t32 -145.5t21.5 -133l205 321q29 45 56.5 98.5t27.5 92.5q0 31 -23 45t-78 14q-23 0 -54.5 -2t-59.5 -6 l12 88q41 -4 81 -7t76 -3q53 0 104.5 6t125.5 16q-2 -31 -28.5 -89t-72 -136t-103.5 -171t-121.5 -193.5t-129 -203t-125.5 -198.5q-78 -127 -131 -211t-96 -133t-85 -69.5t-99 -20.5q-63 0 -94 39t-31 86q0 51 35.5 96t107.5 45q43 0 66.5 -12t50.5 -12q23 0 59.5 35.5 t67.5 87.5z" />
<glyph unicode="z" horiz-adv-x="948" d="M594 856q-45 6 -76 7t-65 1q-55 0 -97.5 -8t-73 -34.5t-53 -74t-39.5 -126.5l-84 14q12 43 21.5 74.5t16 65.5t12.5 75t14 102q59 -8 151.5 -12t196.5 -4t207.5 3t175.5 11l23 -76l-396 -550q-41 -59 -81.5 -111.5t-104.5 -122.5q35 -4 65.5 -6t59.5 -2q70 0 118 8 t80.5 36t56 83t44.5 149l90 -14q-12 -31 -23.5 -74t-20.5 -90t-16.5 -95t-11.5 -93q-53 4 -150 9t-210 5q-104 0 -207.5 -3t-175.5 -11l-35 78l383 534q31 43 55.5 77t47 63.5t47 56t55.5 55.5z" />
<glyph unicode="{" horiz-adv-x="634" d="M481 788q-16 -88 -60 -139t-124 -80q57 -20 84 -60t27 -93q0 -16 -1 -31.5t-4 -32.5l-73 -420q-6 -29 -6 -51q0 -59 35.5 -103t105.5 -61l-29 -65q-61 0 -123.5 15.5t-112.5 46t-81 78.5t-31 116q0 10 1 21.5t3 23.5l74 416q4 23 6 42t2 35q0 37 -22.5 56.5t-92.5 25.5 q-4 2 -5 8.5t-1 12.5q0 12 3 24.5t14 16.5q88 6 120.5 51t49.5 141l75 449q14 88 64.5 137t115 71.5t135 26.5t126.5 4l12 -69q-63 -6 -102 -19.5t-60.5 -34t-32 -45t-14.5 -51.5z" />
<glyph unicode="|" horiz-adv-x="532" d="M336 -512h-123v2048h123v-2048z" />
<glyph unicode="}" horiz-adv-x="634" d="M190 346q20 88 61.5 139.5t121.5 79.5q-57 18 -84 59.5t-27 94.5q0 29 6 63l72 408q6 25 6 51q0 59 -36 103.5t-105 60.5l28 65q61 0 124 -15t112 -47t81 -80t32 -114q0 -10 -1 -22t-3 -23l-74 -413q-8 -41 -10 -56.5t-2 -25.5q0 -31 22.5 -57.5t95.5 -30.5q6 -6 6 -23 q0 -10 -4 -22.5t-12 -16.5q-45 -4 -73.5 -14t-47 -31.5t-29 -54.5t-18.5 -82l-76 -451q-14 -82 -58 -129t-105.5 -71.5t-134 -31.5t-142.5 -7l-12 69q63 6 102 19.5t60.5 34t30.5 44t16 52.5z" />
<glyph unicode="~" d="M932 512q-41 -90 -103.5 -130t-130.5 -40q-41 0 -91 15.5t-97 37.5q-51 25 -90 43.5t-92 18.5t-91 -33t-71 -80l-76 57q37 74 99.5 120t150.5 46q61 0 113.5 -23.5t95.5 -43.5q51 -23 90 -36t68 -13q51 0 79.5 27.5t63.5 82.5z" />
<glyph unicode="&#xa1;" horiz-adv-x="600" d="M156 -459q-82 0 -127 42t-45 108q0 80 29.5 156.5t76.5 175.5q29 61 57.5 126.5t51 135t38 145.5t19.5 158h123q-23 -92 -34 -179t-11 -178q0 -72 7 -128t11 -113q4 -45 9.5 -86t5.5 -76q0 -59 -11.5 -111.5t-37 -91.5t-65.5 -61.5t-97 -22.5zM391 1040q76 0 119 -43 t43 -106q0 -78 -58.5 -133.5t-144.5 -55.5q-74 0 -117 43t-43 105q0 39 15.5 73.5t43 60.5t64.5 41t78 15z" />
<glyph unicode="&#xa2;" horiz-adv-x="1026" d="M924 240q-41 -68 -83 -119t-91.5 -85t-107.5 -52.5t-132 -20.5l-39 -227h-86l39 231q-98 8 -164.5 45t-105.5 92.5t-55.5 126t-16.5 146.5q0 133 36 241.5t103.5 186.5t163.5 122t217 50l37 205h86l-37 -205q80 -6 136.5 -29.5t91 -57.5t51 -72t16.5 -70 q0 -92 -44 -134.5t-105 -42.5q-51 0 -85 29t-34 84q0 31 6 50.5t12 34.5t12.5 29.5t6.5 35.5q0 27 -21.5 47t-54.5 28l-150 -860h11q35 0 75.5 15.5t81.5 44t79 72.5t69 102zM362 317q0 -102 17.5 -162.5t62.5 -84.5l148 833q-55 -23 -98 -83t-72 -142t-43.5 -177.5 t-14.5 -183.5z" />
<glyph unicode="&#xa3;" horiz-adv-x="1255" d="M133 788h211q20 145 49 270.5t86.5 216.5t157.5 143t266 52q86 0 150.5 -19t108.5 -50t65.5 -71t21.5 -79q0 -57 -15 -96t-40 -61.5t-55.5 -32.5t-61.5 -10q-68 0 -104.5 41t-36.5 88q0 37 12.5 71.5t12.5 73.5q0 35 -20.5 49.5t-47.5 14.5q-57 0 -94 -36t-61.5 -97.5 t-41 -142.5t-30.5 -171q-6 -39 -13.5 -76t-15.5 -78h248l-11 -86h-247l-11 -38q-35 -123 -84 -239t-149 -222l4 -13q59 23 111.5 31t111.5 8q47 0 85 -8t73 -17t69.5 -16.5t75.5 -7.5q33 0 79 26.5t87 104.5l80 -45q-41 -92 -86 -148.5t-96 -85t-108.5 -37.5t-125.5 -9 q-98 0 -196 17t-207 17q-61 0 -134 -6t-159 -39l-41 78q59 37 105.5 86t84 123t70.5 180.5t66 259.5h-211z" />
<glyph unicode="&#xa4;" horiz-adv-x="1236" d="M1030 180l-153 156q-47 -31 -107.5 -48.5t-112.5 -17.5q-47 0 -110.5 15.5t-110.5 48.5l-147 -152l-111 111l137 133q-41 55 -64.5 114.5t-23.5 137.5q0 82 23.5 146.5t64.5 117.5l-139 139l113 109l149 -154q47 33 109.5 49.5t111.5 16.5t115 -15.5t113 -48.5l143 152 l113 -109l-139 -137q41 -51 64.5 -117.5t23.5 -148.5q0 -80 -25 -137.5t-66 -110.5l140 -137zM657 975q-55 0 -99 -23.5t-74.5 -63.5t-47 -94.5t-16.5 -115.5q0 -125 64.5 -204t174.5 -79q111 0 170.5 79t59.5 204q0 61 -15.5 115.5t-44 94.5t-73 63.5t-99.5 23.5z" />
<glyph unicode="&#xa5;" horiz-adv-x="1411" d="M547 719l-164 473q-12 39 -23.5 71.5t-24.5 57.5t-30.5 38t-44.5 13q-10 0 -25.5 -1t-27.5 -3l14 82q78 -6 169 -9t167 -3t138.5 3t146.5 9l-15 -82q-23 2 -33 3t-30 1q-66 0 -88.5 -12t-22.5 -66q0 -16 8.5 -46.5t18.5 -59.5l108 -307q12 -37 23.5 -72t26.5 -90h12 l303 465q31 47 49.5 79.5t18.5 57.5q0 31 -31 41t-98 10h-33t-31 -4l14 82q39 -4 72 -6t62.5 -3t61.5 -2t69 -1q39 0 66.5 1t51 2t47 3t54.5 6l-15 -82q-25 2 -28.5 3t-18.5 1q-29 0 -50 -9t-42.5 -31.5t-47.5 -59.5t-64 -90l-297 -463h190l-16 -94h-234l-12 -19l-17 -98 h240l-16 -94h-240l-22 -133q-6 -35 -10.5 -65t-4.5 -52q0 -47 25.5 -68.5t97.5 -21.5h27.5t32.5 2l-15 -82q-160 12 -325 12q-168 0 -365 -12l14 82q10 -2 27.5 -3t24.5 -1q43 0 69.5 7t44 29.5t27.5 63.5t22 109l23 133h-242l17 94h241l19 98l-6 19h-234l19 94h182z" />
<glyph unicode="&#xa6;" horiz-adv-x="532" d="M344 -338h-123v752h123v-752zM344 692h-123v752h123v-752z" />
<glyph unicode="&#xa7;" horiz-adv-x="1085" d="M1034 612q0 -47 -22.5 -98t-64.5 -98t-101.5 -85t-132.5 -59q70 -43 118 -105.5t48 -164.5q0 -78 -35 -143.5t-91.5 -113.5t-129 -74.5t-148.5 -26.5q-74 0 -147.5 13t-133 45t-97.5 83t-38 127q0 82 52.5 124t117.5 42q53 0 95.5 -37t42.5 -119q0 -35 -12.5 -60.5 t-12.5 -66.5q0 -35 36 -57.5t91 -22.5q66 0 118 51.5t52 155.5q0 51 -26.5 90t-63.5 66.5t-77 48t-69 37.5q-74 43 -132 80t-100 76.5t-63.5 90t-21.5 119.5q0 49 20.5 99.5t61.5 95.5t102.5 79t145.5 52q-66 41 -110 100.5t-44 161.5q0 78 35 142.5t91 111.5t129 72.5 t149 25.5q74 0 142.5 -12t122.5 -43t87 -81t33 -126q0 -37 -14.5 -65.5t-37 -49t-51 -30.5t-57.5 -10q-53 0 -95 31.5t-42 113.5q0 35 12 55.5t12 61.5q0 35 -20.5 59.5t-75.5 24.5q-82 0 -131 -48t-49 -153q0 -53 22.5 -88t56 -59.5t70.5 -41t66 -32.5q74 -43 132 -79 t100 -76t63.5 -90t21.5 -120zM770 541q0 61 -24.5 104t-64.5 74t-89 53.5t-100 42.5q-25 -10 -49.5 -24.5t-45 -39t-34 -61.5t-13.5 -88q0 -61 24.5 -104t64.5 -76t90.5 -58.5t101.5 -48.5q49 27 94 80.5t45 145.5z" />
<glyph unicode="&#xa8;" horiz-adv-x="819" d="M598 1233q0 27 10 53.5t28.5 48t45.5 34.5t59 13q51 0 84 -34.5t33 -85.5q0 -59 -44 -102.5t-99 -43.5q-51 0 -84 34t-33 83zM238 1233q0 27 10 53.5t28.5 48t45 34.5t59.5 13q51 0 84 -34.5t33 -85.5q0 -59 -44 -102.5t-100 -43.5q-51 0 -83.5 34t-32.5 83z" />
<glyph unicode="&#xa9;" horiz-adv-x="1574" d="M1087 1130q0 -37 1.5 -61.5t3.5 -44.5t5 -41.5t7 -52.5l-70 -4q-2 57 -17.5 93t-40 55.5t-54 25.5t-62.5 6q-109 0 -162 -83t-53 -267q0 -176 54.5 -256t166.5 -80q66 0 117 33.5t80 97.5l70 -29q-47 -92 -122 -135t-169 -43q-88 0 -162 24.5t-127 76t-83 129t-30 182.5 q0 100 34 176t90.5 127t133 75.5t162.5 24.5q76 0 132 -9.5t95 -19.5zM135 719q0 143 54.5 271t149.5 222.5t221 149.5t271 55q143 0 271.5 -55t222.5 -149.5t149.5 -222.5t55.5 -271q0 -145 -55.5 -271t-149.5 -221.5t-222 -149.5t-272 -54q-145 0 -271 54t-221 149.5 t-149.5 221.5t-54.5 271zM213 717q0 -129 48 -242t132 -197.5t196.5 -134t241.5 -49.5t242 49.5t198 134t133 198.5t48 243t-48 242.5t-133 199.5t-197.5 135.5t-242.5 49.5q-129 0 -241.5 -50.5t-196.5 -135.5t-132 -199.5t-48 -243.5z" />
<glyph unicode="&#xaa;" horiz-adv-x="724" d="M625 860q-47 0 -75 25.5t-30 77.5q-16 -37 -60 -71t-116 -34q-49 0 -83 12.5t-54.5 32t-28.5 43t-8 47.5q0 39 14.5 75t54.5 65.5t110.5 47t185.5 19.5q6 37 10 61.5t5 41t2 27.5t1 24q0 29 -9 49t-44 20q-49 0 -61.5 -29.5t-18.5 -64.5t-21.5 -64.5t-70.5 -29.5 q-20 0 -47 16.5t-27 57.5q0 68 65.5 111.5t188.5 43.5q102 0 148 -40t46 -111q0 -12 -1 -25.5t-3 -27.5l-41 -246q-2 -14 -3 -24.5t-1 -20.5q0 -27 15 -27q18 0 33.5 19.5t27.5 35.5l39 -28q-31 -55 -69.5 -82t-73.5 -27zM526 1155h-8q-86 0 -134 -43t-48 -115 q0 -29 9 -55.5t44 -26.5q33 0 54.5 17.5t35 43t21.5 56.5t14 60z" />
<glyph unicode="&#xab;" horiz-adv-x="921" d="M76 494q0 14 11 31.5t35.5 44t65.5 65.5t103 96l209 195l71 -54l-243 -378q0 -2 5 -19.5l13 -45.5t18.5 -61.5t20.5 -68.5q25 -82 55 -188l-78 -43l-233 313q-27 37 -40 60.5t-13 52.5zM412 494q0 14 11 31.5t35.5 44t65.5 65.5t103 96l209 195l71 -54l-243 -378 q0 -2 5 -19.5l13 -45.5t18.5 -61.5t20.5 -68.5l57 -188l-80 -43l-233 313q-27 37 -40 60.5t-13 52.5z" />
<glyph unicode="&#xac;" d="M866 612h-794v90h889v-483h-95v393z" />
<glyph unicode="&#xad;" horiz-adv-x="741" d="M141 633h514l-20 -121h-514z" />
<glyph unicode="&#xae;" horiz-adv-x="1105" d="M715 922q-4 18 -8.5 33.5t-12.5 26.5t-24.5 18.5t-46.5 7.5h-19v-144q0 -45 6 -55t27 -10h13t28 2v-43q-78 6 -129 6q-29 0 -62.5 -1t-68.5 -5v43q16 -2 23.5 -2h11.5q23 0 31 10t8 55v332q0 33 -9.5 44t-33.5 11h-14.5t-18.5 -2v45q31 -4 63.5 -5t57.5 -1q27 0 53 2 t65 2q61 0 100.5 -12t62 -30.5t30.5 -42t8 -44.5q0 -51 -35 -88t-96 -41v-4q31 -2 47 -9t26.5 -18.5t16.5 -28t12 -36.5l33 -96q8 -25 20.5 -34t39.5 -9h13t15 2v-43q-25 4 -48 4h-46t-47.5 -2t-46.5 -4zM739 1163q0 92 -84 92q-39 0 -45 -10t-6 -49v-145h23q63 0 87.5 29.5 t24.5 82.5zM170 997q0 102 36 189.5t98.5 150t149.5 98t189 35.5t189.5 -35.5t149.5 -98t98 -149.5t36 -190q0 -102 -36 -189t-98 -149.5t-149.5 -98.5t-189.5 -36t-189 36t-149.5 98.5t-98.5 149.5t-36 189zM233 997q0 -86 32 -161.5t87.5 -131t130 -88t160.5 -32.5 t162 32.5t131 88t87 131t32 161.5t-32 162t-87 132.5t-131 89t-162 32.5t-160.5 -32.5t-130 -89t-87.5 -132.5t-32 -162z" />
<glyph unicode="&#xaf;" horiz-adv-x="819" d="M279 1315h561l-21 -123h-561z" />
<glyph unicode="&#xb0;" horiz-adv-x="743" d="M184 1165q0 66 24.5 122t66.5 97t97.5 63.5t116.5 22.5q66 0 121.5 -22.5t96.5 -63.5t64.5 -97t23.5 -122t-23.5 -121t-64.5 -95t-96.5 -61.5t-121.5 -21.5t-121 21.5t-96 61.5t-64.5 95t-23.5 121zM307 1165q0 -86 48 -136t134 -50t134.5 50t48.5 136t-48.5 139.5 t-134.5 53.5t-134 -53.5t-48 -139.5z" />
<glyph unicode="&#xb1;" d="M543 979v-358h352v-95h-352v-350h-103v350h-354v95h354v358h103zM86 0v94h809v-94h-809z" />
<glyph unicode="&#xb2;" horiz-adv-x="706" d="M92 573q6 78 34 139.5t71 113t100 98.5t123 96q33 25 61.5 48.5t51 54t36 69.5t13.5 94q0 51 -25 90t-76 39q-82 0 -82 -90q0 -12 4.5 -22.5t4.5 -24.5q0 -47 -30 -75.5t-77 -28.5q-41 0 -70.5 23.5t-29.5 59.5q0 39 18.5 77t57 67t95 46t134.5 17q63 0 112.5 -16t83 -44 t50 -61.5t16.5 -68.5q0 -61 -20.5 -101t-59.5 -73t-93 -66t-124 -78q-39 -25 -77 -51t-69.5 -56t-54 -63.5t-30.5 -76.5q8 4 31.5 6t33.5 2h209q43 0 66.5 10t37 28.5t18.5 42t9 50.5l68 -17q-23 -63 -37 -124.5t-25 -133.5q-72 6 -121 7.5t-90 1.5h-166h-24t-31.5 -1 t-49.5 -3.5t-77 -4.5z" />
<glyph unicode="&#xb3;" horiz-adv-x="714" d="M395 1270q0 -37 -27.5 -69t-76.5 -32q-41 0 -66.5 28t-25.5 65q0 39 22.5 75.5t63.5 65.5t97 45t124 16q70 0 117 -18.5t75.5 -48t42 -65.5t13.5 -70q0 -68 -24.5 -111t-58.5 -70.5t-69 -40t-57 -18.5q25 -4 54.5 -17.5t55 -36t43 -57t17.5 -80.5q0 -84 -33 -138t-82 -87 t-106.5 -45t-106.5 -12q-129 0 -200.5 50t-71.5 124q0 10 3 30.5t14 42t33.5 37t63.5 15.5q45 0 66.5 -24.5t21.5 -55.5q0 -29 -11 -52.5t-11 -51.5q0 -43 27.5 -53.5t56.5 -10.5q59 0 105 63.5t46 180.5q0 51 -12 80.5t-32.5 44t-45 18.5t-51.5 4h-37l8 58h35 q180 0 180 225q0 53 -21.5 97t-74.5 44q-41 0 -64.5 -19.5t-23.5 -54.5q0 -16 2 -35.5t2 -35.5z" />
<glyph unicode="&#xb4;" horiz-adv-x="819" d="M387 1085l-49 50q53 70 99 130t88 105t80 69.5t75 24.5q27 0 54.5 -15t27.5 -60q0 -25 -15.5 -48.5t-38 -45t-48 -40t-48.5 -32.5z" />
<glyph unicode="&#xb5;" horiz-adv-x="1294" d="M250 674q8 43 14 74.5t6 54.5q0 41 -16 54t-68 13q-12 0 -25.5 -1t-29.5 -3l14 78q39 -2 82 -6t80 -4q78 0 143.5 4t139.5 10l-103 -551q-12 -68 -24 -127t-12 -100q0 -86 86 -86q25 0 57.5 15.5t66 59.5t64.5 122.5t53 205.5l80 455h299l-125 -706q-6 -33 -11 -59.5 t-5 -47.5q0 -29 15.5 -45t58.5 -16h33.5t41.5 4l-12 -78q-29 2 -53.5 4t-52.5 2q-76 0 -150 -7t-147 -24q2 45 4 94.5t12 110.5l-12 4q-14 -31 -40 -62.5t-59.5 -57t-72.5 -42t-78 -16.5q-35 0 -72 14.5t-61 48.5l-88 -493h-228z" />
<glyph unicode="&#xb6;" horiz-adv-x="1198" d="M553 514q-102 0 -179 27.5t-130.5 76t-80 112t-26.5 136.5q0 106 37 193.5t104.5 147t164 92t214.5 32.5h621l-14 -82h-172l-271 -1525h-112l270 1525h-203l-250 -1525h-112z" />
<glyph unicode="&#xb7;" horiz-adv-x="538" d="M260 365q-70 0 -114 44t-44 111q0 43 16.5 79t44 63.5t64.5 43t78 15.5q70 0 114 -44t44 -112q0 -43 -16.5 -78.5t-44 -63.5t-64.5 -43t-78 -15z" />
<glyph unicode="&#xb8;" horiz-adv-x="819" d="M111 -319q23 -14 42 -19.5t46 -5.5q20 0 48.5 10t33.5 49q0 20 -6.5 36t-14.5 31t-14 31.5t-6 39.5q0 49 41 89t127 91l41 -31q-29 -23 -50.5 -52.5t-21.5 -64.5q0 -20 10 -38.5t23.5 -40t23.5 -48t10 -61.5q0 -63 -60 -97t-146 -34q-47 0 -89.5 10t-70.5 29z" />
<glyph unicode="&#xb9;" horiz-adv-x="585" d="M479 745q-2 -16 -3 -29.5t-1 -23.5q0 -39 15.5 -54t52.5 -15q23 0 57 6l-10 -56q-39 2 -68.5 4.5t-55.5 3.5t-49.5 1h-51.5h-52.5t-49 -1t-55.5 -3.5t-71 -4.5l10 54q14 -2 25.5 -3t22.5 -1q51 0 75.5 25.5t36.5 96.5l84 472q2 12 3 21t1 17q0 47 -33 48q-10 0 -24 -4.5 t-31 -8.5q-31 -12 -67.5 -26.5t-57.5 -24.5l-22 64q70 20 124 37.5t100 36t85 40t80 51.5l72 -24q-14 -41 -26.5 -98.5t-23.5 -104.5l-92 -496v0z" />
<glyph unicode="&#xba;" horiz-adv-x="714" d="M436 852q-119 0 -183.5 65.5t-64.5 188.5q0 168 87 263t239 95q117 0 183.5 -65.5t66.5 -188.5q0 -168 -89 -263t-239 -95zM430 895q37 0 66.5 33t51 87t34 122.5t12.5 140.5q0 66 -16.5 104.5t-59.5 38.5q-37 0 -65.5 -32.5t-50 -87t-33 -124t-11.5 -141.5 q0 -66 14.5 -103.5t57.5 -37.5z" />
<glyph unicode="&#xbb;" horiz-adv-x="923" d="M858 500q0 -14 -10 -32.5t-36 -45.5t-66.5 -66t-102.5 -94l-209 -194l-72 53l244 379q-2 4 -18.5 63.5t-38.5 130.5q-25 82 -55 189l77 43l234 -314q27 -37 40 -60t13 -52zM522 500q0 -14 -10 -32.5t-35.5 -45.5t-66.5 -66t-103 -94l-209 -194l-71 53l243 379 q-2 4 -18 63.5t-39 130.5l-57 189l80 43l233 -314q27 -37 40 -60t13 -52z" />
<glyph unicode="&#xbc;" horiz-adv-x="1646" d="M1212 227h-229h-55.5t-65.5 -2l17 111l200 211q82 86 161 165t157 173l100 -31l-8 -35q-12 -57 -19.5 -98t-17.5 -94l-53 -299h41h54.5t59.5 2l-20 -105q-29 2 -59.5 2h-53.5h-39q-6 -29 -14 -65.5t-8 -71.5q0 -25 16.5 -34t53.5 -9q10 0 24 1t31 3l-12 -57q-39 2 -67 4 t-51.5 3t-47 1h-52.5h-50t-44.5 -1t-52.5 -3t-70 -4l13 57q16 -2 28.5 -3t24.5 -1q27 0 43 6t26.5 20.5t16.5 38t12 58.5zM1229 328q16 88 26.5 144t18.5 95t16 68t19 61l-355 -368h275zM1333 1554l99 -47l-1000 -1724l-98 51zM520 745q-2 -16 -3 -29.5t-1 -23.5 q0 -39 15.5 -54t52.5 -15q23 0 57 6l-10 -56q-39 2 -69 4.5t-55.5 3.5t-49 1h-51.5h-52.5t-49 -1t-55.5 -3.5t-71 -4.5l10 54q14 -2 25.5 -3t22.5 -1q51 0 75.5 25.5t36.5 96.5l84 472q2 12 3 21t1 17q0 47 -33 48q-10 0 -24 -4.5t-31 -8.5q-31 -12 -67.5 -26.5t-57.5 -24.5 l-22 64q70 20 124 37.5t100 36t85 40t80 51.5l72 -24q-14 -41 -26.5 -98.5t-23.5 -104.5z" />
<glyph unicode="&#xbd;" horiz-adv-x="1699" d="M1300 1554l99 -47l-1000 -1724l-98 51zM520 745q-2 -16 -3 -29.5t-1 -23.5q0 -39 15.5 -54t52.5 -15q23 0 57 6l-10 -56q-39 2 -69 4.5t-55.5 3.5t-49 1h-51.5h-52.5t-49 -1t-55.5 -3.5t-71 -4.5l10 54q14 -2 25.5 -3t22.5 -1q51 0 75.5 25.5t36.5 96.5l84 472q2 12 3 21 t1 17q0 47 -33 48q-10 0 -24 -4.5t-31 -8.5q-31 -12 -67.5 -26.5t-57.5 -24.5l-22 64q70 20 124 37.5t100 36t85 40t80 51.5l72 -24q-14 -41 -26.5 -98.5t-23.5 -104.5zM961 -4q6 78 33.5 139.5t70.5 112.5t100.5 98t122.5 96q33 25 61.5 48.5t51 54t36 69.5t13.5 95 q0 51 -24.5 90t-75.5 39q-82 0 -82 -90q0 -12 4 -22.5t4 -25.5q0 -47 -29.5 -75.5t-77.5 -28.5q-41 0 -70.5 23.5t-29.5 60.5q0 39 18.5 77t57.5 66.5t95 46t134 17.5q63 0 112.5 -16.5t83.5 -44t50 -61.5t16 -69q0 -61 -20.5 -101t-59 -73t-93 -65.5t-124.5 -77.5 q-39 -25 -76.5 -51.5t-69.5 -56t-54.5 -63.5t-30.5 -77q8 4 31.5 6t34.5 2h208q43 0 67 10.5t37 29t18 42t9 49.5l68 -16q-23 -63 -37 -124.5t-24 -133.5q-72 6 -121 7t-90 1h-166h-24.5t-32 -1t-49 -3t-76.5 -4z" />
<glyph unicode="&#xbe;" horiz-adv-x="1630" d="M1206 227h-229h-55.5t-65.5 -2l16 111l201 211q82 86 161 165t157 173l100 -31l-8 -35q-12 -57 -19.5 -98t-17.5 -94l-53 -299h41h54.5t59.5 2l-20 -105q-29 2 -59.5 2h-53.5h-39q-6 -29 -14 -65.5t-8 -71.5q0 -25 16 -34t53 -9q10 0 24.5 1t31.5 3l-13 -57 q-39 2 -66.5 4t-51 3t-47 1h-52.5h-50t-45 -1t-52.5 -3t-69.5 -4l12 57q16 -2 28.5 -3t25.5 -1q27 0 43 6t26.5 20.5t16.5 38t12 58.5zM1223 328q16 88 26.5 144t18.5 95t16 68t19 61l-355 -368h275zM1315 1554l98 -47l-999 -1724l-99 51zM408 1270q0 -37 -28 -69t-77 -32 q-41 0 -66.5 28t-25.5 65q0 39 22.5 75.5t63.5 65.5t97.5 45t123.5 16q70 0 117 -18.5t75.5 -48t42 -65.5t13.5 -70q0 -68 -24.5 -111t-58.5 -70.5t-68.5 -40t-57.5 -18.5q25 -4 54.5 -17.5t55 -36t43 -57t17.5 -80.5q0 -84 -32.5 -138t-82 -87t-106.5 -45t-107 -12 q-129 0 -200.5 50t-71.5 124q0 10 3 30.5t14.5 42t34 37t63.5 15.5q45 0 66.5 -24.5t21.5 -55.5q0 -29 -11.5 -52.5t-11.5 -51.5q0 -43 27.5 -53.5t56.5 -10.5q59 0 105.5 63.5t46.5 180.5q0 51 -12.5 80.5t-33 44t-45 18.5t-51.5 4h-36l8 58h35q180 0 180 225 q0 53 -21.5 97t-74.5 44q-41 0 -65 -19.5t-24 -54.5q0 -16 2.5 -35.5t2.5 -35.5z" />
<glyph unicode="&#xbf;" horiz-adv-x="1005" d="M612 600q0 -109 -25.5 -185.5t-63.5 -137t-81 -109.5t-80.5 -103.5t-63.5 -119t-26 -154.5q0 -31 5.5 -61.5t18.5 -55t37.5 -39t61.5 -14.5q72 0 97.5 44t25.5 110q0 18 -4 35.5t-4 39.5q0 82 51 127.5t129 45.5q68 0 112 -43t44 -103q0 -66 -29 -127t-88 -107 t-149.5 -74t-214.5 -28q-100 0 -177 21.5t-129.5 60.5t-80 91.5t-27.5 111.5q0 109 41 175.5t101.5 113.5t132 85t132 88t101.5 122.5t41 189.5h112zM610 1040q76 0 119 -43t43 -106q0 -78 -58.5 -133.5t-144.5 -55.5q-74 0 -116.5 43t-42.5 105q0 39 15 73.5t43 60.5 t64.5 41t77.5 15z" />
<glyph unicode="&#xc0;" horiz-adv-x="1421" d="M1212 211q16 -66 40 -101.5t79 -35.5h17.5t19.5 2l-14 -82q-78 6 -159 8t-157 2t-155.5 -2t-163.5 -8l14 82q16 -2 35.5 -4t42.5 -2q35 0 64.5 13t29.5 58q0 23 -4 44.5t-8 45.5l-57 271h-455l-129 -246q-39 -72 -39 -115q0 -70 102 -69q14 0 29.5 1t32.5 3l-15 -82 q-41 2 -70.5 4t-58 4t-58.5 2h-66h-66t-50.5 -2t-46 -4t-52.5 -4l14 82q10 -2 29 -2q45 0 76.5 18.5t57 52t50 81.5t57.5 108l617 1136h125zM422 584h393l-51 233q-14 59 -29.5 138t-21.5 147h-11zM711 1675q-35 20 -68 48t-33 61q0 51 26 70.5t56 19.5q41 0 82 -24.5 t82 -65.5t85 -96.5t91 -116.5l-49 -47z" />
<glyph unicode="&#xc1;" horiz-adv-x="1421" d="M1212 211q16 -66 40 -101.5t79 -35.5h17.5t19.5 2l-14 -82q-78 6 -159 8t-157 2t-155.5 -2t-163.5 -8l14 82q16 -2 35.5 -4t42.5 -2q35 0 64.5 13t29.5 58q0 23 -4 44.5t-8 45.5l-57 271h-455l-129 -246q-39 -72 -39 -115q0 -70 102 -69q14 0 29.5 1t32.5 3l-15 -82 q-41 2 -70.5 4t-58 4t-58.5 2h-66h-66t-50.5 -2t-46 -4t-52.5 -4l14 82q10 -2 29 -2q45 0 76.5 18.5t57 52t50 81.5t57.5 108l617 1136h125zM422 584h393l-51 233q-14 59 -29.5 138t-21.5 147h-11zM723 1526l-33 57q57 57 114.5 109.5t111 92.5t99.5 64.5t81 24.5 q29 0 57.5 -15.5t28.5 -56.5q0 -59 -43 -87.5t-101 -53.5z" />
<glyph unicode="&#xc2;" horiz-adv-x="1421" d="M1212 211q16 -66 40 -101.5t79 -35.5h17.5t19.5 2l-14 -82q-78 6 -159 8t-157 2t-155.5 -2t-163.5 -8l14 82q16 -2 35.5 -4t42.5 -2q35 0 64.5 13t29.5 58q0 23 -4 44.5t-8 45.5l-57 271h-455l-129 -246q-39 -72 -39 -115q0 -70 102 -69q14 0 29.5 1t32.5 3l-15 -82 q-41 2 -70.5 4t-58 4t-58.5 2h-66h-66t-50.5 -2t-46 -4t-52.5 -4l14 82q10 -2 29 -2q45 0 76.5 18.5t57 52t50 81.5t57.5 108l617 1136h125zM422 584h393l-51 233q-14 59 -29.5 138t-21.5 147h-11zM567 1577l191 199q51 53 79.5 75.5t63.5 22.5q33 0 57.5 -29.5t67.5 -89.5 l127 -178l-55 -55l-219 188l-261 -188z" />
<glyph unicode="&#xc3;" horiz-adv-x="1421" d="M1212 211q16 -66 40 -101.5t79 -35.5h17.5t19.5 2l-14 -82q-78 6 -159 8t-157 2t-155.5 -2t-163.5 -8l14 82q16 -2 35.5 -4t42.5 -2q35 0 64.5 13t29.5 58q0 23 -4 44.5t-8 45.5l-57 271h-455l-129 -246q-39 -72 -39 -115q0 -70 102 -69q14 0 29.5 1t32.5 3l-15 -82 q-41 2 -70.5 4t-58 4t-58.5 2h-66h-66t-50.5 -2t-46 -4t-52.5 -4l14 82q10 -2 29 -2q45 0 76.5 18.5t57 52t50 81.5t57.5 108l617 1136h125zM422 584h393l-51 233q-14 59 -29.5 138t-21.5 147h-11zM524 1630q20 37 46 72t56.5 62.5t66.5 45t77 17.5q51 0 81 -17.5t54.5 -39 t51 -39t71.5 -17.5q39 0 70.5 32t58.5 83l70 -47q-23 -37 -45.5 -73t-52 -64.5t-68.5 -47t-90 -18.5q-41 0 -71 17.5t-56.5 39t-55 39t-67.5 17.5q-37 0 -70 -30t-55 -77z" />
<glyph unicode="&#xc4;" horiz-adv-x="1421" d="M1212 211q16 -66 40 -101.5t79 -35.5h17.5t19.5 2l-14 -82q-78 6 -159 8t-157 2t-155.5 -2t-163.5 -8l14 82q16 -2 35.5 -4t42.5 -2q35 0 64.5 13t29.5 58q0 23 -4 44.5t-8 45.5l-57 271h-455l-129 -246q-39 -72 -39 -115q0 -70 102 -69q14 0 29.5 1t32.5 3l-15 -82 q-41 2 -70.5 4t-58 4t-58.5 2h-66h-66t-50.5 -2t-46 -4t-52.5 -4l14 82q10 -2 29 -2q45 0 76.5 18.5t57 52t50 81.5t57.5 108l617 1136h125zM422 584h393l-51 233q-14 59 -29.5 138t-21.5 147h-11zM580 1698q0 27 10 53.5t28.5 48t44 35.5t56.5 14q47 0 76.5 -34.5 t29.5 -81.5q0 -59 -40 -102.5t-99 -43.5q-45 0 -75.5 32t-30.5 79zM971 1700q0 25 9 51.5t27.5 48t44 35.5t60.5 14q45 0 77 -33.5t32 -80.5q0 -59 -41 -103.5t-101 -44.5q-47 0 -77.5 33t-30.5 80z" />
<glyph unicode="&#xc5;" horiz-adv-x="1421" d="M1212 211q16 -66 40 -101.5t79 -35.5h17.5t19.5 2l-14 -82q-78 6 -159 8t-157 2t-155.5 -2t-163.5 -8l14 82q16 -2 35.5 -4t42.5 -2q35 0 64.5 13t29.5 58q0 23 -4 44.5t-8 45.5l-57 271h-455l-129 -246q-39 -72 -39 -115q0 -70 102 -69q14 0 29.5 1t32.5 3l-15 -82 q-41 2 -70.5 4t-58 4t-58.5 2h-66h-66t-50.5 -2t-46 -4t-52.5 -4l14 82q10 -2 29 -2q45 0 76.5 18.5t57 52t50 81.5t57.5 108l617 1136h125zM422 584h393l-51 233q-14 59 -29.5 138t-21.5 147h-11zM889 1886q86 0 133 -54t47 -126q0 -76 -47 -129t-133 -53q-82 0 -131 53 t-49 129q0 72 49 126t131 54zM801 1706q0 -47 25.5 -74.5t62.5 -27.5t62.5 27.5t25.5 74.5q0 45 -25.5 70.5t-62.5 25.5t-62.5 -25.5t-25.5 -70.5z" />
<glyph unicode="&#xc6;" horiz-adv-x="1910" d="M731 78q43 0 65.5 6t34 27.5t17.5 61.5t18 108l68 381h-404q-96 -152 -155.5 -245t-93 -149.5t-45 -84t-11.5 -46.5q0 -31 19.5 -47t87.5 -16h35.5t42.5 4l-15 -84q-80 6 -151.5 9t-147.5 3q-39 0 -64.5 -1t-48 -2t-44 -4t-52.5 -5l15 84q6 -4 30.5 -4h30.5 q27 0 55.5 20.5t65.5 66.5t86 120.5t119 185.5l418 668q39 61 66.5 105t27.5 75q0 27 -20.5 40t-71.5 13q-20 0 -37 -2t-47 -6l14 80q35 -2 103.5 -4t153.5 -3t179 -2t178 -1q78 0 144.5 1t142.5 2t168 3t221 4q-10 -55 -16 -99.5t-10.5 -87.5t-6.5 -89t-2 -107h-86 q6 61 7 104q0 68 -13.5 106t-39 57t-62.5 23.5t-82 4.5h-68q-59 0 -96 -3t-60.5 -21.5t-38 -59.5t-26.5 -115l-67 -379h96q59 0 98 12.5t63.5 38t39 64.5t24.5 92h90q-41 -145 -60.5 -265t-25.5 -243h-98q8 35 13 62.5t5 50.5q0 35 -12 56.5t-41 31.5t-80 14t-127 4 q-27 -156 -42 -239.5t-22 -123.5t-8 -49l-1 -8q-6 -29 -10.5 -54t-4.5 -46q0 -66 56.5 -78t160.5 -12q68 0 125.5 7t103.5 40t78.5 99.5t55.5 183.5l94 -15q-18 -61 -32.5 -110t-25 -95.5t-19.5 -93.5t-19 -104q-80 2 -152 5t-140.5 4t-138 2t-145.5 1q-121 0 -252 -2 t-250 -10l15 88q23 -4 32 -4h25zM582 748h366l109 610q-12 2 -17.5 2h-9.5q-16 0 -31.5 -5t-33 -21.5t-40 -46.5t-53.5 -79z" />
<glyph unicode="&#xc7;" horiz-adv-x="1271" d="M485 -317q23 -14 42.5 -19.5t45.5 -5.5q20 0 49 10t33 49q0 20 -6 36t-14 31t-14.5 31.5t-6.5 39.5q0 59 64 110q-266 16 -411.5 178t-145.5 459q0 211 58.5 373t164 272.5t251.5 166.5t325 56q133 0 235 -17t162 -34q-10 -51 -17.5 -95t-12.5 -90t-8 -97.5t-3 -114.5 h-94q4 20 4 41.5v38.5q0 82 -21.5 138t-58.5 91t-86 49.5t-102 14.5q-100 0 -185.5 -55.5t-148 -163t-98 -265t-35.5 -364.5q0 -111 17 -202t54 -155.5t96.5 -100.5t143.5 -36q129 0 224 75t151 191l90 -43q-86 -156 -194.5 -228.5t-250.5 -82.5q-31 -37 -30 -78 q0 -20 10 -38.5t23.5 -40t23.5 -48t10 -61.5q0 -63 -60.5 -97t-146.5 -34q-47 0 -89 10t-70 29z" />
<glyph unicode="&#xc8;" horiz-adv-x="1265" d="M8 76q10 -2 27.5 -3t23.5 -1q43 0 70 7t44 29.5t27.5 63.5t22.5 109l152 872q6 35 10 64.5t4 52.5q0 47 -25.5 68.5t-97.5 21.5h-27.5t-31.5 -2l18 84q135 -10 240.5 -12.5t204.5 -2.5q72 0 141.5 1.5t143 3.5t154.5 4t175 4q-10 -55 -16 -99.5t-10.5 -87.5t-6.5 -89 t-2 -107h-86q6 61 6 104q0 63 -13 101t-39.5 58.5t-63.5 26t-82 5.5q-74 0 -123 -4.5t-82 -22.5t-51.5 -58t-30.5 -114l-63 -367h94q59 0 99 12.5t65.5 39t40 64.5t20.5 91h90q-41 -145 -60.5 -265t-25.5 -243h-98q8 35 13 65t5 52q0 35 -12 55.5t-41 31.5t-78 15.5 t-125 4.5q-29 -162 -44 -250t-23.5 -129t-9.5 -50l-1 -8q-6 -29 -10 -54t-4 -46q0 -59 55.5 -74.5t171.5 -15.5q68 0 123.5 8t99.5 41t75.5 99.5t54.5 181.5l94 -15q-18 -61 -32.5 -110t-25 -95.5t-19.5 -93.5t-19 -104q-162 6 -309.5 9t-301.5 3h-104t-121.5 -1t-132.5 -4 t-133 -7zM702 1675q-35 20 -67.5 48t-32.5 61q0 51 25.5 70.5t56.5 19.5q41 0 82 -24.5t82 -65.5t85 -96.5t91 -116.5l-49 -47z" />
<glyph unicode="&#xc9;" horiz-adv-x="1265" d="M8 76q10 -2 27.5 -3t23.5 -1q43 0 70 7t44 29.5t27.5 63.5t22.5 109l152 872q6 35 10 64.5t4 52.5q0 47 -25.5 68.5t-97.5 21.5h-27.5t-31.5 -2l18 84q135 -10 240.5 -12.5t204.5 -2.5q72 0 141.5 1.5t143 3.5t154.5 4t175 4q-10 -55 -16 -99.5t-10.5 -87.5t-6.5 -89 t-2 -107h-86q6 61 6 104q0 63 -13 101t-39.5 58.5t-63.5 26t-82 5.5q-74 0 -123 -4.5t-82 -22.5t-51.5 -58t-30.5 -114l-63 -367h94q59 0 99 12.5t65.5 39t40 64.5t20.5 91h90q-41 -145 -60.5 -265t-25.5 -243h-98q8 35 13 65t5 52q0 35 -12 55.5t-41 31.5t-78 15.5 t-125 4.5q-29 -162 -44 -250t-23.5 -129t-9.5 -50l-1 -8q-6 -29 -10 -54t-4 -46q0 -59 55.5 -74.5t171.5 -15.5q68 0 123.5 8t99.5 41t75.5 99.5t54.5 181.5l94 -15q-18 -61 -32.5 -110t-25 -95.5t-19.5 -93.5t-19 -104q-162 6 -309.5 9t-301.5 3h-104t-121.5 -1t-132.5 -4 t-133 -7zM702 1526l-32 57q57 57 114.5 109.5t110.5 92.5t99 64.5t81 24.5q29 0 57.5 -15.5t28.5 -56.5q0 -59 -43 -87.5t-100 -53.5z" />
<glyph unicode="&#xca;" horiz-adv-x="1265" d="M8 76q10 -2 27.5 -3t23.5 -1q43 0 70 7t44 29.5t27.5 63.5t22.5 109l152 872q6 35 10 64.5t4 52.5q0 47 -25.5 68.5t-97.5 21.5h-27.5t-31.5 -2l18 84q135 -10 240.5 -12.5t204.5 -2.5q72 0 141.5 1.5t143 3.5t154.5 4t175 4q-10 -55 -16 -99.5t-10.5 -87.5t-6.5 -89 t-2 -107h-86q6 61 6 104q0 63 -13 101t-39.5 58.5t-63.5 26t-82 5.5q-74 0 -123 -4.5t-82 -22.5t-51.5 -58t-30.5 -114l-63 -367h94q59 0 99 12.5t65.5 39t40 64.5t20.5 91h90q-41 -145 -60.5 -265t-25.5 -243h-98q8 35 13 65t5 52q0 35 -12 55.5t-41 31.5t-78 15.5 t-125 4.5q-29 -162 -44 -250t-23.5 -129t-9.5 -50l-1 -8q-6 -29 -10 -54t-4 -46q0 -59 55.5 -74.5t171.5 -15.5q68 0 123.5 8t99.5 41t75.5 99.5t54.5 181.5l94 -15q-18 -61 -32.5 -110t-25 -95.5t-19.5 -93.5t-19 -104q-162 6 -309.5 9t-301.5 3h-104t-121.5 -1t-132.5 -4 t-133 -7zM547 1577l190 199q51 53 80 75.5t64 22.5q33 0 57.5 -29.5t67.5 -89.5l127 -178l-56 -55l-219 188l-260 -188z" />
<glyph unicode="&#xcb;" horiz-adv-x="1265" d="M8 76q10 -2 27.5 -3t23.5 -1q43 0 70 7t44 29.5t27.5 63.5t22.5 109l152 872q6 35 10 64.5t4 52.5q0 47 -25.5 68.5t-97.5 21.5h-27.5t-31.5 -2l18 84q135 -10 240.5 -12.5t204.5 -2.5q72 0 141.5 1.5t143 3.5t154.5 4t175 4q-10 -55 -16 -99.5t-10.5 -87.5t-6.5 -89 t-2 -107h-86q6 61 6 104q0 63 -13 101t-39.5 58.5t-63.5 26t-82 5.5q-74 0 -123 -4.5t-82 -22.5t-51.5 -58t-30.5 -114l-63 -367h94q59 0 99 12.5t65.5 39t40 64.5t20.5 91h90q-41 -145 -60.5 -265t-25.5 -243h-98q8 35 13 65t5 52q0 35 -12 55.5t-41 31.5t-78 15.5 t-125 4.5q-29 -162 -44 -250t-23.5 -129t-9.5 -50l-1 -8q-6 -29 -10 -54t-4 -46q0 -59 55.5 -74.5t171.5 -15.5q68 0 123.5 8t99.5 41t75.5 99.5t54.5 181.5l94 -15q-18 -61 -32.5 -110t-25 -95.5t-19.5 -93.5t-19 -104q-162 6 -309.5 9t-301.5 3h-104t-121.5 -1t-132.5 -4 t-133 -7zM535 1698q0 27 10 53.5t28.5 48t44 35.5t56.5 14q47 0 76.5 -34.5t29.5 -81.5q0 -59 -40 -102.5t-99 -43.5q-45 0 -75.5 32t-30.5 79zM926 1700q0 25 9 51.5t27.5 48t44 35.5t60.5 14q45 0 77 -33.5t32 -80.5q0 -59 -41 -103.5t-101 -44.5q-47 0 -77.5 33t-30.5 80 z" />
<glyph unicode="&#xcc;" horiz-adv-x="817" d="M530 281q-6 -35 -10 -65t-4 -52q0 -47 25.5 -68.5t97.5 -21.5h27.5t31.5 2l-14 -82q-160 12 -326 12q-168 0 -364 -12l14 82q10 -2 27.5 -3t23.5 -1q43 0 70 7t44 29.5t27.5 63.5t22.5 109l152 872q6 35 10 64.5t4 52.5q0 47 -25.5 69.5t-97.5 22.5q-12 0 -27.5 -1 t-31.5 -3l14 82q160 -12 326 -13q168 0 364 13l-14 -82q-10 2 -27.5 3t-23.5 1q-43 0 -70.5 -7t-44 -29.5t-27 -63.5t-22.5 -109zM477 1675q-35 20 -67.5 48t-32.5 61q0 51 25.5 70.5t56.5 19.5q41 0 82 -24.5t82 -65.5t85 -96.5t91 -116.5l-49 -47z" />
<glyph unicode="&#xcd;" horiz-adv-x="817" d="M530 281q-6 -35 -10 -65t-4 -52q0 -47 25.5 -68.5t97.5 -21.5h27.5t31.5 2l-14 -82q-160 12 -326 12q-168 0 -364 -12l14 82q10 -2 27.5 -3t23.5 -1q43 0 70 7t44 29.5t27.5 63.5t22.5 109l152 872q6 35 10 64.5t4 52.5q0 47 -25.5 69.5t-97.5 22.5q-12 0 -27.5 -1 t-31.5 -3l14 82q160 -12 326 -13q168 0 364 13l-14 -82q-10 2 -27.5 3t-23.5 1q-43 0 -70.5 -7t-44 -29.5t-27 -63.5t-22.5 -109zM453 1526l-33 57q57 57 114.5 109.5t110.5 92.5t99.5 64.5t80.5 24.5q29 0 57.5 -15.5t28.5 -56.5q0 -59 -43 -87.5t-100 -53.5z" />
<glyph unicode="&#xce;" horiz-adv-x="817" d="M530 281q-6 -35 -10 -65t-4 -52q0 -47 25.5 -68.5t97.5 -21.5h27.5t31.5 2l-14 -82q-160 12 -326 12q-168 0 -364 -12l14 82q10 -2 27.5 -3t23.5 -1q43 0 70 7t44 29.5t27.5 63.5t22.5 109l152 872q6 35 10 64.5t4 52.5q0 47 -25.5 69.5t-97.5 22.5q-12 0 -27.5 -1 t-31.5 -3l14 82q160 -12 326 -13q168 0 364 13l-14 -82q-10 2 -27.5 3t-23.5 1q-43 0 -70.5 -7t-44 -29.5t-27 -63.5t-22.5 -109zM324 1577l190 199q51 53 80 75.5t63 22.5q33 0 57.5 -29.5t67.5 -89.5l127 -178l-55 -55l-219 188l-260 -188z" />
<glyph unicode="&#xcf;" horiz-adv-x="817" d="M530 281q-6 -35 -10 -65t-4 -52q0 -47 25.5 -68.5t97.5 -21.5h27.5t31.5 2l-14 -82q-160 12 -326 12q-168 0 -364 -12l14 82q10 -2 27.5 -3t23.5 -1q43 0 70 7t44 29.5t27.5 63.5t22.5 109l152 872q6 35 10 64.5t4 52.5q0 47 -25.5 69.5t-97.5 22.5q-12 0 -27.5 -1 t-31.5 -3l14 82q160 -12 326 -13q168 0 364 13l-14 -82q-10 2 -27.5 3t-23.5 1q-43 0 -70.5 -7t-44 -29.5t-27 -63.5t-22.5 -109zM311 1698q0 27 10.5 53.5t29 48t44 35.5t56.5 14q47 0 76.5 -34.5t29.5 -81.5q0 -59 -40 -102.5t-99 -43.5q-45 0 -76 32t-31 79zM702 1700 q0 25 9.5 51.5t28 48t44 35.5t60.5 14q45 0 76.5 -33.5t31.5 -80.5q0 -59 -41 -103.5t-100 -44.5q-47 0 -78 33t-31 80z" />
<glyph unicode="&#xd0;" horiz-adv-x="1531" d="M10 76q10 -2 27.5 -3t23.5 -1q43 0 70 7t44.5 29.5t27.5 63.5t22 109l74 430h-149l20 104h147l60 340q6 35 10 64.5t4 52.5q0 47 -25.5 68.5t-97.5 21.5h-27.5t-31.5 -2l16 82q43 -4 77 -7t70 -4t81 -1h108q66 0 138.5 6t187.5 6q147 0 262 -41t193.5 -116t118.5 -180.5 t40 -236.5q0 -233 -64.5 -399t-179 -271.5t-273.5 -154.5t-347 -49q-33 0 -61.5 1t-62.5 3t-76 3t-101 1q-61 0 -143 -2t-199 -6zM653 82q111 0 194 40t141.5 108.5t95 156.5t58 185.5t30 194.5t8.5 183q0 70 -11.5 142.5t-46.5 130t-97 94.5t-167 37q-43 0 -70.5 -8.5 t-47 -31t-32 -61.5t-22.5 -98l-59 -340h176l-21 -104h-174l-73 -430q-4 -29 -9.5 -53.5t-5.5 -47.5q0 -55 28.5 -76.5t104.5 -21.5z" />
<glyph unicode="&#xd1;" horiz-adv-x="1517" d="M1323 1190q4 25 6 45t2 37q0 53 -23.5 71.5t-78.5 18.5h-48t-55 -4l15 82q41 -2 70.5 -4t55 -3t54.5 -2t65 -1q37 0 68 1t59.5 2t61.5 3t74 4l-15 -82q-23 2 -38 3t-31 1q-41 0 -65.5 -8t-40 -27.5t-26 -52.5t-18.5 -84l-215 -1213h-129q-115 242 -199 415t-144 294 t-99 199t-64.5 128t-41 83.5t-27.5 66.5h-17l-166 -919q-6 -41 -6 -68q0 -61 31 -82.5t94 -21.5h37.5t42.5 4l-14 -82q-45 2 -81 4t-68 4t-62.5 2h-63.5q-37 0 -63.5 -1t-51 -2t-52 -3t-68.5 -4l14 82q23 -4 38 -4h32q35 0 59.5 8t40.5 27.5t26.5 53.5t20.5 83l170 966 q6 37 6 66q0 51 -24.5 68.5t-83.5 17.5q-16 0 -39 -1t-45 -3l14 82q82 -6 142.5 -9.5t121.5 -3.5h54.5t65.5 2.5t66.5 4.5t59.5 6q33 -104 61.5 -174t53.5 -123q98 -211 157.5 -334t94 -192.5t51 -106.5t29.5 -76h16zM659 1630q20 37 46 72t57 62.5t66.5 45t76.5 17.5 q51 0 81 -17.5t54.5 -39t51 -39t71.5 -17.5q39 0 71 32t58 83l70 -47q-23 -37 -45.5 -73t-52 -64.5t-68.5 -47t-90 -18.5q-41 0 -70.5 17.5t-56.5 39t-55.5 39t-67.5 17.5q-37 0 -69.5 -30t-55.5 -77z" />
<glyph unicode="&#xd2;" horiz-adv-x="1503" d="M911 1470q127 0 231.5 -39.5t178.5 -115.5t115 -183.5t41 -244.5q0 -215 -56.5 -387t-160 -291t-251 -182.5t-327.5 -63.5q-127 0 -231.5 41t-178 118t-113.5 186.5t-40 248.5q0 217 56 387t158.5 287t249 178t328.5 61zM688 39q115 0 201 85t142 219t85 297t29 318 q0 207 -53.5 321t-186.5 114q-115 0 -201 -84t-142 -215t-83.5 -292t-27.5 -317q0 -213 51 -329.5t186 -116.5zM819 1675q-35 20 -67.5 48t-32.5 61q0 51 25.5 70.5t56.5 19.5q41 0 82 -24.5t82 -65.5t85 -96.5t91 -116.5l-49 -47z" />
<glyph unicode="&#xd3;" horiz-adv-x="1503" d="M911 1470q127 0 231.5 -39.5t178.5 -115.5t115 -183.5t41 -244.5q0 -215 -56.5 -387t-160 -291t-251 -182.5t-327.5 -63.5q-127 0 -231.5 41t-178 118t-113.5 186.5t-40 248.5q0 217 56 387t158.5 287t249 178t328.5 61zM688 39q115 0 201 85t142 219t85 297t29 318 q0 207 -53.5 321t-186.5 114q-115 0 -201 -84t-142 -215t-83.5 -292t-27.5 -317q0 -213 51 -329.5t186 -116.5zM799 1526l-33 57q57 57 114.5 109.5t110.5 92.5t99.5 64.5t80.5 24.5q29 0 57.5 -15.5t28.5 -56.5q0 -59 -43 -87.5t-100 -53.5z" />
<glyph unicode="&#xd4;" horiz-adv-x="1503" d="M911 1470q127 0 231.5 -39.5t178.5 -115.5t115 -183.5t41 -244.5q0 -215 -56.5 -387t-160 -291t-251 -182.5t-327.5 -63.5q-127 0 -231.5 41t-178 118t-113.5 186.5t-40 248.5q0 217 56 387t158.5 287t249 178t328.5 61zM688 39q115 0 201 85t142 219t85 297t29 318 q0 207 -53.5 321t-186.5 114q-115 0 -201 -84t-142 -215t-83.5 -292t-27.5 -317q0 -213 51 -329.5t186 -116.5zM651 1577l191 199q51 53 79.5 75.5t63.5 22.5q33 0 57.5 -29.5t67.5 -89.5l127 -178l-55 -55l-219 188l-261 -188z" />
<glyph unicode="&#xd5;" horiz-adv-x="1462" d="M879 1483q123 0 225 -43t174 -123t112 -192.5t40 -252.5q0 -213 -52.5 -380.5t-151 -284.5t-238.5 -180.5t-314 -65.5q-123 0 -225.5 42t-174 121t-111.5 192.5t-40 254.5q0 215 52 383t150.5 285t238 179.5t315.5 64.5zM684 31q123 0 212 86t147.5 221t87 300t28.5 323 q0 211 -70.5 331.5t-220.5 120.5q-123 0 -213 -85t-148 -220t-86 -300t-28 -325q0 -215 70.5 -333.5t220.5 -118.5zM561 1640q23 37 50.5 72t60.5 62.5t70.5 45t80.5 17.5q51 0 84 -17.5t59.5 -39t55.5 -39t76 -17.5q39 0 71.5 32t59.5 83l71 -47q-25 -37 -50 -73t-57 -64.5 t-73 -47t-92 -18.5q-43 0 -74.5 17.5t-60.5 39t-60.5 39t-70.5 17.5q-37 0 -71 -30t-56 -77z" />
<glyph unicode="&#xd6;" horiz-adv-x="1503" d="M911 1470q127 0 231.5 -39.5t178.5 -115.5t115 -183.5t41 -244.5q0 -215 -56.5 -387t-160 -291t-251 -182.5t-327.5 -63.5q-127 0 -231.5 41t-178 118t-113.5 186.5t-40 248.5q0 217 56 387t158.5 287t249 178t328.5 61zM688 39q115 0 201 85t142 219t85 297t29 318 q0 207 -53.5 321t-186.5 114q-115 0 -201 -84t-142 -215t-83.5 -292t-27.5 -317q0 -213 51 -329.5t186 -116.5zM653 1698q0 27 10.5 53.5t29 48t44 35.5t56.5 14q47 0 76.5 -34.5t29.5 -81.5q0 -59 -40 -102.5t-99 -43.5q-45 0 -76 32t-31 79zM1044 1700q0 25 9.5 51.5 t28 48t44 35.5t60.5 14q45 0 76.5 -33.5t31.5 -80.5q0 -59 -41 -103.5t-100 -44.5q-47 0 -78 33t-31 80z" />
<glyph unicode="&#xd7;" d="M221 874l299 -301l297 297l68 -61l-295 -295l291 -301l-68 -66l-291 299l-297 -296l-67 61l297 297l-301 299z" />
<glyph unicode="&#xd8;" horiz-adv-x="1503" d="M911 1470q125 0 232 -40l92 159l88 -39l-94 -161q117 -72 182.5 -200t65.5 -302q0 -215 -56.5 -387t-160 -291t-251 -182.5t-327.5 -63.5q-137 0 -250 47l-115 -198l-86 41l117 202q-111 74 -170 201t-59 301q0 217 56 387t158.5 287t249 178t328.5 61zM688 39 q115 0 201 85t142 219t85 297t29 318q0 143 -25 242l-612 -1059q55 -102 180 -102zM451 485q0 -66 3 -121t13 -102l606 1047q-55 84 -168 84q-115 0 -201 -84t-142 -215t-83.5 -292t-27.5 -317z" />
<glyph unicode="&#xd9;" horiz-adv-x="1478" d="M553 614q-12 -76 -24.5 -153.5t-12.5 -149.5q0 -57 10.5 -106t36 -84t71.5 -55.5t120 -20.5q102 0 172.5 45t117.5 121q35 53 57.5 116.5t39 131t28 138.5t23.5 138q25 150 42 243t27.5 151.5t14.5 91t4 57.5q0 53 -36 68.5t-81 15.5q-20 0 -40.5 -2t-39.5 -2l15 82 q76 -4 135 -7t131 -3q35 0 63.5 1t56 2t57.5 3t71 4l-6 -82q-74 0 -115 -5t-63.5 -32t-36 -80t-31.5 -151l-64 -357q-18 -109 -32.5 -190.5t-32 -148t-40 -121t-58.5 -105.5q-33 -45 -69 -82t-84 -64.5t-111.5 -43t-153.5 -15.5q-125 0 -218.5 34t-154.5 95.5t-91 148.5 t-30 193q0 70 12 144l103 575q6 35 10 64.5t4 52.5q0 47 -25.5 69.5t-97.5 22.5q-12 0 -27.5 -1t-31.5 -3l14 82q80 -6 160 -8t166 -2t176 2t188 8l-14 -82q-10 2 -27.5 3t-23.5 1q-47 0 -74.5 -7t-44 -29.5t-26 -63.5t-19.5 -109zM862 1675q-35 20 -67.5 48t-32.5 61 q0 51 25.5 70.5t56.5 19.5q41 0 82 -24.5t82 -65.5t85 -96.5t91 -116.5l-49 -47z" />
<glyph unicode="&#xda;" horiz-adv-x="1478" d="M553 614q-12 -76 -24.5 -153.5t-12.5 -149.5q0 -57 10.5 -106t36 -84t71.5 -55.5t120 -20.5q102 0 172.5 45t117.5 121q35 53 57.5 116.5t39 131t28 138.5t23.5 138q25 150 42 243t27.5 151.5t14.5 91t4 57.5q0 53 -36 68.5t-81 15.5q-20 0 -40.5 -2t-39.5 -2l15 82 q76 -4 135 -7t131 -3q35 0 63.5 1t56 2t57.5 3t71 4l-6 -82q-74 0 -115 -5t-63.5 -32t-36 -80t-31.5 -151l-64 -357q-18 -109 -32.5 -190.5t-32 -148t-40 -121t-58.5 -105.5q-33 -45 -69 -82t-84 -64.5t-111.5 -43t-153.5 -15.5q-125 0 -218.5 34t-154.5 95.5t-91 148.5 t-30 193q0 70 12 144l103 575q6 35 10 64.5t4 52.5q0 47 -25.5 69.5t-97.5 22.5q-12 0 -27.5 -1t-31.5 -3l14 82q80 -6 160 -8t166 -2t176 2t188 8l-14 -82q-10 2 -27.5 3t-23.5 1q-47 0 -74.5 -7t-44 -29.5t-26 -63.5t-19.5 -109zM862 1526l-33 57q57 57 114.5 109.5 t111 92.5t99.5 64.5t81 24.5q29 0 57.5 -15.5t28.5 -56.5q0 -59 -43 -87.5t-100 -53.5z" />
<glyph unicode="&#xdb;" horiz-adv-x="1478" d="M553 614q-12 -76 -24.5 -153.5t-12.5 -149.5q0 -57 10.5 -106t36 -84t71.5 -55.5t120 -20.5q102 0 172.5 45t117.5 121q35 53 57.5 116.5t39 131t28 138.5t23.5 138q25 150 42 243t27.5 151.5t14.5 91t4 57.5q0 53 -36 68.5t-81 15.5q-20 0 -40.5 -2t-39.5 -2l15 82 q76 -4 135 -7t131 -3q35 0 63.5 1t56 2t57.5 3t71 4l-6 -82q-74 0 -115 -5t-63.5 -32t-36 -80t-31.5 -151l-64 -357q-18 -109 -32.5 -190.5t-32 -148t-40 -121t-58.5 -105.5q-33 -45 -69 -82t-84 -64.5t-111.5 -43t-153.5 -15.5q-125 0 -218.5 34t-154.5 95.5t-91 148.5 t-30 193q0 70 12 144l103 575q6 35 10 64.5t4 52.5q0 47 -25.5 69.5t-97.5 22.5q-12 0 -27.5 -1t-31.5 -3l14 82q80 -6 160 -8t166 -2t176 2t188 8l-14 -82q-10 2 -27.5 3t-23.5 1q-47 0 -74.5 -7t-44 -29.5t-26 -63.5t-19.5 -109zM702 1577l191 199q51 53 79.5 75.5 t63.5 22.5q33 0 57.5 -29.5t67.5 -89.5l127 -178l-55 -55l-219 188l-260 -188z" />
<glyph unicode="&#xdc;" horiz-adv-x="1478" d="M553 614q-12 -76 -24.5 -153.5t-12.5 -149.5q0 -57 10.5 -106t36 -84t71.5 -55.5t120 -20.5q102 0 172.5 45t117.5 121q35 53 57.5 116.5t39 131t28 138.5t23.5 138q25 150 42 243t27.5 151.5t14.5 91t4 57.5q0 53 -36 68.5t-81 15.5q-20 0 -40.5 -2t-39.5 -2l15 82 q76 -4 135 -7t131 -3q35 0 63.5 1t56 2t57.5 3t71 4l-6 -82q-74 0 -115 -5t-63.5 -32t-36 -80t-31.5 -151l-64 -357q-18 -109 -32.5 -190.5t-32 -148t-40 -121t-58.5 -105.5q-33 -45 -69 -82t-84 -64.5t-111.5 -43t-153.5 -15.5q-125 0 -218.5 34t-154.5 95.5t-91 148.5 t-30 193q0 70 12 144l103 575q6 35 10 64.5t4 52.5q0 47 -25.5 69.5t-97.5 22.5q-12 0 -27.5 -1t-31.5 -3l14 82q80 -6 160 -8t166 -2t176 2t188 8l-14 -82q-10 2 -27.5 3t-23.5 1q-47 0 -74.5 -7t-44 -29.5t-26 -63.5t-19.5 -109zM694 1698q0 27 10.5 53.5t29 48t44 35.5 t56.5 14q47 0 76.5 -34.5t29.5 -81.5q0 -59 -40 -102.5t-99 -43.5q-45 0 -76 32t-31 79zM1085 1700q0 25 9.5 51.5t28 48t44 35.5t60.5 14q45 0 76.5 -33.5t31.5 -80.5q0 -59 -41 -103.5t-100 -44.5q-47 0 -78 33t-31 80z" />
<glyph unicode="&#xdd;" horiz-adv-x="1286" d="M819 606l-55 -325q-6 -35 -10 -65t-4 -52q0 -47 25.5 -68.5t96.5 -21.5h27.5t32.5 2l-14 -82q-160 12 -326 12q-168 0 -365 -12l15 82q10 -2 27.5 -3t23.5 -1q43 0 69.5 7t44 29.5t27.5 63.5t23 109l57 325l-184 576q-14 37 -23.5 69.5t-23 57t-35 38t-60.5 13.5 q-8 0 -14 -1t-14 -1l14 82q78 -6 166 -9.5t164 -3.5t138.5 3.5t145.5 9.5l-14 -82q-23 2 -33 3t-30 1q-66 0 -88.5 -12.5t-22.5 -65.5q0 -16 8 -47t19 -59l90 -297q14 -37 24.5 -79t18.5 -100h12l309 472q31 47 49.5 79.5t18.5 57.5q0 31 -31 41t-98 10h-12h-8.5t-11.5 -1 t-23 -3l14 82q39 -4 71.5 -6t62.5 -3t61.5 -2.5t68.5 -1.5q39 0 65.5 1.5t50 2.5t46 3t53.5 6l-14 -82q-10 0 -17.5 1t-15.5 1q-49 0 -76.5 -10.5t-48 -34t-41 -61t-55.5 -91.5zM707 1526l-33 57q57 57 114.5 109.5t110.5 92.5t99 64.5t81 24.5q29 0 57.5 -15.5t28.5 -56.5 q0 -59 -43 -87.5t-100 -53.5z" />
<glyph unicode="&#xde;" horiz-adv-x="1243" d="M680 1139q27 2 53.5 3t54.5 1q82 0 166 -12.5t149.5 -49.5t107.5 -106.5t42 -181.5q0 -129 -55 -214t-145 -135.5t-204 -71t-231 -20.5h-75l-13 -71q-6 -35 -10 -65t-4 -52q0 -47 25.5 -68.5t97.5 -21.5h27.5t31.5 2l-14 -82q-160 12 -326 12q-168 0 -364 -12l14 82 q10 -2 27.5 -3t23.5 -1q43 0 70 7t44 29.5t27.5 63.5t22.5 109l152 872q6 35 10 64.5t4 52.5q0 47 -25.5 69.5t-97.5 22.5q-12 0 -27.5 -1t-31.5 -3l14 82q160 -12 326 -13q168 0 364 13l-14 -82q-10 2 -27.5 3t-23.5 1q-43 0 -70.5 -7t-44 -29.5t-27 -63.5t-22.5 -109z M711 1063h-23.5t-21.5 -2l-109 -629h35q84 0 148.5 31t107.5 84t64.5 127t21.5 157q0 129 -58.5 180.5t-164.5 51.5z" />
<glyph unicode="&#xdf;" horiz-adv-x="1222" d="M246 1028q18 98 48 180t87 140.5t149.5 91.5t233.5 33q92 0 152.5 -21.5t96.5 -52.5t51 -68t15 -67q0 -61 -16 -98.5t-43 -62t-61.5 -43t-73.5 -42.5q-23 -14 -47.5 -24.5t-45 -23t-32.5 -29.5t-12 -46q0 -35 20 -64.5t52 -59.5t72 -60.5t81 -69.5q31 -31 60.5 -64.5 t51 -73.5t35 -89t13.5 -111q0 -57 -27 -113.5t-76 -101.5t-121.5 -73.5t-165.5 -28.5q-43 0 -95 8t-96 28.5t-75 54.5t-31 85q0 68 37 107.5t97 39.5q72 0 102.5 -36.5t30.5 -84.5q0 -23 -7.5 -44t-7.5 -38q0 -45 54 -45q33 0 56 20.5t38.5 52.5t21.5 69t6 67 q0 78 -29.5 127t-72.5 86q-35 31 -71.5 57.5t-67.5 56.5t-51.5 65.5t-20.5 87.5q0 80 45 147.5t105 136.5q47 57 87 115.5t40 132.5q0 68 -31 92.5t-66 24.5q-86 0 -128 -84t-70 -250l-181 -1065h-299l84 471z" />
<glyph unicode="&#xe0;" horiz-adv-x="1081" d="M780 -29q-72 0 -114.5 45t-47.5 107l-6 2q-45 -63 -121.5 -108.5t-177.5 -45.5q-86 0 -142 21.5t-89 54.5t-45 73t-12 77q0 57 21.5 117.5t86 111.5t183 85t313.5 38q10 63 18 107t13.5 76t8.5 53.5t3 37.5q0 39 -20.5 64.5t-73.5 25.5q-47 0 -74 -16t-41 -41 t-18.5 -52.5t-4.5 -49.5q0 -70 -42 -105t-111 -35q-49 0 -83 34t-34 93q0 45 26.5 87t79 76t132 54.5t184.5 20.5q182 0 260 -67.5t78 -184.5q0 -20 -2 -42.5t-6 -45.5l-74 -410q-2 -10 -6 -31.5t-4 -43.5q0 -18 7 -33t27 -15q23 0 49.5 20.5t51.5 68.5l65 -37 q-27 -53 -59.5 -89t-66 -57.5t-67.5 -31t-65 -9.5zM614 475q-160 0 -230.5 -84t-70.5 -217q0 -41 17.5 -72.5t58.5 -31.5q94 0 138 76.5t67 211.5zM528 1247q-31 29 -65.5 64t-34.5 67q0 51 28.5 69.5t53.5 18.5q37 0 68.5 -26.5t61.5 -72.5t60.5 -106.5t63.5 -130.5 l-66 -43z" />
<glyph unicode="&#xe1;" horiz-adv-x="1081" d="M780 -29q-72 0 -114.5 45t-47.5 107l-6 2q-45 -63 -121.5 -108.5t-177.5 -45.5q-86 0 -142 21.5t-89 54.5t-45 73t-12 77q0 57 21.5 117.5t86 111.5t183 85t313.5 38q10 63 18 107t13.5 76t8.5 53.5t3 37.5q0 39 -20.5 64.5t-73.5 25.5q-47 0 -74 -16t-41 -41 t-18.5 -52.5t-4.5 -49.5q0 -70 -42 -105t-111 -35q-49 0 -83 34t-34 93q0 45 26.5 87t79 76t132 54.5t184.5 20.5q182 0 260 -67.5t78 -184.5q0 -20 -2 -42.5t-6 -45.5l-74 -410q-2 -10 -6 -31.5t-4 -43.5q0 -18 7 -33t27 -15q23 0 49.5 20.5t51.5 68.5l65 -37 q-27 -53 -59.5 -89t-66 -57.5t-67.5 -31t-65 -9.5zM614 475q-160 0 -230.5 -84t-70.5 -217q0 -41 17.5 -72.5t58.5 -31.5q94 0 138 76.5t67 211.5zM510 1085l-49 50q53 70 99 130t88 105t80 69.5t75 24.5q27 0 54.5 -15t27.5 -60q0 -25 -15.5 -48.5t-38 -45t-48 -40 t-48.5 -32.5z" />
<glyph unicode="&#xe2;" horiz-adv-x="1081" d="M780 -29q-72 0 -114.5 45t-47.5 107l-6 2q-45 -63 -121.5 -108.5t-177.5 -45.5q-86 0 -142 21.5t-89 54.5t-45 73t-12 77q0 57 21.5 117.5t86 111.5t183 85t313.5 38q10 63 18 107t13.5 76t8.5 53.5t3 37.5q0 39 -20.5 64.5t-73.5 25.5q-47 0 -74 -16t-41 -41 t-18.5 -52.5t-4.5 -49.5q0 -70 -42 -105t-111 -35q-49 0 -83 34t-34 93q0 45 26.5 87t79 76t132 54.5t184.5 20.5q182 0 260 -67.5t78 -184.5q0 -20 -2 -42.5t-6 -45.5l-74 -410q-2 -10 -6 -31.5t-4 -43.5q0 -18 7 -33t27 -15q23 0 49.5 20.5t51.5 68.5l65 -37 q-27 -53 -59.5 -89t-66 -57.5t-67.5 -31t-65 -9.5zM614 475q-160 0 -230.5 -84t-70.5 -217q0 -41 17.5 -72.5t58.5 -31.5q94 0 138 76.5t67 211.5zM319 1147q90 102 147.5 164.5t94.5 96.5t58.5 45t39.5 11q23 0 40.5 -9t41 -42t55 -96.5t83.5 -169.5l-68 -62l-178 203 l-256 -203z" />
<glyph unicode="&#xe3;" horiz-adv-x="1081" d="M780 -29q-72 0 -114.5 45t-47.5 107l-6 2q-45 -63 -121.5 -108.5t-177.5 -45.5q-86 0 -142 21.5t-89 54.5t-45 73t-12 77q0 57 21.5 117.5t86 111.5t183 85t313.5 38q10 63 18 107t13.5 76t8.5 53.5t3 37.5q0 39 -20.5 64.5t-73.5 25.5q-47 0 -74 -16t-41 -41 t-18.5 -52.5t-4.5 -49.5q0 -70 -42 -105t-111 -35q-49 0 -83 34t-34 93q0 45 26.5 87t79 76t132 54.5t184.5 20.5q182 0 260 -67.5t78 -184.5q0 -20 -2 -42.5t-6 -45.5l-74 -410q-2 -10 -6 -31.5t-4 -43.5q0 -18 7 -33t27 -15q23 0 49.5 20.5t51.5 68.5l65 -37 q-27 -53 -59.5 -89t-66 -57.5t-67.5 -31t-65 -9.5zM614 475q-160 0 -230.5 -84t-70.5 -217q0 -41 17.5 -72.5t58.5 -31.5q94 0 138 76.5t67 211.5zM283 1176q20 37 46.5 73.5t57.5 65t68 47t77 18.5q51 0 81 -18.5t53.5 -40t49 -39.5t70.5 -18q39 0 71 33.5t58 84.5l70 -47 q-20 -37 -43.5 -73.5t-53.5 -67.5t-69 -50.5t-90 -19.5q-41 0 -70.5 18.5t-56.5 40t-55.5 40t-67.5 18.5q-37 0 -69.5 -31.5t-55.5 -79.5z" />
<glyph unicode="&#xe4;" horiz-adv-x="1081" d="M780 -29q-72 0 -114.5 45t-47.5 107l-6 2q-45 -63 -121.5 -108.5t-177.5 -45.5q-86 0 -142 21.5t-89 54.5t-45 73t-12 77q0 57 21.5 117.5t86 111.5t183 85t313.5 38q10 63 18 107t13.5 76t8.5 53.5t3 37.5q0 39 -20.5 64.5t-73.5 25.5q-47 0 -74 -16t-41 -41 t-18.5 -52.5t-4.5 -49.5q0 -70 -42 -105t-111 -35q-49 0 -83 34t-34 93q0 45 26.5 87t79 76t132 54.5t184.5 20.5q182 0 260 -67.5t78 -184.5q0 -20 -2 -42.5t-6 -45.5l-74 -410q-2 -10 -6 -31.5t-4 -43.5q0 -18 7 -33t27 -15q23 0 49.5 20.5t51.5 68.5l65 -37 q-27 -53 -59.5 -89t-66 -57.5t-67.5 -31t-65 -9.5zM614 475q-160 0 -230.5 -84t-70.5 -217q0 -41 17.5 -72.5t58.5 -31.5q94 0 138 76.5t67 211.5zM684 1233q0 27 10.5 53.5t28.5 48t45 34.5t59 13q51 0 84 -34.5t33 -85.5q0 -59 -44 -102.5t-99 -43.5q-51 0 -84 34t-33 83z M324 1233q0 27 10 53.5t28.5 48t45 34.5t59.5 13q51 0 84 -34.5t33 -85.5q0 -59 -44 -102.5t-100 -43.5q-51 0 -83.5 34t-32.5 83z" />
<glyph unicode="&#xe5;" horiz-adv-x="1081" d="M780 -29q-72 0 -114.5 45t-47.5 107l-6 2q-45 -63 -121.5 -108.5t-177.5 -45.5q-86 0 -142 21.5t-89 54.5t-45 73t-12 77q0 57 21.5 117.5t86 111.5t183 85t313.5 38q10 63 18 107t13.5 76t8.5 53.5t3 37.5q0 39 -20.5 64.5t-73.5 25.5q-47 0 -74 -16t-41 -41 t-18.5 -52.5t-4.5 -49.5q0 -70 -42 -105t-111 -35q-49 0 -83 34t-34 93q0 45 26.5 87t79 76t132 54.5t184.5 20.5q182 0 260 -67.5t78 -184.5q0 -20 -2 -42.5t-6 -45.5l-74 -410q-2 -10 -6 -31.5t-4 -43.5q0 -18 7 -33t27 -15q23 0 49.5 20.5t51.5 68.5l65 -37 q-27 -53 -59.5 -89t-66 -57.5t-67.5 -31t-65 -9.5zM614 475q-160 0 -230.5 -84t-70.5 -217q0 -41 17.5 -72.5t58.5 -31.5q94 0 138 76.5t67 211.5zM612 1464q86 0 133.5 -54t47.5 -126q0 -76 -47.5 -129t-133.5 -53q-82 0 -131 53t-49 129q0 72 49 126t131 54zM524 1284 q0 -47 25.5 -74.5t62.5 -27.5t62.5 27.5t25.5 74.5q0 45 -25.5 70.5t-62.5 25.5t-62.5 -25.5t-25.5 -70.5z" />
<glyph unicode="&#xe6;" horiz-adv-x="1570" d="M1024 -37q-139 0 -221 49t-119 146q-55 -98 -137 -146.5t-215 -48.5q-88 0 -147.5 20.5t-94.5 53.5t-50 71.5t-15 73.5q0 27 4 64t22.5 76.5t57 78.5t109.5 71t178.5 51.5t262.5 21.5q20 102 23.5 148t3.5 75q0 61 -22.5 99t-79.5 38q-68 0 -97.5 -37t-29.5 -100 q0 -156 -176 -156q-20 0 -43 9.5t-41.5 26t-29.5 39t-11 50.5q0 39 23.5 82t75.5 79t134 58.5t201 22.5q113 0 205 -36t129 -120q43 80 130 119t179 39q59 0 115.5 -15.5t99.5 -45t69.5 -72.5t26.5 -100q0 -74 -24.5 -127.5t-83 -87t-153.5 -50t-234 -16.5h-125 q-8 -41 -11.5 -76t-3.5 -67q0 -137 45 -202t123 -65q66 0 144.5 47.5t156.5 182.5l84 -43q-68 -129 -171 -205t-267 -76zM1178 895q-59 0 -101.5 -32t-70 -82t-44 -113.5t-26.5 -124.5q100 0 164.5 20.5t101.5 55t51.5 79.5t14.5 97q0 39 -20.5 69.5t-69.5 30.5zM645 469 q-74 -2 -136.5 -16.5t-107.5 -46t-70.5 -83t-25.5 -124.5q0 -53 22.5 -97.5t82.5 -44.5q45 0 79.5 26t61.5 66.5t44 92t28 104.5z" />
<glyph unicode="&#xe7;" horiz-adv-x="980" d="M238 -319q23 -14 42 -19.5t46 -5.5q20 0 48.5 10t33.5 49q0 20 -6.5 36t-14.5 31t-14 31.5t-6 39.5q0 59 65 112q-106 6 -176 42t-112 92.5t-58 128t-16 149.5q0 137 37.5 248.5t110.5 190.5t176.5 121t232.5 42q94 0 157.5 -22.5t102.5 -56.5t56.5 -75t17.5 -77 q0 -45 -15.5 -79t-39 -55.5t-54.5 -32t-61 -10.5q-51 0 -90 29t-39 84q0 31 6 50.5t12 34.5t12 29.5t6 35.5q0 72 -67 71q-53 0 -100.5 -54t-82 -140t-54 -190.5t-19.5 -203.5q0 -143 48 -208.5t118 -65.5q72 0 150.5 61.5t137.5 178.5l82 -43q-61 -129 -152 -196t-222 -79 q-33 -37 -33 -80q0 -20 10 -38.5t23.5 -40t23.5 -48t10 -61.5q0 -63 -60 -97t-146 -34q-47 0 -89.5 10t-70.5 29z" />
<glyph unicode="&#xe8;" horiz-adv-x="1017" d="M918 248q-76 -135 -184.5 -210t-280.5 -75q-94 0 -166 31t-121 85t-74.5 128t-25.5 160q0 135 40.5 247.5t115.5 193.5t180.5 126t236.5 45q166 0 257 -70.5t91 -177.5q0 -94 -42 -147.5t-114.5 -79t-167 -33.5t-198.5 -10q-23 0 -44.5 1t-43.5 1q-12 -78 -12 -141 q0 -72 6 -123.5t26.5 -84t55 -49t94.5 -16.5q66 0 146.5 51.5t152.5 178.5zM385 535q61 0 119.5 6t104.5 33.5t75 83t29 153.5q0 45 -19.5 73.5t-64.5 28.5q-55 0 -95 -34.5t-69 -90t-48.5 -123t-31.5 -130.5zM547 1247q-31 29 -66 64t-35 67q0 51 29 69.5t53 18.5 q37 0 69 -26.5t61.5 -72.5t60.5 -106.5t63 -130.5l-65 -43z" />
<glyph unicode="&#xe9;" horiz-adv-x="1017" d="M918 248q-76 -135 -184.5 -210t-280.5 -75q-94 0 -166 31t-121 85t-74.5 128t-25.5 160q0 135 40.5 247.5t115.5 193.5t180.5 126t236.5 45q166 0 257 -70.5t91 -177.5q0 -94 -42 -147.5t-114.5 -79t-167 -33.5t-198.5 -10q-23 0 -44.5 1t-43.5 1q-12 -78 -12 -141 q0 -72 6 -123.5t26.5 -84t55 -49t94.5 -16.5q66 0 146.5 51.5t152.5 178.5zM385 535q61 0 119.5 6t104.5 33.5t75 83t29 153.5q0 45 -19.5 73.5t-64.5 28.5q-55 0 -95 -34.5t-69 -90t-48.5 -123t-31.5 -130.5zM528 1085l-49 50q53 70 99.5 130t88.5 105t79.5 69.5t74.5 24.5 q27 0 54.5 -15t27.5 -60q0 -25 -15.5 -48.5t-38 -45t-48 -40t-47.5 -32.5z" />
<glyph unicode="&#xea;" horiz-adv-x="1017" d="M918 248q-76 -135 -184.5 -210t-280.5 -75q-94 0 -166 31t-121 85t-74.5 128t-25.5 160q0 135 40.5 247.5t115.5 193.5t180.5 126t236.5 45q166 0 257 -70.5t91 -177.5q0 -94 -42 -147.5t-114.5 -79t-167 -33.5t-198.5 -10q-23 0 -44.5 1t-43.5 1q-12 -78 -12 -141 q0 -72 6 -123.5t26.5 -84t55 -49t94.5 -16.5q66 0 146.5 51.5t152.5 178.5zM385 535q61 0 119.5 6t104.5 33.5t75 83t29 153.5q0 45 -19.5 73.5t-64.5 28.5q-55 0 -95 -34.5t-69 -90t-48.5 -123t-31.5 -130.5zM338 1147q90 102 147.5 164.5t94 96.5t58 45t40.5 11 q23 0 40 -9t40.5 -42t55.5 -96.5t83 -169.5l-68 -62l-178 203l-256 -203z" />
<glyph unicode="&#xeb;" horiz-adv-x="1017" d="M918 248q-76 -135 -184.5 -210t-280.5 -75q-94 0 -166 31t-121 85t-74.5 128t-25.5 160q0 135 40.5 247.5t115.5 193.5t180.5 126t236.5 45q166 0 257 -70.5t91 -177.5q0 -94 -42 -147.5t-114.5 -79t-167 -33.5t-198.5 -10q-23 0 -44.5 1t-43.5 1q-12 -78 -12 -141 q0 -72 6 -123.5t26.5 -84t55 -49t94.5 -16.5q66 0 146.5 51.5t152.5 178.5zM385 535q61 0 119.5 6t104.5 33.5t75 83t29 153.5q0 45 -19.5 73.5t-64.5 28.5q-55 0 -95 -34.5t-69 -90t-48.5 -123t-31.5 -130.5zM692 1233q0 27 10.5 53.5t29 48t45 34.5t59.5 13 q51 0 83.5 -34.5t32.5 -85.5q0 -59 -44 -102.5t-99 -43.5q-51 0 -84 34t-33 83zM332 1233q0 27 10 53.5t28.5 48t45 34.5t59.5 13q51 0 84 -34.5t33 -85.5q0 -59 -44 -102.5t-99 -43.5q-51 0 -84 34t-33 83z" />
<glyph unicode="&#xec;" horiz-adv-x="653" d="M444 309q-4 -23 -8 -47t-8 -49t-7 -45.5t-3 -30.5q0 -41 20.5 -54t71.5 -13q12 0 25.5 1t29.5 3l-14 -78q-39 2 -86 6t-84 4q-78 0 -144.5 -4t-140.5 -10l125 680q10 47 13.5 79.5t3.5 61.5q0 35 -20.5 45t-67.5 10q-12 0 -29 -1t-33 -3l14 82q18 -2 47 -4t58 -3t56.5 -2 t45.5 -1q39 0 69 2t57.5 5t57 8t68.5 12zM338 1247q-31 29 -65.5 64t-34.5 67q0 51 28.5 69.5t52.5 18.5q37 0 69 -26.5t61.5 -72.5t60.5 -106.5t63 -130.5l-65 -43z" />
<glyph unicode="&#xed;" horiz-adv-x="653" d="M444 309q-4 -23 -8 -47t-8 -49t-7 -45.5t-3 -30.5q0 -41 20.5 -54t71.5 -13q12 0 25.5 1t29.5 3l-14 -78q-39 2 -86 6t-84 4q-78 0 -144.5 -4t-140.5 -10l125 680q10 47 13.5 79.5t3.5 61.5q0 35 -20.5 45t-67.5 10q-12 0 -29 -1t-33 -3l14 82q18 -2 47 -4t58 -3t56.5 -2 t45.5 -1q39 0 69 2t57.5 5t57 8t68.5 12zM340 1085l-49 50q53 70 99 130t88 105t80 69.5t75 24.5q27 0 54.5 -15t27.5 -60q0 -25 -15.5 -48.5t-38 -45t-48 -40t-48.5 -32.5z" />
<glyph unicode="&#xee;" horiz-adv-x="653" d="M444 309q-4 -23 -8 -47t-8 -49t-7 -45.5t-3 -30.5q0 -41 20.5 -54t71.5 -13q12 0 25.5 1t29.5 3l-14 -78q-39 2 -86 6t-84 4q-78 0 -144.5 -4t-140.5 -10l125 680q10 47 13.5 79.5t3.5 61.5q0 35 -20.5 45t-67.5 10q-12 0 -29 -1t-33 -3l14 82q18 -2 47 -4t58 -3t56.5 -2 t45.5 -1q39 0 69 2t57.5 5t57 8t68.5 12zM129 1147q90 102 147.5 164.5t94.5 96.5t58.5 45t39.5 11q23 0 40 -9t40.5 -42t55.5 -96.5t83 -169.5l-67 -62l-179 203l-256 -203z" />
<glyph unicode="&#xef;" horiz-adv-x="653" d="M444 309q-4 -23 -8 -47t-8 -49t-7 -45.5t-3 -30.5q0 -41 20.5 -54t71.5 -13q12 0 25.5 1t29.5 3l-14 -78q-39 2 -86 6t-84 4q-78 0 -144.5 -4t-140.5 -10l125 680q10 47 13.5 79.5t3.5 61.5q0 35 -20.5 45t-67.5 10q-12 0 -29 -1t-33 -3l14 82q18 -2 47 -4t58 -3t56.5 -2 t45.5 -1q39 0 69 2t57.5 5t57 8t68.5 12zM506 1233q0 27 10 53.5t28.5 48t45 34.5t59.5 13q51 0 84 -34.5t33 -85.5q0 -59 -44 -102.5t-99 -43.5q-51 0 -84 34t-33 83zM145 1233q0 27 10.5 53.5t29 48t45 34.5t59.5 13q51 0 84 -34.5t33 -85.5q0 -59 -44.5 -102.5 t-99.5 -43.5q-51 0 -84 34t-33 83z" />
<glyph unicode="&#xf0;" horiz-adv-x="1120" d="M942 1470l53 -94l-170 -96q98 -158 163 -333t65 -367q0 -160 -49.5 -277t-129 -192.5t-180 -111.5t-202.5 -36q-109 0 -188 36t-132 95.5t-78.5 137t-25.5 163.5q0 109 34.5 210.5t98 178t151.5 122.5t195 46q41 0 86 -5t92 -27l4 12q-29 33 -48 59.5t-44 63.5l-53 98 l-156 -88l-57 92l151 82l-119 195q37 0 79 4t82 10t76 13t60 14l64 -103zM500 39q59 0 101 40t69.5 101.5t45 134t26 138t11.5 113.5t3 61q0 100 -30 168.5t-110 68.5q-72 0 -121 -60.5t-77.5 -148.5t-40.5 -189t-12 -183q0 -47 6 -91.5t21.5 -78t41 -54t66.5 -20.5z" />
<glyph unicode="&#xf1;" horiz-adv-x="1202" d="M500 791q47 86 121.5 134t191.5 48q72 0 122 -18.5t82 -51.5t46 -75t14 -87q0 -41 -5 -84t-11 -84l-55 -321q-6 -39 -11.5 -66.5t-5.5 -48.5q0 -39 24.5 -53t71.5 -14q12 0 20.5 1t24.5 3l-14 -78q-39 4 -95 6t-93 2q-78 0 -133.5 -5t-128.5 -11l102 579 q12 68 21.5 130.5t9.5 103.5t-18.5 60.5t-61.5 19.5q-27 0 -58.5 -15.5t-65.5 -59.5t-64.5 -123t-53.5 -206l-86 -477h-293l125 702q12 63 13 105q0 29 -11.5 47t-54.5 18h-33.5t-42.5 -4l15 78q29 -2 81 -5t80 -3q37 0 64.5 1t53.5 3t52.5 7t63.5 14q0 -23 -1 -40.5t-3 -36 t-4 -41t-7 -52.5zM397 1176q20 37 47 73.5t57.5 65t67.5 47t78 18.5q51 0 81 -18.5t53.5 -40t49 -39.5t70.5 -18q39 0 71 33.5t58 84.5l70 -47q-20 -37 -44 -73.5t-53.5 -67.5t-68.5 -50.5t-90 -19.5q-41 0 -71 18.5t-56.5 40t-55 40t-67.5 18.5q-37 0 -69.5 -31.5 t-55.5 -79.5z" />
<glyph unicode="&#xf2;" horiz-adv-x="1128" d="M496 -37q-201 0 -314.5 113.5t-113.5 306.5q0 133 41 242.5t115.5 188.5t178 122t230.5 43q201 0 315.5 -113.5t114.5 -306.5q0 -133 -41 -242.5t-117 -188.5t-180 -122t-229 -43zM494 27q59 0 108 55t85 146t55.5 207t19.5 239q0 113 -31 177t-100 64q-59 0 -107.5 -55 t-83 -146t-53 -207t-18.5 -239q0 -113 29.5 -177t95.5 -64zM602 1247q-31 29 -65.5 64t-34.5 67q0 51 28.5 69.5t53.5 18.5q37 0 68.5 -26.5t61 -72.5t60.5 -106.5t64 -130.5l-66 -43z" />
<glyph unicode="&#xf3;" horiz-adv-x="1128" d="M496 -37q-201 0 -314.5 113.5t-113.5 306.5q0 133 41 242.5t115.5 188.5t178 122t230.5 43q201 0 315.5 -113.5t114.5 -306.5q0 -133 -41 -242.5t-117 -188.5t-180 -122t-229 -43zM494 27q59 0 108 55t85 146t55.5 207t19.5 239q0 113 -31 177t-100 64q-59 0 -107.5 -55 t-83 -146t-53 -207t-18.5 -239q0 -113 29.5 -177t95.5 -64zM584 1085l-49 50q53 70 99 130t88 105t80 69.5t75 24.5q27 0 54 -15t27 -60q0 -25 -15 -48.5t-37.5 -45t-48.5 -40t-48 -32.5z" />
<glyph unicode="&#xf4;" horiz-adv-x="1128" d="M496 -37q-201 0 -314.5 113.5t-113.5 306.5q0 133 41 242.5t115.5 188.5t178 122t230.5 43q201 0 315.5 -113.5t114.5 -306.5q0 -133 -41 -242.5t-117 -188.5t-180 -122t-229 -43zM494 27q59 0 108 55t85 146t55.5 207t19.5 239q0 113 -31 177t-100 64q-59 0 -107.5 -55 t-83 -146t-53 -207t-18.5 -239q0 -113 29.5 -177t95.5 -64zM385 1147q90 102 147.5 164.5t94.5 96.5t58.5 45t39.5 11q23 0 40 -9t40.5 -42t55.5 -96.5t83 -169.5l-67 -62l-179 203l-256 -203z" />
<glyph unicode="&#xf5;" horiz-adv-x="1128" d="M496 -37q-201 0 -314.5 113.5t-113.5 306.5q0 133 41 242.5t115.5 188.5t178 122t230.5 43q201 0 315.5 -113.5t114.5 -306.5q0 -133 -41 -242.5t-117 -188.5t-180 -122t-229 -43zM494 27q59 0 108 55t85 146t55.5 207t19.5 239q0 113 -31 177t-100 64q-59 0 -107.5 -55 t-83 -146t-53 -207t-18.5 -239q0 -113 29.5 -177t95.5 -64zM348 1176q20 37 47 73.5t57.5 65t67.5 47t78 18.5q51 0 81 -18.5t53.5 -40t49 -39.5t70.5 -18q39 0 70.5 33.5t58.5 84.5l70 -47q-20 -37 -44 -73.5t-53.5 -67.5t-68.5 -50.5t-90 -19.5q-41 0 -71 18.5t-56.5 40 t-55 40t-67.5 18.5q-37 0 -70 -31.5t-55 -79.5z" />
<glyph unicode="&#xf6;" horiz-adv-x="1128" d="M496 -37q-201 0 -314.5 113.5t-113.5 306.5q0 133 41 242.5t115.5 188.5t178 122t230.5 43q201 0 315.5 -113.5t114.5 -306.5q0 -133 -41 -242.5t-117 -188.5t-180 -122t-229 -43zM494 27q59 0 108 55t85 146t55.5 207t19.5 239q0 113 -31 177t-100 64q-59 0 -107.5 -55 t-83 -146t-53 -207t-18.5 -239q0 -113 29.5 -177t95.5 -64zM743 1233q0 27 10.5 53.5t29 48t45 34.5t59.5 13q51 0 84 -34.5t33 -85.5q0 -59 -44.5 -102.5t-99.5 -43.5q-51 0 -84 34t-33 83zM383 1233q0 27 10 53.5t28.5 48t45.5 34.5t59 13q51 0 84 -34.5t33 -85.5 q0 -59 -44 -102.5t-99 -43.5q-51 0 -84 34t-33 83z" />
<glyph unicode="&#xf7;" d="M410 219q0 47 31.5 78t78.5 31t78 -31t31 -78t-31 -78.5t-78 -31.5t-78.5 31.5t-31.5 78.5zM410 795q0 47 31.5 77.5t78.5 30.5t78 -30.5t31 -77.5t-31 -79t-78 -32t-78.5 32t-31.5 79zM985 553v-90h-930v90h930z" />
<glyph unicode="&#xf8;" horiz-adv-x="1138" d="M500 -37q-92 0 -165 24.5t-126 67.5l-158 -147l-59 57l160 150q-80 104 -80 268q0 133 41 242.5t115.5 188.5t178 122t230.5 43q98 0 178 -29.5t135 -83.5l135 129l60 -57l-144 -135q66 -100 66 -244q0 -133 -41 -242.5t-116.5 -188.5t-180 -122t-229.5 -43zM635 915 q-55 0 -102.5 -49t-81 -131t-54 -188.5t-24.5 -220.5l393 368q-4 104 -34.5 162.5t-96.5 58.5zM498 27q53 0 98 45t80 121.5t57.5 176t28.5 208.5l-387 -365q6 -88 36 -137t87 -49z" />
<glyph unicode="&#xf9;" horiz-adv-x="1193" d="M700 147q-47 -86 -123.5 -130t-193.5 -44q-72 0 -121 18.5t-79.5 51.5t-44 74t-13.5 88q0 41 4 80t12 80l56 311q8 43 14 74.5t6 54.5q0 41 -16.5 54t-67.5 13q-12 0 -25.5 -1t-29.5 -3l14 78q39 -2 82 -6t80 -4q78 0 143.5 4t139.5 10l-103 -585q-12 -68 -24.5 -123.5 t-12.5 -96.5q0 -86 86 -86q25 0 57.5 14.5t66.5 56.5t64.5 120t53.5 205l86 487h293l-125 -704q-6 -33 -11 -59.5t-5 -47.5q0 -29 15 -45t58 -16h33.5t42.5 4l-12 -78q-29 2 -53.5 4t-53.5 2q-76 0 -149.5 -7t-147.5 -24q2 45 4 80t13 96h-13zM674 1247q-31 29 -66 64 t-35 67q0 51 29 69.5t53 18.5q37 0 69 -26.5t61.5 -72.5t60.5 -106.5t63 -130.5l-65 -43z" />
<glyph unicode="&#xfa;" horiz-adv-x="1193" d="M700 147q-47 -86 -123.5 -130t-193.5 -44q-72 0 -121 18.5t-79.5 51.5t-44 74t-13.5 88q0 41 4 80t12 80l56 311q8 43 14 74.5t6 54.5q0 41 -16.5 54t-67.5 13q-12 0 -25.5 -1t-29.5 -3l14 78q39 -2 82 -6t80 -4q78 0 143.5 4t139.5 10l-103 -585q-12 -68 -24.5 -123.5 t-12.5 -96.5q0 -86 86 -86q25 0 57.5 14.5t66.5 56.5t64.5 120t53.5 205l86 487h293l-125 -704q-6 -33 -11 -59.5t-5 -47.5q0 -29 15 -45t58 -16h33.5t42.5 4l-12 -78q-29 2 -53.5 4t-53.5 2q-76 0 -149.5 -7t-147.5 -24q2 45 4 80t13 96h-13zM614 1085l-49 50 q53 70 99.5 130t88.5 105t79.5 69.5t74.5 24.5q27 0 54.5 -15t27.5 -60q0 -25 -15.5 -48.5t-38 -45t-48 -40t-47.5 -32.5z" />
<glyph unicode="&#xfb;" horiz-adv-x="1193" d="M700 147q-47 -86 -123.5 -130t-193.5 -44q-72 0 -121 18.5t-79.5 51.5t-44 74t-13.5 88q0 41 4 80t12 80l56 311q8 43 14 74.5t6 54.5q0 41 -16.5 54t-67.5 13q-12 0 -25.5 -1t-29.5 -3l14 78q39 -2 82 -6t80 -4q78 0 143.5 4t139.5 10l-103 -585q-12 -68 -24.5 -123.5 t-12.5 -96.5q0 -86 86 -86q25 0 57.5 14.5t66.5 56.5t64.5 120t53.5 205l86 487h293l-125 -704q-6 -33 -11 -59.5t-5 -47.5q0 -29 15 -45t58 -16h33.5t42.5 4l-12 -78q-29 2 -53.5 4t-53.5 2q-76 0 -149.5 -7t-147.5 -24q2 45 4 80t13 96h-13zM414 1147q90 102 147 164.5 t94 96.5t58.5 45t40.5 11q23 0 40 -9t40.5 -42t55.5 -96.5t83 -169.5l-68 -62l-178 203l-256 -203z" />
<glyph unicode="&#xfc;" horiz-adv-x="1193" d="M700 147q-47 -86 -123.5 -130t-193.5 -44q-72 0 -121 18.5t-79.5 51.5t-44 74t-13.5 88q0 41 4 80t12 80l56 311q8 43 14 74.5t6 54.5q0 41 -16.5 54t-67.5 13q-12 0 -25.5 -1t-29.5 -3l14 78q39 -2 82 -6t80 -4q78 0 143.5 4t139.5 10l-103 -585q-12 -68 -24.5 -123.5 t-12.5 -96.5q0 -86 86 -86q25 0 57.5 14.5t66.5 56.5t64.5 120t53.5 205l86 487h293l-125 -704q-6 -33 -11 -59.5t-5 -47.5q0 -29 15 -45t58 -16h33.5t42.5 4l-12 -78q-29 2 -53.5 4t-53.5 2q-76 0 -149.5 -7t-147.5 -24q2 45 4 80t13 96h-13zM774 1233q0 27 10.5 53.5 t28.5 48t45 34.5t60 13q51 0 83.5 -34.5t32.5 -85.5q0 -59 -44 -102.5t-99 -43.5q-51 0 -84 34t-33 83zM414 1233q0 27 10 53.5t28.5 48t45 34.5t59.5 13q51 0 84 -34.5t33 -85.5q0 -59 -44 -102.5t-100 -43.5q-51 0 -83.5 34t-32.5 83z" />
<glyph unicode="&#xfd;" horiz-adv-x="1040" d="M541 1092l-49 49q53 70 99 131t88 108t80 75t75 28q27 0 54 -15.5t27 -60.5q0 -25 -15 -48.5t-37.5 -45t-48.5 -40t-48 -32.5zM367 -29l-119 604q-18 96 -31.5 152.5t-28 86.5t-31 38t-40.5 8h-26.5t-31.5 -2l17 88q47 -4 76.5 -6t64.5 -2q61 0 122.5 2t147.5 16 q4 -119 17.5 -213t30 -171.5t32 -145.5t21.5 -133l205 321q29 45 56.5 98.5t27.5 92.5q0 31 -23 45t-78 14q-23 0 -54.5 -2t-59.5 -6l12 88q41 -4 81 -7t76 -3q53 0 104.5 6t125.5 16q-2 -31 -28.5 -89t-72 -136t-103.5 -171t-121.5 -193.5t-129 -203t-125.5 -198.5 q-78 -127 -131 -211t-96 -133t-85 -69.5t-99 -20.5q-63 0 -94 39t-31 86q0 51 35.5 96t107.5 45q43 0 66.5 -12t50.5 -12q23 0 59.5 35.5t67.5 87.5z" />
<glyph unicode="&#xfe;" horiz-adv-x="1148" d="M508 850q49 63 102.5 93t149.5 30q147 0 235 -100.5t88 -305.5q0 -129 -41 -238.5t-111.5 -189.5t-162.5 -125t-193 -45q-78 0 -135 23.5t-98 77.5l-10 -2q10 -47 10 -86q0 -51 -10 -103q-14 -76 -21.5 -118t-10.5 -62.5t-4 -24.5t-1 -6q0 -29 24.5 -41t55.5 -12 q12 0 32.5 1t61.5 5l-14 -82q-51 4 -103.5 7t-105.5 3q-70 0 -136.5 -5t-127.5 -15l284 1624q10 49 15.5 92t5.5 62q0 35 -21.5 46t-68.5 11q-12 0 -28.5 -1t-33.5 -3l15 78q39 -4 78.5 -5t76.5 -1q78 0 152.5 5t152.5 19l-82 -479q-4 -29 -13 -61.5t-21 -61.5zM799 682 q0 92 -21.5 151.5t-81.5 59.5q-47 0 -98 -51t-94 -137.5t-72 -200t-29 -238.5q0 -96 25 -161.5t90 -65.5q66 0 118 64.5t88 161.5t55.5 209t19.5 208z" />
<glyph unicode="&#xff;" horiz-adv-x="1040" d="M367 -29l-119 604q-18 96 -31.5 152.5t-28 86.5t-31 38t-40.5 8h-26.5t-31.5 -2l17 88q47 -4 76.5 -6t64.5 -2q61 0 122.5 2t147.5 16q4 -119 17.5 -213t30 -171.5t32 -145.5t21.5 -133l205 321q29 45 56.5 98.5t27.5 92.5q0 31 -23 45t-78 14q-23 0 -54.5 -2t-59.5 -6 l12 88q41 -4 81 -7t76 -3q53 0 104.5 6t125.5 16q-2 -31 -28.5 -89t-72 -136t-103.5 -171t-121.5 -193.5t-129 -203t-125.5 -198.5q-78 -127 -131 -211t-96 -133t-85 -69.5t-99 -20.5q-63 0 -94 39t-31 86q0 51 35.5 96t107.5 45q43 0 66.5 -12t50.5 -12q23 0 59.5 35.5 t67.5 87.5zM702 1233q0 27 10.5 53.5t29 48t45 34.5t59.5 13q51 0 84 -34.5t33 -85.5q0 -59 -44.5 -102.5t-99.5 -43.5q-51 0 -84 34t-33 83zM342 1233q0 27 10 53.5t28.5 48t45.5 34.5t59 13q51 0 84 -34.5t33 -85.5q0 -59 -44 -102.5t-99 -43.5q-51 0 -84 34t-33 83z" />
<glyph unicode="&#x104;" horiz-adv-x="1421" d="M1212 211q16 -66 40 -101.5t79 -35.5h17.5t19.5 2l-14 -82q-49 6 -101 6q-78 -47 -116.5 -121t-38.5 -137q0 -39 21.5 -64.5t72.5 -25.5q18 0 41.5 5t52.5 19l23 -79q-33 -16 -78 -24.5t-78 -8.5q-98 0 -152.5 47t-54.5 117q0 78 52.5 148.5t140.5 127.5h-101 q-76 0 -155.5 -2t-163.5 -8l14 82q16 -2 35.5 -4t42.5 -2q35 0 64.5 13t29.5 58q0 23 -4 44.5t-8 45.5l-57 271h-455l-129 -246q-39 -72 -39 -115q0 -70 102 -69q14 0 29.5 1t32.5 3l-15 -82q-41 2 -70.5 4t-58 4t-58.5 2h-66h-66t-50.5 -2t-46 -4t-52.5 -4l14 82 q10 -2 29 -2q45 0 76.5 18.5t57 52t50 81.5t57.5 108l617 1136h125zM422 584h393l-51 233q-14 59 -29.5 138t-21.5 147h-11z" />
<glyph unicode="&#x105;" horiz-adv-x="1081" d="M1038 158q-25 -49 -54.5 -83t-59.5 -57l8 -6q-43 -23 -76 -55.5t-55.5 -69.5t-33.5 -74.5t-11 -70.5q0 -39 21.5 -64.5t72.5 -25.5q18 0 41.5 5t52.5 19l23 -79q-33 -16 -78 -24.5t-78 -8.5q-98 0 -152.5 47t-54.5 117q0 68 40 130t110 115q-59 10 -95 51.5t-41 98.5 l-6 2q-45 -63 -121.5 -108.5t-177.5 -45.5q-86 0 -142 21.5t-89 54.5t-45 73t-12 77q0 57 21.5 117.5t86 111.5t183 85t313.5 38q10 63 18 107t13.5 76t8.5 53.5t3 37.5q0 39 -20.5 64.5t-73.5 25.5q-47 0 -74 -16t-41 -41t-18.5 -52.5t-4.5 -49.5q0 -70 -42 -105t-111 -35 q-49 0 -83 34t-34 93q0 45 26.5 87t79 76t132 54.5t184.5 20.5q182 0 260 -67.5t78 -184.5q0 -20 -2 -42.5t-6 -45.5l-74 -410q-2 -10 -6 -31.5t-4 -43.5q0 -18 7 -33t27 -15q23 0 49.5 20.5t51.5 68.5zM614 475q-160 0 -230.5 -84t-70.5 -217q0 -41 17.5 -72.5t58.5 -31.5 q94 0 138 76.5t67 211.5z" />
<glyph unicode="&#x106;" horiz-adv-x="1271" d="M1317 1419q-10 -51 -17.5 -95t-12.5 -90t-8 -97.5t-3 -114.5h-94q4 20 4 41.5v38.5q0 82 -21.5 138t-58.5 91t-86 49.5t-102 14.5q-100 0 -185.5 -55.5t-148 -163t-98 -265t-35.5 -364.5q0 -111 17 -202t54 -155.5t96.5 -100.5t143.5 -36q129 0 224 75t151 191l90 -43 q-92 -168 -212 -240.5t-278 -72.5q-293 0 -454.5 164t-161.5 475q0 211 58.5 373t164 272.5t251.5 166.5t325 56q133 0 235.5 -17.5t161.5 -33.5zM756 1526l-33 57q57 57 114.5 109.5t110.5 92.5t99.5 64.5t80.5 24.5q29 0 57.5 -15.5t28.5 -56.5q0 -59 -43 -87.5 t-100 -53.5z" />
<glyph unicode="&#x107;" horiz-adv-x="980" d="M911 240q-68 -141 -172 -209t-260 -68q-121 0 -199.5 34t-124.5 91t-65.5 132t-19.5 157q0 137 37.5 248.5t110.5 190.5t176.5 121t232.5 42q94 0 157.5 -22.5t102.5 -56.5t56.5 -75t17.5 -77q0 -45 -15.5 -79t-39 -55.5t-54.5 -32t-61 -10.5q-51 0 -90 29t-39 84 q0 31 6 50.5t12 34.5t12 29.5t6 35.5q0 72 -67 71q-53 0 -100.5 -54t-82 -140t-54 -190.5t-19.5 -203.5q0 -143 48 -208.5t118 -65.5q72 0 150.5 61.5t137.5 178.5zM547 1085l-49 50q53 70 99 130t88 105t80 69.5t75 24.5q27 0 54.5 -15t27.5 -60q0 -25 -15.5 -48.5t-38 -45 t-48 -40t-48.5 -32.5z" />
<glyph unicode="&#x10c;" horiz-adv-x="1271" d="M1317 1419q-10 -51 -17.5 -95t-12.5 -90t-8 -97.5t-3 -114.5h-94q4 20 4 41.5v38.5q0 82 -21.5 138t-58.5 91t-86 49.5t-102 14.5q-100 0 -185.5 -55.5t-148 -163t-98 -265t-35.5 -364.5q0 -111 17 -202t54 -155.5t96.5 -100.5t143.5 -36q129 0 224 75t151 191l90 -43 q-92 -168 -212 -240.5t-278 -72.5q-293 0 -454.5 164t-161.5 475q0 211 58.5 373t164 272.5t251.5 166.5t325 56q133 0 235.5 -17.5t161.5 -33.5zM1210 1819l-190 -199q-51 -53 -80 -75.5t-63 -22.5q-33 0 -57.5 29.5t-67.5 88.5l-127 179l55 55l219 -188l260 188z" />
<glyph unicode="&#x10d;" horiz-adv-x="980" d="M911 240q-68 -141 -172 -209t-260 -68q-121 0 -199.5 34t-124.5 91t-65.5 132t-19.5 157q0 137 37.5 248.5t110.5 190.5t176.5 121t232.5 42q94 0 157.5 -22.5t102.5 -56.5t56.5 -75t17.5 -77q0 -45 -15.5 -79t-39 -55.5t-54.5 -32t-61 -10.5q-51 0 -90 29t-39 84 q0 31 6 50.5t12 34.5t12 29.5t6 35.5q0 72 -67 71q-53 0 -100.5 -54t-82 -140t-54 -190.5t-19.5 -203.5q0 -143 48 -208.5t118 -65.5q72 0 150.5 61.5t137.5 178.5zM942 1403q-90 -102 -147.5 -164.5t-94 -96.5t-58 -45.5t-40.5 -11.5q-23 0 -40 9.5t-40.5 42t-55.5 96 t-83 170.5l68 61l178 -202l256 202z" />
<glyph unicode="&#x10e;" horiz-adv-x="1529" d="M8 76q10 -2 27.5 -3t23.5 -1q43 0 70 7t44 29.5t27.5 63.5t22.5 109l152 874q6 35 10 64.5t4 52.5q0 47 -25.5 68.5t-97.5 21.5h-27.5t-31.5 -2l16 82q43 -4 77 -7t70 -4t81 -1h108q66 0 138.5 6t187.5 6q147 0 262 -41t193.5 -116t118.5 -180.5t40 -236.5 q0 -233 -64.5 -399t-179 -271.5t-273.5 -154.5t-347 -49q-33 0 -61.5 1t-62.5 3t-76 3t-101 1q-61 0 -143 -2t-199 -6zM651 82q111 0 194 40t141 108.5t95 156.5t58.5 185.5t30 194.5t8.5 183q0 70 -11.5 142.5t-46.5 130t-97 94.5t-167 37q-43 0 -70.5 -8.5t-47 -31 t-32 -61.5t-22.5 -98l-152 -874q-4 -29 -9 -53.5t-5 -47.5q0 -55 28.5 -76.5t104.5 -21.5zM1296 1819l-190 -199q-51 -53 -80 -75.5t-63 -22.5q-33 0 -57.5 29.5t-67.5 88.5l-127 179l55 55l219 -188l260 188z" />
<glyph unicode="&#x10f;" horiz-adv-x="1210" d="M575 969q82 0 140.5 -20.5t99.5 -74.5l10 3q-6 23 -8 45t-2 45q0 86 18.5 162.5t32.5 156.5q2 10 2 11v6q0 33 -24.5 46t-55.5 13q-12 0 -32.5 -1t-61.5 -5l15 82q51 -4 103 -7.5t106 -3.5q70 0 134 8.5t126 18.5l-207 -1175q-6 -33 -12.5 -73t-6.5 -59q0 -45 14.5 -58 t51.5 -13q23 0 44 2t38 4l-15 -82q-39 4 -70.5 5t-66.5 1q-66 0 -134.5 -4t-143.5 -20q4 45 8 78.5t8 64.5l-8 4q-53 -68 -121 -112t-166 -44q-147 0 -234 99.5t-87 304.5q0 137 41 246.5t110.5 186.5t160.5 118t193 41zM356 262q4 -90 24.5 -150.5t80.5 -60.5q45 0 97 51.5 t95 137.5t72 199.5t29 238.5q0 98 -28 159.5t-93 61.5q-43 0 -81 -29.5t-68.5 -79t-54 -115t-40 -136t-25 -142.5t-8.5 -135zM1245 1352q0 63 34 90.5t81 27.5q66 0 93.5 -42t27.5 -99q0 -63 -20.5 -111.5t-56.5 -85t-85 -65.5t-109 -55l-39 78q16 6 42 17t50.5 26.5t42 36 t17.5 44.5q0 16 -12.5 29.5t-26.5 27t-26.5 33t-12.5 48.5z" />
<glyph unicode="&#x118;" horiz-adv-x="1265" d="M8 76q10 -2 27.5 -3t23.5 -1q43 0 70 7t44 29.5t27.5 63.5t22.5 109l152 872q6 35 10 64.5t4 52.5q0 47 -25.5 68.5t-97.5 21.5h-27.5t-31.5 -2l18 84q135 -10 240.5 -12.5t204.5 -2.5q72 0 141.5 1.5t143 3.5t154.5 4t175 4q-10 -55 -16 -99.5t-10.5 -87.5t-6.5 -89 t-2 -107h-86q6 61 6 104q0 63 -13 101t-39.5 58.5t-63.5 26t-82 5.5q-74 0 -123 -4.5t-82 -22.5t-51.5 -58t-30.5 -114l-63 -367h94q59 0 99 12.5t65.5 39t40 64.5t20.5 91h90q-41 -145 -60.5 -265t-25.5 -243h-98q8 35 13 65t5 52q0 35 -12 55.5t-41 31.5t-78 15.5 t-125 4.5q-29 -162 -44 -250t-23.5 -129t-9.5 -50l-1 -8q-6 -29 -10 -54t-4 -46q0 -59 55.5 -74.5t171.5 -15.5q68 0 123.5 8t99.5 41t75.5 99.5t54.5 181.5l94 -15q-18 -61 -32.5 -110t-25 -95.5t-19.5 -93.5t-19 -104q-25 2 -49.5 3t-49.5 1q-74 -47 -111.5 -120 t-37.5 -136q0 -39 21.5 -64.5t72.5 -25.5q18 0 42 5t52 19l23 -79q-33 -16 -78 -24.5t-78 -8.5q-98 0 -152.5 47t-54.5 117q0 78 52.5 147.5t138.5 124.5q-104 4 -201.5 5t-200.5 1h-104t-121.5 -1t-132.5 -4t-133 -7z" />
<glyph unicode="&#x119;" horiz-adv-x="1019" d="M918 248q-35 -63 -77 -113.5t-93 -87.5l8 -6q-43 -23 -76 -55.5t-55.5 -69.5t-33.5 -75t-11 -70q0 -39 21.5 -64.5t72.5 -25.5q18 0 41.5 5t52.5 19l23 -80q-33 -16 -78 -24.5t-78 -8.5q-98 0 -152.5 47.5t-54.5 116.5q0 57 28.5 111.5t82.5 101.5q-41 -6 -86 -6 q-94 0 -166 31t-121 85t-74.5 128t-25.5 160q0 135 40.5 247.5t115.5 193.5t180.5 126t236.5 45q166 0 257 -70.5t91 -177.5q0 -94 -42 -147.5t-114.5 -79t-167 -33.5t-198.5 -10q-23 0 -44.5 1t-43.5 1q-12 -78 -12 -141q0 -72 6 -123.5t26.5 -84t55 -49t94.5 -16.5 q66 0 146.5 51.5t152.5 178.5zM385 535q61 0 119.5 6t104.5 33.5t75 83t29 153.5q0 45 -19.5 73.5t-64.5 28.5q-55 0 -95 -34.5t-69 -90t-48.5 -123t-31.5 -130.5z" />
<glyph unicode="&#x11a;" horiz-adv-x="1265" d="M8 76q10 -2 27.5 -3t23.5 -1q43 0 70 7t44 29.5t27.5 63.5t22.5 109l152 872q6 35 10 64.5t4 52.5q0 47 -25.5 68.5t-97.5 21.5h-27.5t-31.5 -2l18 84q135 -10 240.5 -12.5t204.5 -2.5q72 0 141.5 1.5t143 3.5t154.5 4t175 4q-10 -55 -16 -99.5t-10.5 -87.5t-6.5 -89 t-2 -107h-86q6 61 6 104q0 63 -13 101t-39.5 58.5t-63.5 26t-82 5.5q-74 0 -123 -4.5t-82 -22.5t-51.5 -58t-30.5 -114l-63 -367h94q59 0 99 12.5t65.5 39t40 64.5t20.5 91h90q-41 -145 -60.5 -265t-25.5 -243h-98q8 35 13 65t5 52q0 35 -12 55.5t-41 31.5t-78 15.5 t-125 4.5q-29 -162 -44 -250t-23.5 -129t-9.5 -50l-1 -8q-6 -29 -10 -54t-4 -46q0 -59 55.5 -74.5t171.5 -15.5q68 0 123.5 8t99.5 41t75.5 99.5t54.5 181.5l94 -15q-18 -61 -32.5 -110t-25 -95.5t-19.5 -93.5t-19 -104q-162 6 -309.5 9t-301.5 3h-104t-121.5 -1t-132.5 -4 t-133 -7zM1161 1819l-190 -199q-51 -53 -80 -75.5t-64 -22.5q-33 0 -57.5 29.5t-67.5 88.5l-127 179l56 55l219 -188l260 188z" />
<glyph unicode="&#x11b;" horiz-adv-x="1017" d="M918 248q-76 -135 -184.5 -210t-280.5 -75q-94 0 -166 31t-121 85t-74.5 128t-25.5 160q0 135 40.5 247.5t115.5 193.5t180.5 126t236.5 45q166 0 257 -70.5t91 -177.5q0 -94 -42 -147.5t-114.5 -79t-167 -33.5t-198.5 -10q-23 0 -44.5 1t-43.5 1q-12 -78 -12 -141 q0 -72 6 -123.5t26.5 -84t55 -49t94.5 -16.5q66 0 146.5 51.5t152.5 178.5zM385 535q61 0 119.5 6t104.5 33.5t75 83t29 153.5q0 45 -19.5 73.5t-64.5 28.5q-55 0 -95 -34.5t-69 -90t-48.5 -123t-31.5 -130.5zM967 1403q-90 -102 -147.5 -164.5t-94.5 -96.5t-58.5 -45.5 t-39.5 -11.5q-23 0 -40.5 9.5t-41 42t-55 96t-82.5 170.5l67 61l178 -202l256 202z" />
<glyph unicode="&#x141;" horiz-adv-x="1175" d="M90 614l209 93l78 446q6 37 11 66.5t5 52.5q0 45 -25.5 66.5t-97.5 21.5h-27.5t-31.5 -2l14 82q160 -12 326 -13q168 0 364 13l-14 -82q-10 2 -27.5 3t-23.5 1q-43 0 -70.5 -7t-44 -29.5t-27 -63.5t-22.5 -109l-51 -299l190 86l29 -90l-240 -107l-79 -462 q-4 -16 -10.5 -47t-6.5 -62q0 -51 37 -70.5t109 -19.5q82 0 145 8t109.5 44t80 108.5t58.5 203.5l94 -14q-39 -123 -57.5 -224.5t-38.5 -213.5q-80 2 -150.5 5t-138.5 4t-136.5 2t-144.5 1h-104t-121.5 -1t-132.5 -4t-133 -7l16 82q10 -2 27.5 -3t23.5 -1q43 0 70 7 t44.5 29.5t27.5 63.5t22 109l54 315l-160 -72z" />
<glyph unicode="&#x142;" horiz-adv-x="661" d="M561 840l131 59l29 -86l-180 -80l-82 -469q-8 -43 -14.5 -74.5t-6.5 -54.5q0 -41 20.5 -54t71.5 -13q12 0 26.5 1t31.5 3l-15 -78q-39 2 -86 6t-84 4q-78 0 -144 -4t-140 -10l106 602l-145 -64l-29 86l195 86l88 502q8 41 8 57.5v45.5q0 35 -19.5 46t-66.5 11 q-12 0 -28.5 -1t-32.5 -3l14 80q18 -2 45 -3t54.5 -2t53 -2t44.5 -1q39 0 70.5 1t62 4t61.5 8t70 11z" />
<glyph unicode="&#x143;" horiz-adv-x="1517" d="M1323 1190q4 25 6 45t2 37q0 53 -23.5 71.5t-78.5 18.5h-48t-55 -4l15 82q41 -2 70.5 -4t55 -3t54.5 -2t65 -1q37 0 68 1t59.5 2t61.5 3t74 4l-15 -82q-23 2 -38 3t-31 1q-41 0 -65.5 -8t-40 -27.5t-26 -52.5t-18.5 -84l-215 -1213h-129q-115 242 -199 415t-144 294 t-99 199t-64.5 128t-41 83.5t-27.5 66.5h-17l-166 -919q-6 -41 -6 -68q0 -61 31 -82.5t94 -21.5h37.5t42.5 4l-14 -82q-45 2 -81 4t-68 4t-62.5 2h-63.5q-37 0 -63.5 -1t-51 -2t-52 -3t-68.5 -4l14 82q23 -4 38 -4h32q35 0 59.5 8t40.5 27.5t26.5 53.5t20.5 83l170 966 q6 37 6 66q0 51 -24.5 68.5t-83.5 17.5q-16 0 -39 -1t-45 -3l14 82q82 -6 142.5 -9.5t121.5 -3.5h54.5t65.5 2.5t66.5 4.5t59.5 6q33 -104 61.5 -174t53.5 -123q98 -211 157.5 -334t94 -192.5t51 -106.5t29.5 -76h16zM887 1526l-33 57q57 57 114.5 109.5t111 92.5t99.5 64.5 t81 24.5q29 0 57.5 -15.5t28.5 -56.5q0 -59 -43 -87.5t-101 -53.5z" />
<glyph unicode="&#x144;" horiz-adv-x="1202" d="M500 791q47 86 121.5 134t191.5 48q72 0 122 -18.5t82 -51.5t46 -75t14 -87q0 -41 -5 -84t-11 -84l-55 -321q-6 -39 -11.5 -66.5t-5.5 -48.5q0 -39 24.5 -53t71.5 -14q12 0 20.5 1t24.5 3l-14 -78q-39 4 -95 6t-93 2q-78 0 -133.5 -5t-128.5 -11l102 579 q12 68 21.5 130.5t9.5 103.5t-18.5 60.5t-61.5 19.5q-27 0 -58.5 -15.5t-65.5 -59.5t-64.5 -123t-53.5 -206l-86 -477h-293l125 702q12 63 13 105q0 29 -11.5 47t-54.5 18h-33.5t-42.5 -4l15 78q29 -2 81 -5t80 -3q37 0 64.5 1t53.5 3t52.5 7t63.5 14q0 -23 -1 -40.5t-3 -36 t-4 -41t-7 -52.5zM647 1085l-49 50q53 70 99 130t88 105t80 69.5t75 24.5q27 0 54.5 -15t27.5 -60q0 -25 -15.5 -48.5t-38 -45t-48 -40t-48.5 -32.5z" />
<glyph unicode="&#x147;" horiz-adv-x="1517" d="M1323 1190q4 25 6 45t2 37q0 53 -23.5 71.5t-78.5 18.5h-48t-55 -4l15 82q41 -2 70.5 -4t55 -3t54.5 -2t65 -1q37 0 68 1t59.5 2t61.5 3t74 4l-15 -82q-23 2 -38 3t-31 1q-41 0 -65.5 -8t-40 -27.5t-26 -52.5t-18.5 -84l-215 -1213h-129q-115 242 -199 415t-144 294 t-99 199t-64.5 128t-41 83.5t-27.5 66.5h-17l-166 -919q-6 -41 -6 -68q0 -61 31 -82.5t94 -21.5h37.5t42.5 4l-14 -82q-45 2 -81 4t-68 4t-62.5 2h-63.5q-37 0 -63.5 -1t-51 -2t-52 -3t-68.5 -4l14 82q23 -4 38 -4h32q35 0 59.5 8t40.5 27.5t26.5 53.5t20.5 83l170 966 q6 37 6 66q0 51 -24.5 68.5t-83.5 17.5q-16 0 -39 -1t-45 -3l14 82q82 -6 142.5 -9.5t121.5 -3.5h54.5t65.5 2.5t66.5 4.5t59.5 6q33 -104 61.5 -174t53.5 -123q98 -211 157.5 -334t94 -192.5t51 -106.5t29.5 -76h16zM1296 1819l-190 -199q-51 -53 -80 -75.5t-63 -22.5 q-33 0 -57.5 29.5t-67.5 88.5l-127 179l55 55l219 -188l260 188z" />
<glyph unicode="&#x148;" horiz-adv-x="1202" d="M500 791q47 86 121.5 134t191.5 48q72 0 122 -18.5t82 -51.5t46 -75t14 -87q0 -41 -5 -84t-11 -84l-55 -321q-6 -39 -11.5 -66.5t-5.5 -48.5q0 -39 24.5 -53t71.5 -14q12 0 20.5 1t24.5 3l-14 -78q-39 4 -95 6t-93 2q-78 0 -133.5 -5t-128.5 -11l102 579 q12 68 21.5 130.5t9.5 103.5t-18.5 60.5t-61.5 19.5q-27 0 -58.5 -15.5t-65.5 -59.5t-64.5 -123t-53.5 -206l-86 -477h-293l125 702q12 63 13 105q0 29 -11.5 47t-54.5 18h-33.5t-42.5 -4l15 78q29 -2 81 -5t80 -3q37 0 64.5 1t53.5 3t52.5 7t63.5 14q0 -23 -1 -40.5t-3 -36 t-4 -41t-7 -52.5zM1071 1403q-90 -102 -147.5 -164.5t-94 -96.5t-58 -45.5t-40.5 -11.5q-23 0 -40 9.5t-40.5 42t-55.5 96t-83 170.5l68 61l178 -202l256 202z" />
<glyph unicode="&#x152;" horiz-adv-x="1945" d="M1774 -6q-139 8 -229.5 10t-158.5 2t-123 -2t-124.5 -3t-165.5 -3t-242 -2q-131 0 -242.5 42t-193.5 121t-129 190.5t-47 252.5q0 209 63.5 366.5t175 262t262 158t326.5 53.5q186 0 362.5 -7.5t354.5 -7.5q76 0 150.5 3.5t152.5 11.5q-10 -55 -16 -99.5t-10.5 -87.5 t-6.5 -89t-2 -107h-86q6 61 6 104q0 68 -14 106t-38.5 57.5t-56.5 23.5t-67 4h-67q-68 0 -108 -3t-63.5 -21.5t-37 -59.5t-25.5 -115l-65 -369h86q59 0 98 12.5t63.5 38t39 64.5t24.5 92h90q-41 -145 -60.5 -265t-25.5 -243h-98q8 35 13 65t5 52q0 35 -11 55.5t-40 31.5 t-77 15.5t-122 4.5l-73 -424q-4 -25 -9.5 -51.5t-5.5 -53.5q0 -37 11.5 -56.5t37 -28.5t64.5 -11t94 -2q68 0 125 7t103.5 40t79 99.5t55.5 183.5l94 -15q-18 -61 -32.5 -110t-25 -95.5t-19.5 -93.5t-19 -104zM965 1360q-246 0 -381 -204t-135 -617q0 -219 73.5 -341 t220.5 -122q51 0 81 8t46.5 28.5t23.5 54.5t17 87l154 858q2 14 5 35.5t5 42t3 39t1 26.5q0 53 -19 79t-95 26z" />
<glyph unicode="&#x153;" horiz-adv-x="1685" d="M1577 236q-72 -121 -171 -197t-261 -76q-100 0 -188.5 28.5t-141.5 117.5q-35 -37 -67.5 -65t-71.5 -46t-88 -26.5t-115 -8.5q-92 0 -168 31t-128 85t-80.5 129t-28.5 165q0 139 43 251.5t118.5 191.5t181 121t228.5 42q47 0 94 -6t89 -23.5t77 -48.5t59 -78 q53 72 143.5 114t213.5 42q166 0 254 -68.5t88 -199.5q0 -53 -22.5 -98.5t-74 -79t-131 -53t-196.5 -19.5h-221q-4 -31 -5 -63.5t-1 -61.5q0 -125 49 -205t141 -80q27 0 62.5 8.5t74.5 33t79 67.5t77 112zM629 909q-68 0 -117 -64.5t-83 -159.5t-50.5 -202.5t-16.5 -191.5 q0 -51 7.5 -97.5t23 -81t37 -55t51.5 -20.5q53 0 93 33.5t70 90t49.5 126t30.5 142.5t16 140.5t5 116.5q0 104 -27.5 163.5t-88.5 59.5zM1372 780q0 68 -29.5 98.5t-70.5 30.5q-59 0 -102.5 -35.5t-73 -91t-48 -121t-28.5 -124.5h88q63 0 112.5 19t83 53t51 78t17.5 93z" />
<glyph unicode="&#x158;" horiz-adv-x="1411" d="M618 774h64q88 0 145.5 32t92 85t49 121.5t14.5 142.5q0 45 -7 83t-25.5 65.5t-48.5 43t-75 15.5q-49 0 -75.5 -14.5t-40 -41t-18.5 -66.5t-13 -89zM928 725q68 0 106.5 -17.5t61 -49t34 -75.5t21.5 -98l49 -303q8 -72 34 -92t71 -20q20 0 25 1t32 3l-14 -80 q-31 2 -54.5 4t-44 3l-41 2t-45.5 1q-61 0 -123.5 -3t-146.5 -19v10q0 57 -7 124.5t-20 159.5l-24 193q-12 72 -24.5 116t-31 68.5t-45 32.5t-63.5 8h-72l-76 -413q-6 -35 -10 -65t-4 -52q0 -47 25.5 -68.5t97.5 -21.5h27.5t31.5 2l-14 -82q-160 12 -326 12q-168 0 -364 -12 l14 82q10 -2 27.5 -3t23.5 -1q43 0 70 7t44 29.5t27.5 63.5t22.5 109l152 872q6 35 10 64.5t4 52.5q0 47 -25.5 69.5t-97.5 22.5q-12 0 -27.5 -1t-31.5 -3l14 82q160 -12 326 -13q66 0 149.5 6.5t169.5 6.5q82 0 161 -11.5t140.5 -45t98.5 -95t37 -162.5q0 -162 -93.5 -263 t-279.5 -124zM1223 1819l-191 -199q-51 -53 -79.5 -75.5t-63.5 -22.5q-33 0 -57.5 29.5t-67.5 88.5l-127 179l55 55l219 -188l260 188z" />
<glyph unicode="&#x159;" horiz-adv-x="942" d="M494 778q41 94 117.5 145.5t187.5 51.5q55 0 91 -18.5t57.5 -45t30.5 -58.5t9 -58q0 -43 -14.5 -75t-38 -53.5t-53 -31.5t-58.5 -10q-47 0 -85 25.5t-38 78.5q0 29 7.5 55.5t7.5 42.5q0 35 -31 37q-37 0 -69.5 -35.5t-61.5 -94t-51.5 -135.5t-36.5 -159l-76 -440h-293 l127 709q6 33 10.5 57.5t4.5 44.5q0 35 -15.5 50.5t-64.5 15.5q-16 0 -31.5 -1.5t-40.5 -5.5l14 76q49 -4 102.5 -6t102.5 -2q88 0 199 25q-2 -45 -8.5 -84t-16.5 -101h15zM788 1403q-90 -102 -147 -164.5t-94 -96.5t-58.5 -45.5t-39.5 -11.5q-23 0 -40.5 9.5t-41 42t-55 96 t-83.5 170.5l68 61l178 -202l256 202z" />
<glyph unicode="&#x15a;" horiz-adv-x="1157" d="M489 -37q-106 0 -216.5 18.5t-209.5 47.5q25 102 35.5 201.5t14.5 226.5h104q-4 -27 -6 -52.5t-2 -48.5q0 -154 75.5 -232.5t192.5 -78.5q55 0 105.5 17.5t89.5 50t61.5 81t22.5 111.5q0 55 -20.5 100.5t-54.5 84t-79 71.5t-92 64q-57 37 -111.5 76.5t-97.5 88 t-69.5 107.5t-26.5 139q0 96 34.5 176t102.5 137.5t166 89t225 31.5q106 0 206.5 -16t199.5 -45q-12 -51 -20.5 -94t-14.5 -88t-9 -94.5t-5 -112.5h-105q4 33 7 62.5t3 56.5q0 137 -61.5 195.5t-175.5 58.5q-70 0 -117 -25t-76.5 -63.5t-42 -83.5t-12.5 -86 q0 -104 67.5 -175t176.5 -139q55 -35 110.5 -73.5t99.5 -85t71.5 -101.5t27.5 -125q0 -123 -45 -213t-123 -147.5t-182.5 -85t-223.5 -27.5zM621 1526l-33 57q57 57 114.5 109.5t110.5 92.5t99 64.5t81 24.5q29 0 57.5 -15.5t28.5 -56.5q0 -59 -43 -87.5t-100 -53.5z" />
<glyph unicode="&#x15b;" horiz-adv-x="919" d="M856 928q-23 -74 -31 -137.5t-10 -137.5h-94q6 45 7 59.5t1 24.5q0 80 -41 123t-135 43q-72 0 -116 -38t-44 -109q0 -49 32 -82t79 -59.5t102.5 -52t102.5 -58.5t78.5 -80t31.5 -115q0 -98 -38 -164.5t-99 -106.5t-141 -57.5t-166 -17.5q-94 0 -185.5 14.5t-164.5 38.5 q16 78 31.5 147.5t15.5 162.5h96q-6 -29 -6 -74q0 -43 10 -82t34.5 -68.5t63.5 -47t95 -17.5q88 0 126.5 48t38.5 120q0 53 -30.5 90t-75.5 66.5t-99.5 57t-99.5 61.5t-75.5 79t-30.5 111q0 86 38 145t99 96t140 52.5t161 15.5t160 -14t139 -37zM471 1085l-49 50 q53 70 99 130t88 105t80 69.5t75 24.5q27 0 54.5 -15t27.5 -60q0 -25 -15.5 -48.5t-38 -45t-48 -40t-48.5 -32.5z" />
<glyph unicode="&#x160;" horiz-adv-x="1157" d="M489 -37q-106 0 -216.5 18.5t-209.5 47.5q25 102 35.5 201.5t14.5 226.5h104q-4 -27 -6 -52.5t-2 -48.5q0 -154 75.5 -232.5t192.5 -78.5q55 0 105.5 17.5t89.5 50t61.5 81t22.5 111.5q0 55 -20.5 100.5t-54.5 84t-79 71.5t-92 64q-57 37 -111.5 76.5t-97.5 88 t-69.5 107.5t-26.5 139q0 96 34.5 176t102.5 137.5t166 89t225 31.5q106 0 206.5 -16t199.5 -45q-12 -51 -20.5 -94t-14.5 -88t-9 -94.5t-5 -112.5h-105q4 33 7 62.5t3 56.5q0 137 -61.5 195.5t-175.5 58.5q-70 0 -117 -25t-76.5 -63.5t-42 -83.5t-12.5 -86 q0 -104 67.5 -175t176.5 -139q55 -35 110.5 -73.5t99.5 -85t71.5 -101.5t27.5 -125q0 -123 -45 -213t-123 -147.5t-182.5 -85t-223.5 -27.5zM1083 1819l-190 -199q-51 -53 -80 -75.5t-63 -22.5q-33 0 -57.5 29.5t-67.5 88.5l-127 179l55 55l219 -188l260 188z" />
<glyph unicode="&#x161;" horiz-adv-x="919" d="M856 928q-23 -74 -31 -137.5t-10 -137.5h-94q6 45 7 59.5t1 24.5q0 80 -41 123t-135 43q-72 0 -116 -38t-44 -109q0 -49 32 -82t79 -59.5t102.5 -52t102.5 -58.5t78.5 -80t31.5 -115q0 -98 -38 -164.5t-99 -106.5t-141 -57.5t-166 -17.5q-94 0 -185.5 14.5t-164.5 38.5 q16 78 31.5 147.5t15.5 162.5h96q-6 -29 -6 -74q0 -43 10 -82t34.5 -68.5t63.5 -47t95 -17.5q88 0 126.5 48t38.5 120q0 53 -30.5 90t-75.5 66.5t-99.5 57t-99.5 61.5t-75.5 79t-30.5 111q0 86 38 145t99 96t140 52.5t161 15.5t160 -14t139 -37zM860 1403 q-90 -102 -147.5 -164.5t-94 -96.5t-58 -45.5t-40.5 -11.5q-23 0 -40 9.5t-40.5 42t-55.5 96t-83 170.5l68 61l178 -202l256 202z" />
<glyph unicode="&#x164;" horiz-adv-x="1228" d="M211 1440q283 -12 569 -13q143 0 280.5 3.5t285.5 9.5q-18 -82 -27.5 -183.5t-18.5 -240.5h-94q6 45 9.5 94t3.5 84q0 37 -6.5 66.5t-25 49t-54 31t-93.5 11.5q-41 0 -66.5 -9.5t-42 -32t-26.5 -60.5t-20 -97l-152 -872q-6 -37 -11 -67t-5 -52q0 -45 25.5 -66.5 t97.5 -21.5h27.5t31.5 2l-14 -82q-160 12 -326 12q-168 0 -364 -12l14 82q10 -2 27.5 -3t23.5 -1q43 0 69.5 7t44 29.5t28 63.5t22.5 109l151 872q6 35 10.5 64.5t4.5 52.5q0 47 -25.5 64.5t-97.5 17.5q-66 0 -104.5 -21.5t-62.5 -59.5t-37 -89.5t-27 -112.5l-13 -53l-94 14 q33 123 50.5 215.5t31.5 194.5zM1120 1819l-190 -199q-51 -53 -80 -75.5t-64 -22.5q-33 0 -57 29.5t-67 88.5l-127 179l55 55l219 -188l260 188z" />
<glyph unicode="&#x165;" horiz-adv-x="731" d="M86 860l14 82q92 0 159 19.5t114 59.5t79.5 99.5t57.5 139.5h86l-55 -318h231l-12 -82h-232l-102 -565q-6 -35 -12 -67.5t-6 -61.5t10 -48.5t37 -19.5q33 0 71.5 29t85.5 123l68 -41q-53 -106 -131 -170t-203 -64q-225 0 -225 199q0 18 2 40t6 44l111 602h-154zM762 1352 q0 63 33.5 90.5t81.5 27.5q66 0 93 -42t27 -99q0 -63 -20.5 -111.5t-56 -85t-85 -65.5t-108.5 -55l-39 78q16 6 42 17t50.5 26.5t42 36t17.5 44.5q0 16 -12.5 29.5t-27 27t-26.5 33t-12 48.5z" />
<glyph unicode="&#x16e;" horiz-adv-x="1478" d="M553 614q-12 -76 -24.5 -153.5t-12.5 -149.5q0 -57 10.5 -106t36 -84t71.5 -55.5t120 -20.5q102 0 172.5 45t117.5 121q35 53 57.5 116.5t39 131t28 138.5t23.5 138q25 150 42 243t27.5 151.5t14.5 91t4 57.5q0 53 -36 68.5t-81 15.5q-20 0 -40.5 -2t-39.5 -2l15 82 q76 -4 135 -7t131 -3q35 0 63.5 1t56 2t57.5 3t71 4l-6 -82q-74 0 -115 -5t-63.5 -32t-36 -80t-31.5 -151l-64 -357q-18 -109 -32.5 -190.5t-32 -148t-40 -121t-58.5 -105.5q-33 -45 -69 -82t-84 -64.5t-111.5 -43t-153.5 -15.5q-125 0 -218.5 34t-154.5 95.5t-91 148.5 t-30 193q0 70 12 144l103 575q6 35 10 64.5t4 52.5q0 47 -25.5 69.5t-97.5 22.5q-12 0 -27.5 -1t-31.5 -3l14 82q80 -6 160 -8t166 -2t176 2t188 8l-14 -82q-10 2 -27.5 3t-23.5 1q-47 0 -74.5 -7t-44 -29.5t-26 -63.5t-19.5 -109zM1016 1886q86 0 133 -54t47 -126 q0 -76 -47 -129t-133 -53q-82 0 -131 53t-49 129q0 72 49 126t131 54zM928 1706q0 -47 25.5 -74.5t62.5 -27.5t62.5 27.5t25.5 74.5q0 45 -25.5 70.5t-62.5 25.5t-62.5 -25.5t-25.5 -70.5z" />
<glyph unicode="&#x16f;" horiz-adv-x="1193" d="M700 147q-47 -86 -123.5 -130t-193.5 -44q-72 0 -121 18.5t-79.5 51.5t-44 74t-13.5 88q0 41 4 80t12 80l56 311q8 43 14 74.5t6 54.5q0 41 -16.5 54t-67.5 13q-12 0 -25.5 -1t-29.5 -3l14 78q39 -2 82 -6t80 -4q78 0 143.5 4t139.5 10l-103 -585q-12 -68 -24.5 -123.5 t-12.5 -96.5q0 -86 86 -86q25 0 57.5 14.5t66.5 56.5t64.5 120t53.5 205l86 487h293l-125 -704q-6 -33 -11 -59.5t-5 -47.5q0 -29 15 -45t58 -16h33.5t42.5 4l-12 -78q-29 2 -53.5 4t-53.5 2q-76 0 -149.5 -7t-147.5 -24q2 45 4 80t13 96h-13zM709 1464q86 0 133 -54 t47 -126q0 -76 -47 -129t-133 -53q-82 0 -131.5 53t-49.5 129q0 72 49.5 126t131.5 54zM621 1284q0 -47 25.5 -74.5t62.5 -27.5t62.5 27.5t25.5 74.5q0 45 -26 70.5t-62 25.5q-37 0 -62.5 -25.5t-25.5 -70.5z" />
<glyph unicode="&#x178;" horiz-adv-x="1286" d="M819 606l-55 -325q-6 -35 -10 -65t-4 -52q0 -47 25.5 -68.5t96.5 -21.5h27.5t32.5 2l-14 -82q-160 12 -326 12q-168 0 -365 -12l15 82q10 -2 27.5 -3t23.5 -1q43 0 69.5 7t44 29.5t27.5 63.5t23 109l57 325l-184 576q-14 37 -23.5 69.5t-23 57t-35 38t-60.5 13.5 q-8 0 -14 -1t-14 -1l14 82q78 -6 166 -9.5t164 -3.5t138.5 3.5t145.5 9.5l-14 -82q-23 2 -33 3t-30 1q-66 0 -88.5 -12.5t-22.5 -65.5q0 -16 8 -47t19 -59l90 -297q14 -37 24.5 -79t18.5 -100h12l309 472q31 47 49.5 79.5t18.5 57.5q0 31 -31 41t-98 10h-12h-8.5t-11.5 -1 t-23 -3l14 82q39 -4 71.5 -6t62.5 -3t61.5 -2.5t68.5 -1.5q39 0 65.5 1.5t50 2.5t46 3t53.5 6l-14 -82q-10 0 -17.5 1t-15.5 1q-49 0 -76.5 -10.5t-48 -34t-41 -61t-55.5 -91.5zM557 1698q0 27 10.5 53.5t28.5 48t44 35.5t56 14q47 0 77 -34.5t30 -81.5q0 -59 -40 -102.5 t-99 -43.5q-45 0 -76 32t-31 79zM948 1700q0 25 9.5 51.5t28 48t44 35.5t60.5 14q45 0 76.5 -33.5t31.5 -80.5q0 -59 -41 -103.5t-100 -44.5q-47 0 -78 33t-31 80z" />
<glyph unicode="&#x179;" horiz-adv-x="1212" d="M553 6h-153.5t-124 -2t-114 -4t-120.5 -6l-35 84l750 1098q20 31 36.5 51t32 38.5t34 36t44.5 41.5q-27 2 -57.5 3.5t-60 2.5t-56.5 1h-43q-90 0 -156.5 -10.5t-115.5 -44t-84 -99.5t-60 -176l-98 18q23 70 37 117t24.5 89t18.5 86t18 110q96 -4 222 -8.5t239 -4.5h140.5 t97.5 1.5t95 4.5t134 7l35 -84l-723 -1055q-20 -29 -35.5 -52.5t-34 -46t-41 -48t-55.5 -60.5q63 -6 143 -8t160 -2q90 0 156.5 16.5t116 58.5t84 114.5t59.5 183.5l100 -15q-23 -66 -37 -118t-24 -103t-19.5 -105.5t-19.5 -121.5q-47 2 -111.5 4t-134 4t-139.5 3t-125 1z M639 1526l-33 57q57 57 114.5 109.5t111 92.5t99.5 64.5t81 24.5q29 0 57.5 -15.5t28.5 -56.5q0 -59 -43 -87.5t-101 -53.5z" />
<glyph unicode="&#x17a;" horiz-adv-x="948" d="M594 856q-45 6 -76 7t-65 1q-55 0 -97.5 -8t-73 -34.5t-53 -74t-39.5 -126.5l-84 14q12 43 21.5 74.5t16 65.5t12.5 75t14 102q59 -8 151.5 -12t196.5 -4t207.5 3t175.5 11l23 -76l-396 -550q-41 -59 -81.5 -111.5t-104.5 -122.5q35 -4 65.5 -6t59.5 -2q70 0 118 8 t80.5 36t56 83t44.5 149l90 -14q-12 -31 -23.5 -74t-20.5 -90t-16.5 -95t-11.5 -93q-53 4 -150 9t-210 5q-104 0 -207.5 -3t-175.5 -11l-35 78l383 534q31 43 55.5 77t47 63.5t47 56t55.5 55.5zM504 1085l-49 50q53 70 99 130t88 105t80 69.5t75 24.5q27 0 54.5 -15 t27.5 -60q0 -25 -15.5 -48.5t-38 -45t-48 -40t-48.5 -32.5z" />
<glyph unicode="&#x17b;" horiz-adv-x="1212" d="M553 6h-153.5t-124 -2t-114 -4t-120.5 -6l-35 84l750 1098q20 31 36.5 51t32 38.5t34 36t44.5 41.5q-27 2 -57.5 3.5t-60 2.5t-56.5 1h-43q-90 0 -156.5 -10.5t-115.5 -44t-84 -99.5t-60 -176l-98 18q23 70 37 117t24.5 89t18.5 86t18 110q96 -4 222 -8.5t239 -4.5h140.5 t97.5 1.5t95 4.5t134 7l35 -84l-723 -1055q-20 -29 -35.5 -52.5t-34 -46t-41 -48t-55.5 -60.5q63 -6 143 -8t160 -2q90 0 156.5 16.5t116 58.5t84 114.5t59.5 183.5l100 -15q-23 -66 -37 -118t-24 -103t-19.5 -105.5t-19.5 -121.5q-47 2 -111.5 4t-134 4t-139.5 3t-125 1z M766 1554q-61 0 -88 35t-27 82q0 31 11.5 63.5t33 59.5t53 43t70.5 16q61 0 90 -36.5t29 -83.5q0 -31 -11.5 -63t-33 -57.5t-54 -42t-73.5 -16.5z" />
<glyph unicode="&#x17c;" horiz-adv-x="948" d="M594 856q-45 6 -76 7t-65 1q-55 0 -97.5 -8t-73 -34.5t-53 -74t-39.5 -126.5l-84 14q12 43 21.5 74.5t16 65.5t12.5 75t14 102q59 -8 151.5 -12t196.5 -4t207.5 3t175.5 11l23 -76l-396 -550q-41 -59 -81.5 -111.5t-104.5 -122.5q35 -4 65.5 -6t59.5 -2q70 0 118 8 t80.5 36t56 83t44.5 149l90 -14q-12 -31 -23.5 -74t-20.5 -90t-16.5 -95t-11.5 -93q-53 4 -150 9t-210 5q-104 0 -207.5 -3t-175.5 -11l-35 78l383 534q31 43 55.5 77t47 63.5t47 56t55.5 55.5zM594 1165q-61 0 -88 35t-27 82q0 31 11.5 63.5t33 59.5t53 43t70.5 16 q61 0 90 -36.5t29 -84.5q0 -31 -11.5 -62.5t-33 -57t-54 -42t-73.5 -16.5z" />
<glyph unicode="&#x17d;" horiz-adv-x="1212" d="M553 6h-153.5t-124 -2t-114 -4t-120.5 -6l-35 84l750 1098q20 31 36.5 51t32 38.5t34 36t44.5 41.5q-27 2 -57.5 3.5t-60 2.5t-56.5 1h-43q-90 0 -156.5 -10.5t-115.5 -44t-84 -99.5t-60 -176l-98 18q23 70 37 117t24.5 89t18.5 86t18 110q96 -4 222 -8.5t239 -4.5h140.5 t97.5 1.5t95 4.5t134 7l35 -84l-723 -1055q-20 -29 -35.5 -52.5t-34 -46t-41 -48t-55.5 -60.5q63 -6 143 -8t160 -2q90 0 156.5 16.5t116 58.5t84 114.5t59.5 183.5l100 -15q-23 -66 -37 -118t-24 -103t-19.5 -105.5t-19.5 -121.5q-47 2 -111.5 4t-134 4t-139.5 3t-125 1z M1092 1819l-191 -199q-51 -53 -79.5 -75.5t-63.5 -22.5q-33 0 -57.5 29.5t-67.5 88.5l-127 179l55 55l219 -188l260 188z" />
<glyph unicode="&#x17e;" horiz-adv-x="948" d="M594 856q-45 6 -76 7t-65 1q-55 0 -97.5 -8t-73 -34.5t-53 -74t-39.5 -126.5l-84 14q12 43 21.5 74.5t16 65.5t12.5 75t14 102q59 -8 151.5 -12t196.5 -4t207.5 3t175.5 11l23 -76l-396 -550q-41 -59 -81.5 -111.5t-104.5 -122.5q35 -4 65.5 -6t59.5 -2q70 0 118 8 t80.5 36t56 83t44.5 149l90 -14q-12 -31 -23.5 -74t-20.5 -90t-16.5 -95t-11.5 -93q-53 4 -150 9t-210 5q-104 0 -207.5 -3t-175.5 -11l-35 78l383 534q31 43 55.5 77t47 63.5t47 56t55.5 55.5zM930 1403q-90 -102 -147.5 -164.5t-94.5 -96.5t-58.5 -45.5t-39.5 -11.5 q-23 0 -40.5 9.5t-41 42t-55 96t-82.5 170.5l67 61l178 -202l256 202z" />
<glyph unicode="&#x2c6;" horiz-adv-x="819" d="M244 1147q90 102 147.5 164.5t94 96.5t58 45t40.5 11q23 0 40 -9t40.5 -42t55.5 -96.5t83 -169.5l-68 -62l-178 203l-256 -203z" />
<glyph unicode="&#x2da;" horiz-adv-x="819" d="M553 1464q86 0 133 -54t47 -126q0 -76 -47 -129t-133 -53q-82 0 -131 53t-49 129q0 72 49 126t131 54zM465 1284q0 -47 25.5 -74.5t62.5 -27.5t62.5 27.5t25.5 74.5q0 45 -25.5 70.5t-62.5 25.5t-62.5 -25.5t-25.5 -70.5z" />
<glyph unicode="&#x2dc;" horiz-adv-x="819" d="M195 1176q20 37 46.5 73.5t57.5 65t67.5 47t77.5 18.5q51 0 81 -18.5t53.5 -40t49 -39.5t70.5 -18q39 0 71 33.5t58 84.5l70 -47q-20 -37 -44 -73.5t-53.5 -67.5t-68.5 -50.5t-90 -19.5q-41 0 -70.5 18.5t-56.5 40t-55.5 40t-67.5 18.5q-37 0 -69.5 -31.5t-55.5 -79.5z " />
<glyph unicode="&#x2013;" horiz-adv-x="1056" d="M987 541l-20 -111h-893l20 111h893z" />
<glyph unicode="&#x2014;" horiz-adv-x="1574" d="M1505 541l-24 -111h-1405l24 111h1405z" />
<glyph unicode="&#x2018;" horiz-adv-x="448" d="M369 1194q41 -6 70.5 -38t29.5 -95q0 -66 -47 -112t-115 -46q-57 0 -93 42t-36 108q0 84 31 151.5t77 121.5t98 93t93 64l45 -66q-37 -23 -69.5 -45t-58 -47t-41 -51.5t-15.5 -54.5q0 -19 31 -25z" />
<glyph unicode="&#x2019;" horiz-adv-x="444" d="M334 1182q-41 6 -71 37.5t-30 95.5q0 66 47.5 112t114.5 46q57 0 93 -42t36 -108q0 -84 -30.5 -151.5t-76.5 -122t-98.5 -93t-93.5 -63.5l-45 65q35 23 69 45.5t59.5 47t41 51t15.5 55.5q0 19 -31 25z" />
<glyph unicode="&#x201a;" horiz-adv-x="466" d="M133 10q-41 6 -70.5 38t-29.5 95q0 66 47 112t115 46q57 0 93 -42t36 -107q0 -84 -31 -152t-77 -122t-98 -93t-93 -64l-45 66q35 23 68.5 45.5t59 47t41 51t15.5 55.5q0 18 -31 24z" />
<glyph unicode="&#x201c;" horiz-adv-x="813" d="M369 1194q41 -6 70.5 -38t29.5 -95q0 -66 -47 -112t-115 -46q-57 0 -93 42t-36 108q0 84 31 151.5t77 121.5t98 93t93 64l45 -66q-37 -23 -69.5 -45t-58 -47t-41 -51.5t-15.5 -54.5q0 -19 31 -25zM733 1194q41 -6 71 -38t30 -95q0 -66 -47.5 -112t-114.5 -46 q-57 0 -93 42t-36 108q0 84 30.5 151.5t76.5 121.5t98.5 93t93.5 64l45 -66q-37 -23 -70 -45t-58.5 -47t-41 -51.5t-15.5 -54.5q0 -19 31 -25z" />
<glyph unicode="&#x201d;" horiz-adv-x="808" d="M698 1182q-41 6 -70.5 37.5t-29.5 95.5q0 66 47 112t115 46q57 0 93 -42t36 -108q0 -84 -31 -151.5t-77 -122t-98 -93t-93 -63.5l-45 65q35 23 68.5 45.5t59 47t41 51t15.5 55.5q0 19 -31 25zM334 1182q-41 6 -71 37.5t-30 95.5q0 66 47.5 112t114.5 46q57 0 93 -42 t36 -108q0 -84 -30.5 -151.5t-76.5 -122t-98.5 -93t-93.5 -63.5l-45 65q35 23 69 45.5t59.5 47t41 51t15.5 55.5q0 19 -31 25z" />
<glyph unicode="&#x201e;" horiz-adv-x="831" d="M498 10q-41 6 -71 38t-30 95q0 66 47.5 112t114.5 46q57 0 93 -42t36 -107q0 -84 -30.5 -152t-76.5 -122t-98.5 -93t-93.5 -64l-45 66q35 23 68.5 45.5t59.5 47t41 51t15 55.5q1 18 -30 24zM133 10q-41 6 -70.5 38t-29.5 95q0 66 47 112t115 46q57 0 93 -42t36 -107 q0 -84 -31 -152t-77 -122t-98 -93t-93 -64l-45 66q35 23 68.5 45.5t59 47t41 51t15.5 55.5q0 18 -31 24z" />
<glyph unicode="&#x2022;" horiz-adv-x="804" d="M438 961q57 0 106.5 -20.5t86.5 -57.5t58.5 -87.5t21.5 -107.5t-21.5 -106.5t-58.5 -86t-86 -57t-107 -20.5q-57 0 -106 20.5t-86 57t-58.5 86t-21.5 106.5t21.5 107.5t58.5 87.5t86 57.5t106 20.5z" />
<glyph unicode="&#x2026;" horiz-adv-x="1572" d="M713 -39q-70 0 -114 44t-44 112q0 43 16.5 78.5t44 63.5t64.5 43t78 15q70 0 113.5 -44t43.5 -111q0 -43 -16 -79t-44 -63.5t-64.5 -43t-77.5 -15.5zM182 -39q-70 0 -113.5 44t-43.5 112q0 43 16 78.5t44 63.5t64.5 43t77.5 15q70 0 114 -44t44 -111q0 -43 -16.5 -79 t-44 -63.5t-64.5 -43t-78 -15.5zM1239 -39q-70 0 -114 44t-44 112q0 43 16.5 78.5t44 63.5t64.5 43t78 15q70 0 114 -44t44 -111q0 -43 -16.5 -79t-44 -63.5t-64.5 -43t-78 -15.5z" />
<glyph unicode="&#x2039;" horiz-adv-x="587" d="M78 494q0 14 10 32.5t36 45t66.5 65.5t102.5 94l209 195l71 -54l-243 -378q0 -2 5 -19.5l13 -45.5t18.5 -61.5t20.5 -68.5l57 -188l-84 -43l-229 313q-27 37 -40 60.5t-13 52.5z" />
<glyph unicode="&#x203a;" horiz-adv-x="587" d="M522 500q0 -14 -10 -32.5t-35.5 -45.5t-66.5 -66t-103 -94l-209 -194l-71 53l243 379q-2 4 -18 63.5t-39 130.5l-57 189l80 43l233 -314q27 -37 40 -60t13 -52z" />
<glyph unicode="&#x20ac;" horiz-adv-x="1316" d="M274 895q33 115 89.5 219.5t142.5 184t207 127t280 47.5q125 0 208 -20.5t142 -39.5q-18 -82 -31.5 -164t-19.5 -180h-108q4 29 4 52.5v45.5q0 72 -17.5 116t-47 67.5t-68.5 31t-80 7.5q-61 0 -117.5 -35t-106 -99.5t-90 -155.5t-69.5 -204h510l-37 -96h-494 q-6 -31 -11 -62.5t-9 -64.5h448l-34 -97h-424q-4 -49 -6.5 -99t-2.5 -101q0 -164 53.5 -246t170.5 -82q49 0 99 16.5t97 56.5t87 109.5t65 178.5l110 -13q-10 -29 -23 -77t-27.5 -101t-27 -105.5t-20.5 -88.5q-66 -18 -159 -39t-218 -21q-143 0 -242.5 36t-161 109.5 t-88 187.5t-26.5 267v12h-139l22 97h125q4 31 9.5 62.5t11.5 64.5h-123l23 96h124z" />
<glyph unicode="&#x2122;" horiz-adv-x="1710" d="M584 895q0 -33 1 -51.5t6 -27.5t13 -12t23 -3h17t32 4v-49q-59 4 -93 5t-77 1t-77 -1t-93 -5v49q23 -4 32 -4h17q14 0 22.5 3t12.5 12t6 27.5t2 51.5v408q0 31 -2 49t-8 26t-17.5 10.5t-29.5 2.5q-29 0 -46.5 -10.5t-26.5 -29t-14 -46t-8 -60.5l-59 4q10 51 13 93t3 94 q18 -2 54.5 -3t76 -2t78.5 -1h64h63.5t78.5 1t77 2t55 3q0 -51 2 -93.5t13 -93.5l-58 -4q-6 68 -21.5 107t-74.5 39q-18 0 -29.5 -2.5t-17.5 -10.5t-8 -26.5t-2 -48.5v-408zM1239 977l137 364q10 31 15.5 49.5t15.5 47.5q31 -6 72 -7t61 -1q29 0 59.5 1t69.5 5v-50 q-18 4 -29.5 4.5t-17.5 0.5q-29 0 -39 -14.5t-10 -55.5v-424q0 -66 11 -81t40 -15h17.5t31.5 4v-49q-61 4 -98 5t-80 1h-40t-35.5 -1t-40 -2t-52.5 -3v49q16 -4 24.5 -4h14.5h16q23 0 34 18.5t11 77.5v403l-202 -520h-68l-194 512v-411q0 -47 12 -63.5t41 -16.5h18t29 4v-49 q-63 4 -88 5t-47 1q-20 0 -43 -1t-84 -5v49q23 -4 32 -4h17q27 0 36 17.5t9 62.5v440q0 41 -8 55.5t-37 14.5h-16.5t-32.5 -5v50q76 -6 131 -6q23 0 64.5 1t72.5 7q4 -18 11 -43t18 -47z" />
<glyph unicode="&#x25fc;" horiz-adv-x="952" d="M0 952h952v-952h-952v952z" />
<glyph unicode="&#x2715;" d="M258 1079l299 -301l297 297l68 -61l-295 -295l291 -301l-68 -66l-291 299l-297 -297l-67 62l297 297l-302 299z" />
<glyph horiz-adv-x="763" d="M176 778h514l-20 -121h-514z" />
<glyph horiz-adv-x="1155" d="M1075 772l-20 -110h-893l20 110h893z" />
<glyph horiz-adv-x="1671" d="M1591 772l-24 -110h-1405l24 110h1405z" />
<glyph horiz-adv-x="763" d="M176 778h514l-20 -121h-514z" />
<glyph horiz-adv-x="978" d="M137 715q0 14 11.5 31.5t36 44t65.5 65.5t102 96l209 195l72 -53l-244 -379q0 -2 5 -19.5t13.5 -45t18.5 -61.5t20 -69q25 -82 56 -188l-78 -43l-234 313q-27 37 -40 60.5t-13 52.5zM473 715q0 14 11.5 31.5t36 44t65.5 65.5t102 96l209 195l72 -53l-244 -379 q0 -2 5 -19.5t13.5 -45t18.5 -61.5t20 -69l58 -188l-80 -43l-234 313q-27 37 -40 60.5t-13 52.5z" />
<glyph horiz-adv-x="976" d="M930 721q0 -14 -10.5 -32.5t-36 -45.5t-66.5 -65.5t-102 -94.5l-209 -194l-72 53l244 379q-2 4 -18.5 63.5t-38.5 130.5q-25 82 -56 189l78 43l234 -313q27 -37 40 -60.5t13 -52.5zM594 721q0 -14 -10.5 -32.5t-36 -45.5t-66.5 -65.5t-102 -94.5l-209 -194l-72 53 l244 379q-2 4 -18.5 63.5t-38.5 130.5l-58 189l80 43l234 -313q27 -37 40 -60.5t13 -52.5z" />
<glyph horiz-adv-x="641" d="M135 711q0 14 10.5 32.5t36 45t66.5 65.5t102 94l209 195l72 -53l-244 -379q0 -2 5 -19.5t13.5 -45.5t18.5 -61.5t20 -68.5l58 -188l-84 -43l-230 313q-27 37 -40 60.5t-13 52.5z" />
<glyph horiz-adv-x="641" d="M594 721q0 -14 -10.5 -32.5t-36 -45.5t-66.5 -65.5t-102 -94.5l-209 -194l-72 53l244 379q-2 4 -18.5 63.5t-38.5 130.5l-58 189l80 43l234 -313q27 -37 40 -60.5t13 -52.5z" />
<glyph horiz-adv-x="657" d="M102 561q0 168 57.5 320.5t148.5 291t203 265.5t220 243l72 -57q-66 -88 -116 -167t-87 -152.5t-65.5 -144t-51.5 -142.5q-51 -158 -83.5 -341t-32.5 -372q0 -150 24.5 -293t79.5 -272l-88 -45q-139 248 -210 458.5t-71 407.5z" />
<glyph horiz-adv-x="659" d="M102 559q0 168 57.5 320.5t148.5 291t203 265.5t220 243l72 -57q-66 -88 -116 -167t-87 -152.5t-65.5 -144.5t-51.5 -142q-51 -158 -83.5 -341t-32.5 -372q0 -150 24.5 -293t79.5 -272l-88 -45q-139 248 -210 458.5t-71 407.5z" />
<glyph horiz-adv-x="698" d="M549 -123l-17 -90h-466l321 1819h467l-16 -90h-201l-297 -1639h209z" />
<glyph horiz-adv-x="698" d="M231 1516l17 90h467l-322 -1819h-467l17 90h200l297 1639h-209z" />
<glyph horiz-adv-x="663" d="M514 924q-16 -88 -60 -139.5t-124 -79.5q57 -20 83.5 -60.5t26.5 -93.5q0 -16 -1 -31.5t-3 -32.5l-74 -419q-6 -29 -6 -52q0 -59 36 -103t106 -60l-29 -66q-61 0 -123.5 15.5t-113 46t-81 78.5t-30.5 116q0 10 1 21.5t3 23.5l74 416q4 23 6 42t2 36q0 37 -22.5 56 t-92.5 26q-4 2 -5 8t-1 12q0 12 3 24.5t13 16.5q88 6 121 51t49 142l76 448q14 88 64.5 137t115 71.5t135 27t125.5 4.5l13 -70q-63 -6 -102.5 -19.5t-61 -34t-31.5 -45t-14 -51.5z" />
<glyph horiz-adv-x="663" d="M231 481q20 88 61.5 139.5t121.5 79.5q-57 18 -84 59.5t-27 94.5q0 29 6 64l72 407q6 25 6 51q0 59 -36 103.5t-105 60.5l28 66q61 0 124 -15.5t112 -47.5t81 -80t32 -113q0 -10 -1 -22.5t-4 -22.5l-73 -414q-8 -41 -10.5 -56.5t-2.5 -25.5q0 -31 23 -57.5t96 -30.5 q6 -6 6 -23q0 -10 -4 -22t-12 -17q-45 -4 -73.5 -14t-47 -31.5t-29 -54.5t-18.5 -82l-76 -450q-14 -82 -58 -129.5t-105.5 -72t-134 -31.5t-142.5 -7l-12 70q63 6 102 19t60.5 33.5t30.5 44t16 52.5z" />
<glyph horiz-adv-x="577" d="M391 -328h-123v2048h123v-2048z" />
<glyph horiz-adv-x="567" d="M389 -172h-123v752h123v-752zM389 858h-123v752h123v-752z" />
<glyph d="M608 1184v-422h414v-94h-414v-420h-102v420h-416v94h416v422h102z" />
<glyph d="M1012 920v-91h-930v91h930zM1012 604v-90h-930v90h930z" />
<glyph horiz-adv-x="1873" d="M1090 1051q-57 0 -119 -49.5t-112 -129t-83 -179t-33 -197.5q0 -59 19.5 -96.5t58.5 -37.5q66 0 130.5 53.5t114.5 133.5t82 174t32 176q0 59 -18.5 105.5t-71.5 46.5zM1071 442q-20 -23 -49 -49t-64.5 -50t-77.5 -39t-89 -15q-31 0 -73 9t-81 36.5t-66.5 79t-27.5 135.5 q0 104 43 206.5t115.5 183.5t169 131t202.5 50q57 0 90 -10t53.5 -23.5t35 -23.5t34.5 -10q23 0 41.5 18.5t30.5 34.5l90 -23l-21 -57q-35 -98 -69.5 -193.5t-65.5 -201.5q-16 -49 -29.5 -99.5t-13.5 -91.5q0 -39 16.5 -61.5t59.5 -22.5q78 0 145.5 52.5t117.5 138.5 t79 195.5t29 226.5q0 123 -45 211t-120 145t-173 85t-203 28q-147 0 -297.5 -54.5t-271.5 -165t-198 -278.5t-77 -393q0 -137 41 -242.5t113 -177.5t168 -108.5t207 -36.5q10 0 44 2t73.5 6t78.5 9t62 9l-6 -74q-160 -31 -291 -30q-168 0 -296 54t-214 144.5t-129 210 t-43 250.5q0 164 66.5 333t196.5 307t324.5 225.5t450.5 87.5q180 0 316.5 -45.5t227.5 -123t137 -180t46 -217.5q0 -145 -51 -267t-135 -212t-191.5 -140t-218.5 -50q-104 0 -160.5 37.5t-56.5 123.5z" />
<glyph d="M575 1206v-358h353v-94h-353v-351h-102v351h-354v94h354v358h102zM119 227v95h809v-95h-809z" />
<glyph d="M879 829h-795v91h889v-484h-94v393z" />
<glyph d="M446 432q0 47 32 78t79 31t78 -31t31 -78t-31 -78.5t-78 -31.5t-79 31.5t-32 78.5zM446 1008q0 47 32 77.5t79 30.5t78 -30.5t31 -77.5t-31 -79t-78 -32t-79 32t-32 79zM1022 766v-90h-930v90h930z" />
<glyph horiz-adv-x="1236" d="M532 -37q-102 0 -177.5 38t-128 108.5t-78 169t-25.5 221.5q0 104 13.5 215.5t44 220t80.5 205t124 170t172 116.5t227 43q205 0 312.5 -140t107.5 -386q0 -104 -14 -217t-46 -222.5t-83 -207.5t-126 -172t-175.5 -118t-227.5 -44zM541 51q55 0 102 48t85 128t66.5 184.5 t50 218t36 229.5t22.5 218q0 162 -31.5 233.5t-95.5 71.5q-59 0 -106 -48t-84 -130t-64.5 -190.5t-48 -231.5t-34 -251t-21.5 -246q0 -109 31 -171.5t92 -62.5z" />
<glyph horiz-adv-x="921" d="M657 283q-4 -29 -8 -53.5t-4 -47.5q0 -51 24.5 -80.5t94.5 -29.5h28.5t41.5 4l-17 -82q-86 4 -172 7t-176 3t-182 -3t-191 -7l17 82q23 -4 35 -4h22q41 0 70.5 9t50 32.5t35 64.5t26.5 105l137 774q6 33 7 61q0 35 -16.5 49.5t-47.5 14.5q-61 0 -116.5 -20.5 t-131.5 -59.5l-41 98q98 31 184.5 58.5t164 59.5t148.5 70.5t140 90.5l92 -43q-25 -78 -40 -169t-29 -169z" />
<glyph horiz-adv-x="1142" d="M14 -6q12 133 54.5 233.5t106 179t140 140t156.5 117.5l82 57q53 37 101 78t84 94t56.5 121.5t20.5 161.5q0 43 -9 80.5t-27.5 66.5t-46 46t-66.5 17q-66 0 -102 -26.5t-36 -97.5q0 -27 8.5 -48.5t8.5 -50.5q0 -78 -47 -130t-133 -52q-68 0 -114 49t-46 111 q0 66 29.5 125t90 105t153.5 72.5t222 26.5q106 0 188.5 -24.5t138.5 -67.5t85 -100t29 -123q0 -102 -37 -175t-95.5 -125t-131 -90t-144.5 -73q-66 -31 -142.5 -79t-146 -109.5t-122 -136t-70.5 -160.5q61 10 100 11t56 1h321q63 0 100 19.5t57.5 52.5t30 75t17.5 89 l125 -25q-37 -100 -58.5 -203.5t-37.5 -232.5q-119 8 -240 10t-244 2q-119 0 -234.5 -1t-230.5 -11z" />
<glyph horiz-adv-x="1148" d="M535 1149q0 -37 -14.5 -66.5t-39 -50t-56.5 -31t-65 -10.5q-59 0 -105 35t-46 109t36 135t102.5 105t158.5 69.5t207 25.5t194.5 -30.5t128.5 -79.5t70.5 -108.5t21.5 -116.5q0 -117 -42 -190t-98 -113.5t-115.5 -57t-94.5 -20.5v-13q41 -6 89 -25.5t88 -56t67 -91 t27 -132.5q0 -141 -55.5 -232t-138.5 -144.5t-179 -75t-176 -21.5q-106 0 -190.5 22.5t-142.5 61.5t-89 92.5t-31 114.5q0 33 10.5 67.5t33 64.5t59 49.5t90.5 19.5q78 0 117.5 -44t39.5 -94q0 -31 -5 -52t-12 -40.5t-12.5 -39t-5.5 -44.5q0 -31 14.5 -49t35 -27.5t43 -11.5 t41.5 -2q111 0 170 94.5t59 309.5q0 133 -55.5 186t-171.5 53h-32.5t-35.5 -2l16 103q14 -2 33 -2h33q82 0 139.5 27.5t94 76.5t54 117.5t17.5 152.5q0 43 -6 82t-22.5 70t-44 49t-72.5 18q-78 0 -113 -30.5t-35 -89.5q0 -23 5.5 -56.5t5.5 -60.5z" />
<glyph horiz-adv-x="1148" d="M582 541q25 143 41 233t28.5 146.5t21.5 92.5t19 72l-12 7l-520 -551h422zM557 395h-539l25 160l868 915l121 -49l-153 -880h231l-27 -146h-231l-18 -112q-4 -29 -6.5 -53.5t-2.5 -47.5q0 -51 24.5 -80.5t94.5 -29.5h28.5t41.5 4l-17 -82q-86 4 -172 7t-176 3t-182 -3 t-191 -7l17 82q23 -4 35 -4h22q41 0 71 9t51.5 32.5t36.5 64.5t28 105z" />
<glyph horiz-adv-x="1128" d="M948 1012q0 18 3 46.5t3 43.5q0 70 -38.5 93.5t-131.5 23.5h-262q-29 0 -52.5 -3.5t-43.5 -17.5t-35.5 -41t-25.5 -76l-31 -145q-10 -47 -18.5 -74.5t-18.5 -60.5l8 -4q55 53 130 79.5t149 26.5q100 0 185 -27.5t147.5 -80t97.5 -127t35 -168.5q0 -135 -40 -236.5 t-113 -169t-175.5 -100.5t-226.5 -33q-199 0 -313.5 76t-114.5 199q0 35 7 71.5t26.5 66t53 48t85.5 18.5q86 0 122.5 -41t36.5 -88q0 -41 -7 -62.5t-14 -36.5t-14.5 -31.5t-7.5 -43.5q0 -47 40 -70.5t89 -23.5q43 0 87 26.5t80 87t57.5 159t21.5 241.5q0 129 -49 188.5 t-143 59.5q-74 0 -150 -50t-119 -145l-116 41q43 190 86 382t73 407q86 -10 188.5 -11.5t198.5 -1.5q104 0 196.5 1.5t197.5 11.5q-23 -90 -30 -206t-7 -222h-107z" />
<glyph horiz-adv-x="1222" d="M805 1386q-53 0 -96 -24.5t-79 -77.5t-64.5 -140t-55.5 -212q-4 -23 -8 -38t-8.5 -29.5t-9.5 -29t-13 -36.5l8 -4q66 61 137.5 75.5t143.5 14.5q80 0 148.5 -29t118.5 -80t79 -123.5t29 -158.5q0 -150 -49.5 -251.5t-129 -164t-183 -89t-214.5 -26.5q-121 0 -204 39 t-135 108.5t-75.5 165t-23.5 207.5q0 94 12 205t42 220.5t79 211t123 179t174 124.5t233 47q119 0 198 -27.5t126 -69.5t65.5 -89t18.5 -84q0 -25 -4 -59.5t-20.5 -65.5t-49.5 -53.5t-92 -22.5q-72 0 -113 34t-41 89q0 31 6.5 52.5t12.5 41t12 38t6 42.5q0 39 -25.5 63.5 t-78.5 26.5zM571 51q66 0 112 49.5t74.5 120t41 150.5t12.5 141q0 57 -4 108.5t-18.5 90.5t-42 61.5t-74.5 22.5q-53 0 -97.5 -39t-75 -106.5t-48 -159t-17.5 -193.5q0 -111 33.5 -178.5t103.5 -67.5z" />
<glyph horiz-adv-x="1028" d="M932 1219l-10 6q-18 -6 -43 -9.5t-52.5 -5.5t-54.5 -2h-49h-262q-53 0 -87 -4t-55.5 -25.5t-34 -67.5t-22.5 -132l-127 14q14 51 28.5 111.5t27 123t21.5 121t15 103.5q102 -10 181 -17.5t120 -7.5h226q68 0 140.5 3.5t129.5 9.5l80 8l72 -92q-129 -168 -231.5 -310.5 t-174.5 -268.5t-110.5 -239.5t-38.5 -222.5q0 -27 2 -52t2 -56q0 -72 -16.5 -118t-43 -74.5t-61.5 -40t-74 -11.5q-86 0 -131 38t-45 108q0 82 37 169t91 173t115.5 166.5t112.5 152.5z" />
<glyph horiz-adv-x="1189" d="M76 315q0 170 108.5 272.5t282.5 149.5q-111 49 -179.5 132t-68.5 186q0 70 25.5 144.5t85 134t157 98t242.5 38.5q111 0 191.5 -23.5t135 -64.5t80 -96t25.5 -119q0 -78 -26.5 -138t-72.5 -106t-108.5 -79t-132.5 -56q133 -47 204 -140t71 -222q0 -94 -40 -178 t-114 -147.5t-179.5 -100.5t-238.5 -37q-100 0 -182 26.5t-141.5 73t-92 110.5t-32.5 142zM739 850q35 16 65 40.5t50 62.5t31.5 92.5t11.5 128.5q0 39 -7 77.5t-24.5 69.5t-48.5 50.5t-76 19.5q-59 0 -98 -28t-62.5 -68t-32.5 -86t-9 -81q0 -63 20.5 -108t51 -78t65 -54.5 t63.5 -37.5zM545 666q-41 -16 -77 -46t-64.5 -74t-45 -103.5t-16.5 -135.5q0 -49 10 -97t33 -85t57.5 -59.5t83.5 -22.5q68 0 114 31.5t74.5 79t41 104.5t12.5 109q0 66 -23.5 113.5t-57.5 83.5t-72.5 60t-69.5 42z" />
<glyph horiz-adv-x="1212" d="M492 51q70 0 127 50.5t99 135.5t67.5 194.5t33.5 227.5l-8 3q-47 -47 -106.5 -67t-118.5 -20q-84 0 -157 26t-127 75t-85 120.5t-31 164.5q0 127 41 222t112 159.5t167 96t205 31.5q242 0 353.5 -136t111.5 -404q0 -176 -35 -349t-115 -310.5t-208 -222.5t-312 -85 q-123 0 -204 32t-130 77t-68.5 95t-19.5 87q0 29 7 63.5t27.5 65.5t57.5 51.5t96 20.5q72 0 115 -41t43 -97q0 -45 -14.5 -86t-14.5 -88q0 -43 23 -67.5t68 -24.5zM727 1384q-63 0 -106 -47t-70 -114.5t-38 -144.5t-11 -138q0 -117 36.5 -190.5t102.5 -73.5q47 0 88 33.5 t71.5 96t48 149.5t17.5 192q0 111 -34.5 174t-104.5 63z" />
</font>
</defs>
</svg>
