<?xml version="1.0" standalone="no"?>
<!DOCTYPE svg PUBLIC "-//W3C//DTD SVG 1.1//EN" "http://www.w3.org/Graphics/SVG/1.1/DTD/svg11.dtd" >
<svg xmlns="http://www.w3.org/2000/svg">
<metadata></metadata>
<defs>
<font id="media77medium" horiz-adv-x="1024" >
<font-face units-per-em="2048" ascent="1536" descent="-512" />
<missing-glyph horiz-adv-x="466" />
<glyph unicode="&#xfb00;" horiz-adv-x="1355" d="M1321 942v-74h-248v-635q0 -49 2 -81.5t13.5 -52t36 -28t71.5 -8.5h26.5t30.5 3v-72q-78 8 -154.5 11t-137.5 3q-121 0 -263 -18v71q45 0 71 6.5t37 25t13 51t2 85.5v639h-354v-635q0 -49 2 -81.5t12.5 -52t30.5 -28t59 -8.5h25.5t30.5 3v-72q-78 8 -144.5 11t-128.5 3 q-61 0 -136 -4t-146 -14v71q10 0 17 -1t15 -1q41 0 63.5 8.5t33 29t12.5 53t2 79.5v639h-184v74h184v84q0 186 111.5 297t351.5 111q84 0 143.5 -18.5t96.5 -43.5q41 39 103 62.5t157 23.5q59 0 111 -12t91 -33.5t61.5 -53.5t22.5 -71q0 -78 -40 -103.5t-87 -25.5 t-71.5 16.5t-35.5 42t-15.5 55.5t-11.5 55.5t-22.5 41.5t-50.5 16q-39 0 -61 -27.5t-22 -74.5q0 -35 3 -67.5t8 -70.5t9 -86t4 -112l2 -6h248zM467 942h352l2 197q0 47 -6 89t-22.5 73.5t-47 50t-81.5 18.5q-74 0 -114 -30.5t-58.5 -80t-21.5 -111t-3 -122.5v-84z" />
<glyph unicode="&#xfb01;" horiz-adv-x="1290" d="M467 868v-635q0 -49 2 -81.5t13.5 -52t36 -28t71.5 -8.5h18t19 3v-72q-78 8 -144.5 11t-128.5 3q-61 0 -136 -4t-146 -14v71q10 0 17 -1t15 -1q41 0 63.5 8.5t33 29t12.5 53t2 79.5v639h-184v74h184v121q0 88 26.5 162.5t83 129t143.5 85t210 30.5q106 0 178 -18t116 -48 t62.5 -70t18.5 -83q0 -84 -43 -118.5t-103 -34.5q-41 0 -68.5 13t-44 34.5t-23.5 47.5t-7 50q0 16 3 36.5t3 37.5q0 41 -23.5 63.5t-78.5 22.5q-66 0 -106 -34t-61.5 -85t-27.5 -113.5t-6 -119.5v-109h201q111 0 215 4t215 27v-740q0 -49 2 -81.5t13 -52t36 -28t72 -8.5 h26.5t30.5 3v-72q-78 8 -154.5 11t-138.5 3q-61 0 -136 -4t-147 -14v71q10 0 17.5 -1t15.5 -1q41 0 63.5 8.5t33 29t12.5 53t2 79.5v476q0 57 -3 89.5t-20.5 49t-54.5 20.5t-102 4h-199z" />
<glyph unicode="&#xfb02;" horiz-adv-x="1292" d="M215 1077q0 78 20.5 145.5t67.5 117t123 78t186 28.5q82 0 159 -6t157 -6q41 0 83 2t87 10v-1213q0 -49 2 -81.5t13 -52t36 -28t72 -8.5h26.5t30.5 3v-72q-78 8 -154.5 11t-138.5 3q-61 0 -136 -4t-147 -14v71q10 0 17.5 -1t15.5 -1q41 0 63.5 8.5t33 29t12.5 53t2 79.5 v945q0 45 -2 81.5t-17.5 63.5t-47 40t-91.5 13q-78 0 -122 -22.5t-66.5 -63.5t-27.5 -97t-5 -122v-125h248v-74h-248v-635q0 -49 2 -81.5t13.5 -52t36 -28t71.5 -8.5h18t19 3v-72q-78 8 -144.5 11t-128.5 3q-61 0 -136 -4t-146 -14v71q10 0 17 -1t15 -1q41 0 63.5 8.5t33 29 t12.5 53t2 79.5v639h-184v74h184v135z" />
<glyph unicode="&#xfb03;" horiz-adv-x="1896" d="M1073 868v-635q0 -49 2 -81.5t13.5 -52t36 -28t71.5 -8.5h18.5t18.5 3v-72q-78 8 -144.5 11t-127.5 3t-136 -4t-147 -14v71q10 0 17 -1t16 -1q41 0 63.5 8.5t32.5 29t12 53t2 79.5v639h-354v-706q0 -29 3 -47.5t13.5 -29.5t31 -16.5t56.5 -5.5h25.5t30.5 3v-72 q-78 8 -144.5 11t-128.5 3q-61 0 -136 -4t-146 -14v71q10 0 17 -1t15 -1q41 0 63.5 8.5t33 29t12.5 53t2 79.5v639h-184v74h184v84q0 186 111.5 298t351.5 112q88 0 148.5 -19.5t97.5 -46.5l18 -4q57 49 141 76.5t201 27.5q106 0 178 -18t116 -48t62.5 -70t18.5 -83 q0 -84 -43 -118.5t-103 -34.5q-41 0 -68.5 13t-44 34.5t-23.5 47.5t-7 50q0 16 3 36.5t3 37.5q0 41 -23.5 63.5t-78.5 22.5q-66 0 -106 -34t-61.5 -85t-27.5 -113.5t-6 -119.5v-109h201q111 0 215 4t215 27v-740q0 -49 2 -81.5t13.5 -52t36 -28t71.5 -8.5h26.5t30.5 3v-72 q-78 8 -154.5 11t-138.5 3q-61 0 -136 -4t-146 -14v71q10 0 17 -1t15 -1q41 0 63.5 8.5t33 29t12.5 53t2 79.5v476q0 57 -3 89.5t-20.5 49t-54.5 20.5t-102 4h-199zM467 942h354v186q0 49 -4 93.5t-20.5 78t-48 53t-84.5 19.5q-74 0 -114 -30.5t-58.5 -80t-21.5 -112 t-3 -123.5v-84z" />
<glyph unicode="&#xfb04;" horiz-adv-x="1900" d="M942 1358q47 37 115.5 62.5t163.5 25.5q82 0 158.5 -6t156.5 -6q41 0 83 2t87 10v-1213q0 -49 2 -81.5t13.5 -52t36 -28t71.5 -8.5h26.5t30.5 3v-72q-78 8 -154.5 11t-138.5 3q-61 0 -136 -4t-146 -14v71q10 0 17 -1t15 -1q41 0 64 8.5t33 29t12 53t2 79.5v945 q0 45 -2 81.5t-17.5 63.5t-47 40t-91.5 13q-78 0 -122 -22.5t-66.5 -63.5t-27.5 -97t-5 -122v-125h248v-74h-248v-635q0 -49 2 -81.5t13.5 -52t36 -28t71.5 -8.5h18.5t18.5 3v-72q-78 8 -144.5 11t-127.5 3t-136 -4t-147 -14v71q10 0 17.5 -1t15.5 -1q41 0 63.5 8.5t32.5 29 t12 53t2 79.5v639h-356v-706q0 -29 3 -47.5t13.5 -29.5t31 -16.5t56.5 -5.5h25.5t30.5 3v-72q-78 8 -144.5 11t-128.5 3q-61 0 -136 -4t-146 -14v71q10 0 17 -1t15 -1q41 0 63.5 8.5t33 29t12.5 53t2 79.5v639h-184v74h184v84q0 186 111.5 298t351.5 112q88 0 148.5 -19.5 t97.5 -46.5zM467 942h354v184q0 49 -4 93.5t-20.5 78t-48 54t-84.5 20.5q-74 0 -114 -30.5t-58.5 -80t-21.5 -112t-3 -123.5v-84z" />
<glyph unicode="fb" horiz-adv-x="1835" d="M846 1174q0 45 -2 82.5t-17.5 64.5t-47 41t-91.5 14q-78 0 -122 -22.5t-66.5 -63.5t-27.5 -97t-5 -122v-129h248v-74h-248v-635q0 -49 2 -81.5t13.5 -52t36 -28t71.5 -8.5h18t19 3v-72q-78 8 -144.5 11t-128.5 3q-61 0 -136 -4t-146 -14v71q10 0 17 -1t15 -1 q41 0 63.5 8.5t33 29t12.5 53t2 79.5v639h-184v74h184v135q0 78 20.5 145.5t67.5 117t123 78t186 28.5q82 0 159 -6t157 -6q41 0 83 2t87 10v-467q0 -43 -1 -84t-5 -82q39 66 107.5 110t160.5 44q84 0 155.5 -33t125 -95.5t84 -154.5t30.5 -211q0 -113 -36 -205t-96 -156.5 t-141 -100.5t-169 -36q-55 0 -98.5 12.5t-76 28t-58 27.5t-46.5 12q-33 0 -57.5 -19.5t-26.5 -47.5h-104v1186zM1489 510q0 70 -9.5 139.5t-29.5 123.5t-54 88t-83 34t-90 -35t-71 -96.5t-46 -143t-16 -176.5q0 -80 9 -150.5t31.5 -124.5t60.5 -86t95 -32q49 0 87 35 t63.5 96.5t39 145.5t13.5 182z" />
<glyph unicode="ffb" horiz-adv-x="2443" d="M1454 1174q0 45 -2 82.5t-17.5 64.5t-47 41t-91.5 14q-78 0 -122 -22.5t-66.5 -63.5t-27.5 -97t-5 -122v-129h248v-74h-248v-635q0 -49 2 -81.5t13.5 -52t36 -28t71.5 -8.5h18.5t18.5 3v-72q-78 8 -144.5 11t-127.5 3t-136 -4t-147 -14v71q10 0 17.5 -1t15.5 -1 q41 0 63.5 8.5t32.5 29t12 53t2 79.5v639h-356v-635q0 -49 2 -81.5t11 -52t30.5 -28t60.5 -8.5h25.5t30.5 3v-72q-78 8 -144.5 11t-128.5 3q-61 0 -136 -4t-146 -14v71q10 0 17 -1t15 -1q41 0 63.5 8.5t33 29t12.5 53t2 79.5v639h-184v74h184v84q0 186 111.5 298t351.5 112 q92 0 157.5 -20.5t110.5 -55.5q47 37 114.5 61.5t160.5 24.5q82 0 158.5 -6t156.5 -6q41 0 83 2t87 10v-467q0 -43 -1 -84t-5 -82q39 66 107.5 110t160.5 44q84 0 155.5 -33t125 -95.5t84 -154.5t30.5 -211q0 -113 -35.5 -205t-96 -156.5t-141.5 -100.5t-169 -36 q-55 0 -98 12.5t-76 28t-58.5 27.5t-46.5 12q-33 0 -57 -19.5t-26 -47.5h-105v1186zM2097 510q0 70 -9 139.5t-29.5 123.5t-54.5 88t-83 34t-90 -35t-70.5 -96.5t-46 -143t-16.5 -176.5q0 -80 9 -150.5t31.5 -124.5t60.5 -86t95 -32q49 0 87 35t64 96.5t39 145.5t13 182z M467 942h354v184q0 49 -4 93.5t-20.5 78t-48 54t-84.5 20.5q-74 0 -114 -30.5t-58.5 -80t-21.5 -112t-3 -123.5v-84z" />
<glyph unicode="ffh" horiz-adv-x="2500" d="M1454 1174q0 45 -2 82.5t-17.5 64.5t-47 41t-91.5 14q-78 0 -122 -22.5t-66.5 -63.5t-27.5 -97t-5 -122v-129h248v-74h-248v-635q0 -49 2 -81.5t13.5 -52t36 -28t71.5 -8.5h18.5t18.5 3v-72q-78 8 -144.5 11t-127.5 3t-136 -4t-147 -14v71q10 0 17.5 -1t15.5 -1 q41 0 63.5 8.5t32.5 29t12 53t2 79.5v639h-356v-706q0 -29 3 -47.5t13.5 -29.5t31 -16.5t56.5 -5.5h25.5t30.5 3v-72q-78 8 -144.5 11t-128.5 3q-61 0 -136 -4t-146 -14v71q10 0 17 -1t15 -1q41 0 63.5 8.5t33 29t12.5 53t2 79.5v639h-184v74h184v84q0 186 111.5 298 t351.5 112q88 0 148.5 -19.5t97.5 -46.5l18 -12q47 37 115.5 62.5t163.5 25.5q82 0 158.5 -6t156.5 -6q41 0 83 2t87 10v-467q0 -39 -2 -76t-4 -76q39 57 110.5 100.5t165.5 43.5q113 0 180.5 -34t103.5 -87t47 -117.5t11 -126.5v-373q0 -49 2 -81.5t13.5 -52t36 -28 t71.5 -8.5h26.5t31.5 3v-72q-78 8 -154 11t-137 3t-136 -4t-147 -14v71q10 0 17.5 -1t15.5 -1q41 0 62.5 8.5t31.5 29t12 53t2 79.5v336q0 90 -7 151.5t-24.5 100.5t-45 55.5t-68.5 16.5q-35 0 -73 -15.5t-70.5 -59.5t-53 -123t-20.5 -208v-250q0 -49 1 -81.5t11 -52t34 -28 t69 -8.5h23t30 3v-72q-78 8 -146.5 11t-130.5 3q-61 0 -136 -4t-146 -14v71q10 0 17 -1t16 -1q41 0 62.5 8.5t31.5 29t12 53t2 79.5v945zM467 942h354v184q0 49 -4 93.5t-20.5 78t-48 54t-84.5 20.5q-74 0 -114 -30.5t-58.5 -80t-21.5 -112t-3 -123.5v-84z" />
<glyph unicode="fh" horiz-adv-x="1890" d="M1098 942q0 -45 -6 -115h8q39 57 106.5 100.5t161.5 43.5q113 0 180.5 -34t103.5 -87t47 -117.5t11 -126.5v-373q0 -49 2 -81.5t13.5 -52t36 -28t71.5 -8.5h26.5t30.5 3v-72q-78 8 -153.5 11t-137.5 3q-61 0 -135.5 -4t-146.5 -14v71q10 0 17 -1t16 -1q41 0 62.5 8.5 t31.5 29t12 53t2 79.5v336q0 90 -7 151.5t-24.5 100.5t-45 55.5t-68.5 16.5q-35 0 -73 -15.5t-70.5 -59.5t-53 -123t-20.5 -208v-250q0 -49 2 -81.5t14 -52t37 -28t70 -8.5h23t30 3v-72q-78 8 -150.5 11t-134.5 3q-61 0 -136 -4t-146 -14v71q10 0 17 -1t15 -1q41 0 62.5 8.5 t32 29t12.5 53t2 79.5v945q0 45 -2 82.5t-17.5 64.5t-47 41t-91.5 14q-78 0 -122 -22.5t-66.5 -63.5t-27.5 -97t-5 -122v-129h248v-74h-248v-635q0 -49 2 -81.5t13.5 -52t36 -28t71.5 -8.5h18t19 3v-72q-78 8 -144.5 11t-128.5 3q-61 0 -136 -4t-146 -14v71q10 0 17 -1 t15 -1q41 0 63.5 8.5t33 29t12.5 53t2 79.5v639h-184v74h184v135q0 78 20.5 145.5t67.5 117t123 78t186 28.5q82 0 159 -6t157 -6q41 0 83 2t87 10v-504z" />
<glyph unicode="fj" horiz-adv-x="1236" d="M1077 -25q0 -78 -3 -143t-15 -113q-23 -86 -98.5 -137t-200.5 -51q-63 0 -129 17.5t-101 39.5l35 72q35 -25 68 -37t55 -12q51 0 79 29.5t41 75.5t15 103.5t2 112.5v768q0 47 -2 79t-11 52.5t-28.5 28.5t-54.5 8h-262v-635q0 -49 2 -81.5t13.5 -52t36 -28t71.5 -8.5h18 t19 3v-72q-78 8 -144.5 11t-128.5 3q-61 0 -136 -4t-146 -14v71q10 0 17 -1t15 -1q41 0 63.5 8.5t33 29t12.5 53t2 79.5v639h-184v74h184v121q0 88 26.5 162.5t83 129t143.5 85t210 30.5q106 0 178 -18t116 -48t62.5 -70t18.5 -83q0 -84 -43 -118.5t-103 -34.5 q-41 0 -68.5 13t-44 34.5t-23.5 47.5t-7 50q0 16 3 36.5t3 37.5q0 41 -23.5 63.5t-78.5 22.5q-66 0 -106 -34t-61.5 -85t-27.5 -113.5t-6 -119.5v-109h299q78 0 154.5 6t156.5 25v-998z" />
<glyph unicode="fk" horiz-adv-x="1814" d="M1098 233q0 -49 2 -81.5t12 -52t34.5 -28t67.5 -8.5h32t32 3v-72q-78 8 -154.5 11t-138.5 3q-61 0 -136 -4t-147 -14v71h13q4 0 5 -1t5 -1h16q39 0 59.5 8.5t31 29t12.5 53t2 79.5v945q0 45 -2 82.5t-17.5 64.5t-47 41t-91.5 14q-78 0 -122 -22.5t-66.5 -63.5t-27.5 -97 t-5 -122v-129h248v-74h-248v-635q0 -49 2 -81.5t13.5 -52t36 -28t71.5 -8.5h18t19 3v-72q-78 8 -144.5 11t-128.5 3q-61 0 -136 -4t-146 -14v71q10 0 17 -1t15 -1q41 0 63.5 8.5t33 29t12.5 53t2 79.5v639h-184v74h184v135q0 78 20.5 145.5t67.5 117t123 78t186 28.5 q82 0 159 -6t157 -6q41 0 83 2t87 10v-879q31 0 51 2t39.5 11.5t41 27t54.5 47.5l80 76q27 25 45 55.5t21 49.5q0 39 -74 38q-20 0 -36.5 -2t-35.5 -2v74q47 -4 96.5 -7t102.5 -3q70 0 138.5 5t129.5 17v-71q-39 0 -67.5 -4t-56.5 -18.5t-59.5 -40t-76.5 -70.5l-180 -177 q53 0 87 -21.5t60 -64.5l201 -333q61 -92 168 -93q16 0 26 3v-72q-33 4 -74.5 7t-86.5 3q-61 0 -122 -6t-106 -16q-14 33 -26.5 57t-25.5 49t-29.5 52.5t-39.5 66.5l-116 201q-16 25 -26.5 42t-23 28t-31 17.5t-48.5 6.5v-269z" />
<glyph unicode="ft" horiz-adv-x="1345" d="M467 868v-635q0 -49 2 -81.5t13.5 -52t36 -28t71.5 -8.5h18t19 3v-72q-78 8 -144.5 11t-128.5 3q-61 0 -136 -4t-146 -14v71q10 0 17 -1t15 -1q41 0 63.5 8.5t33 29t12.5 53t2 79.5v639h-184v74h184v115q0 109 37 184.5t98.5 122.5t142 68.5t169.5 21.5q109 0 216 -21.5 t199 -68.5v-422h248v-74h-248v-639q0 -70 10.5 -116.5t47.5 -46.5q31 0 64.5 28.5t74.5 110.5l72 -45q-35 -82 -105 -140.5t-168 -58.5q-119 0 -183.5 67.5t-64.5 215.5v624h-358zM467 942h358v250q0 45 -3 79t-18.5 56.5t-47 33.5t-88.5 11q-76 0 -117 -22.5t-59.5 -63.5 t-21.5 -97t-3 -122v-125z" />
<glyph unicode="tt" horiz-adv-x="1323" d="M440 866v-628q0 -72 10.5 -117t51.5 -47q31 0 63.5 30.5t71.5 108.5l72 -45q-35 -82 -104.5 -140.5t-168.5 -58.5q-119 0 -183.5 67.5t-64.5 215.5v614h-172v76q172 0 249 79t77 239h98v-318h205q162 4 235.5 82t73.5 236h99v-318h247v-76h-247v-628q0 -72 10 -117 t51 -47q31 0 63.5 30.5t71.5 108.5l72 -45q-35 -82 -104.5 -140.5t-167.5 -58.5q-119 0 -183.5 67.5t-64.5 215.5v614h-361z" />
<glyph horiz-adv-x="0" />
<glyph unicode="&#xd;" />
<glyph horiz-adv-x="0" />
<glyph horiz-adv-x="0" />
<glyph unicode=" "  horiz-adv-x="466" />
<glyph unicode="&#x09;" horiz-adv-x="466" />
<glyph unicode="&#xa0;" horiz-adv-x="466" />
<glyph unicode="!" horiz-adv-x="557" d="M279 1470q86 0 129 -56t43 -144q0 -37 -11.5 -95.5t-33.5 -144.5q-25 -102 -49.5 -225t-24.5 -252q0 -61 6 -125h-119q6 63 6 125q0 129 -24.5 252t-48.5 225q-23 86 -34.5 144.5t-11.5 95.5q0 88 43.5 144t129.5 56zM109 135q0 68 49 115t121 47t121 -47t49 -115 t-49.5 -115t-120.5 -47q-72 0 -121 47t-49 115z" />
<glyph unicode="&#x22;" horiz-adv-x="765" d="M231 1470q66 0 88.5 -36.5t22.5 -96.5q0 -45 -3 -82.5t-10 -77.5t-16.5 -90.5t-21.5 -119.5h-123q-27 141 -39 229t-12 141q0 59 24 96t90 37zM539 1470q66 0 88 -36.5t22 -96.5q0 -45 -3 -82.5t-10 -77.5t-16.5 -90.5t-21.5 -119.5h-123q-27 141 -39 229t-12 141 q0 59 24.5 96t90.5 37z" />
<glyph unicode="#" horiz-adv-x="1183" d="M209 1079h221l86 391h125l-86 -391h246l86 391h125l-86 -391h196l-32 -184h-205l-68 -307h193l-33 -185h-201l-96 -440h-125l96 440h-245l-97 -440h-125l97 440h-220l35 185h226l67 307h-215zM446 588h246l68 307h-246z" />
<glyph unicode="$" horiz-adv-x="1134" d="M524 0q-121 2 -207 31.5t-141 75t-80.5 98.5t-25.5 102q0 27 6 56.5t23.5 54t47 41t78.5 16.5q80 0 116 -39t36 -106q0 -37 -11.5 -72t-11.5 -76q0 -59 44 -82.5t126 -25.5v547q-78 33 -150.5 67.5t-128 84.5t-89 124t-33.5 184q0 74 29.5 137.5t82 111.5t126 76 t163.5 28v184h97v-182q123 -4 202.5 -34t127.5 -73t66.5 -90t18.5 -84q0 -31 -6 -60.5t-21.5 -53t-45 -39t-74.5 -15.5q-43 0 -73 15.5t-47 37t-24.5 46t-7.5 42.5q0 35 10.5 70t10.5 74q0 94 -137 94v-498q84 -35 163.5 -74.5t142 -95t100.5 -131t38 -184.5 q0 -96 -36 -164.5t-97.5 -115t-142 -71t-168.5 -30.5v-248h-97v246zM807 330q0 92 -46 148.5t-140 105.5v-506q57 8 94 33.5t57.5 60.5t27.5 76t7 82zM356 1130q0 -76 41 -129t127 -96v457q-57 -10 -90 -37t-50 -60.5t-22.5 -69.5t-5.5 -65z" />
<glyph unicode="%" horiz-adv-x="1667" d="M1143 1554l98 -47l-764 -1718l-102 43zM850 354q0 88 27.5 160t78 123t119 79.5t152.5 28.5t153.5 -28.5t119.5 -79.5t78 -123t28 -160t-28 -159.5t-78 -123t-119.5 -80t-153.5 -28.5t-152.5 28.5t-119 80t-78 123t-27.5 159.5zM1057 354q0 -158 41 -250t129 -92 q90 0 131 92.5t41 249.5q0 158 -41 250t-131 92q-88 0 -129 -92t-41 -250zM59 1079q0 88 28 160t78 123t118.5 79.5t152.5 28.5t153.5 -28.5t120 -79.5t78 -123t27.5 -160t-27.5 -159.5t-78 -123t-120 -80t-153.5 -28.5t-152.5 28.5t-118.5 80t-78 123t-28 159.5zM266 1079 q0 -158 41 -250t129 -92q90 0 131 92.5t41 249.5q0 158 -41 250t-131 92q-88 0 -129 -92t-41 -250z" />
<glyph unicode="&#x26;" horiz-adv-x="1542" d="M1083 322q43 66 56.5 121t13.5 102q0 72 -23.5 89t-82.5 17q-25 0 -43.5 -1t-32.5 -3v78q41 -4 89 -6t101 -2q63 0 130 3t120 11v-78q-10 2 -24.5 2h-24.5q-59 0 -82 -35.5t-36 -92t-31.5 -128t-67.5 -143.5q70 -68 123 -113t100 -45q23 0 46.5 16.5t51.5 57.5l62 -63 q-47 -66 -120 -105t-159 -39q-68 0 -134 33t-120 92q-53 -45 -103 -70.5t-99.5 -39t-98.5 -16.5t-98 -3q-117 0 -213 26.5t-166 79t-107.5 128t-37.5 172.5q0 123 83 223t257 174q-82 88 -134.5 178t-52.5 211q0 59 25.5 116.5t79 102.5t135.5 73t194 28q90 0 165 -19.5 t128.5 -57.5t83 -94.5t29.5 -130.5q0 -76 -33 -135t-83 -103t-109.5 -73t-110.5 -43l-43 -12zM811 1174q0 121 -43 176t-115 55t-125 -49t-53 -170q0 -43 12.5 -83t34 -78t52 -78t65.5 -85q41 29 73.5 56.5t54 62.5t33 81t11.5 112zM455 707q-37 -29 -59.5 -60t-35 -65.5 t-16.5 -74.5t-6 -83q2 -74 27.5 -144.5t70.5 -124t104.5 -86t127.5 -32.5q59 0 124.5 22.5t141.5 77.5z" />
<glyph unicode="'" horiz-adv-x="458" d="M231 1470q66 0 88.5 -36.5t22.5 -96.5q0 -45 -3 -82.5t-10 -77.5t-16.5 -90.5t-21.5 -119.5h-123q-27 141 -39 229t-12 141q0 59 24 96t90 37z" />
<glyph unicode="(" horiz-adv-x="624" d="M338 602q0 -334 64.5 -562t181.5 -376l-78 -51q-205 252 -318.5 489.5t-113.5 499.5q0 131 29.5 253t85 242t135 238.5t182.5 245.5l78 -51q-117 -145 -181.5 -370.5t-64.5 -557.5z" />
<glyph unicode=")" horiz-adv-x="626" d="M289 602q0 332 -64.5 557t-181.5 371l78 51q102 -127 182 -245.5t135.5 -238.5t85 -242t29.5 -253q0 -262 -113.5 -499.5t-318.5 -489.5l-78 51q117 147 181.5 375.5t64.5 562.5z" />
<glyph unicode="*" horiz-adv-x="806" d="M379 1174q0 31 -10.5 57t-23.5 50t-23.5 47.5t-10.5 49.5q0 45 29 68.5t66 23.5t65.5 -22.5t28.5 -69.5q0 -27 -11.5 -50t-24.5 -47t-24.5 -50.5t-11.5 -56.5l6 -5q33 10 56.5 33t45 45.5t45 40t58.5 17.5q41 0 65.5 -29t24.5 -70q0 -35 -23.5 -63.5t-76.5 -28.5 q-31 0 -61.5 7t-65.5 7q-27 0 -51 -6l-2 -6q20 -31 54 -48t64.5 -33.5t53 -38t22.5 -60.5q0 -37 -30.5 -65.5t-67.5 -28.5q-45 0 -63.5 25.5t-27 63.5t-16.5 81t-30 75h-9q-23 -33 -31 -75.5t-17 -80.5t-27.5 -63.5t-63.5 -25.5q-37 0 -66.5 28.5t-29.5 65.5q0 39 22.5 60.5 t53 38t63.5 33.5t55 48l-2 6q-29 6 -51 6q-35 0 -65.5 -7t-59.5 -7q-53 0 -77.5 28.5t-24.5 63.5q0 41 25.5 70t66.5 29q33 0 56.5 -17.5t44 -40t44 -45t58.5 -33.5z" />
<glyph unicode="+" d="M563 979v-424h416v-90h-416v-422h-98v422h-418v90h418v424h98z" />
<glyph unicode="," horiz-adv-x="569" d="M252 -27q-139 27 -139 162q0 68 49 115t121 47q78 0 124 -49t46 -119q0 -84 -34 -165t-82 -148.5t-100.5 -116.5t-86.5 -70l-48 74q37 27 71 58.5t59.5 64.5t41 62.5t15.5 52.5q0 16 -12.5 24t-24.5 8z" />
<glyph unicode="-" horiz-adv-x="804" d="M139 604h527v-102h-527v102z" />
<glyph unicode="." horiz-adv-x="561" d="M111 135q0 68 49 115t121 47t121 -47t49 -115t-49.5 -115t-120.5 -47q-72 0 -121 47t-49 115z" />
<glyph unicode="/" horiz-adv-x="956" d="M793 1559l116 -41l-745 -1711l-117 41z" />
<glyph unicode="0" horiz-adv-x="1173" d="M98 657q0 344 130 521.5t360 177.5q229 0 358 -177.5t129 -521.5q0 -342 -129 -518t-358 -176t-359.5 176t-130.5 518zM377 657q0 -150 9 -265.5t33.5 -194t65.5 -119.5t103 -41q61 0 101 41t64.5 119.5t34 194.5t9.5 265q0 150 -9.5 266.5t-34 196.5t-64.5 121t-101 41 t-102.5 -41t-66 -121t-33.5 -196.5t-9 -266.5z" />
<glyph unicode="1" horiz-adv-x="892" d="M653 258q2 -113 28 -155t93 -42q23 0 45.5 2.5t46.5 6.5v-74q-59 4 -103 6t-82 3t-74 1h-77h-82.5t-81.5 -1t-89.5 -3t-106.5 -6v74q43 -6 90 -7q78 0 109.5 42t31.5 153v727q0 76 -16 102.5t-45 26.5q-20 0 -58 -13.5t-80 -31.5t-80 -37.5t-59 -32.5l-32 91 q113 43 189.5 76.5t135 64.5t106.5 61.5t101 65.5l103 -31q-2 -23 -4.5 -66.5t-4.5 -93t-3 -96.5t-1 -76v-737v0z" />
<glyph unicode="2" horiz-adv-x="1091" d="M692 1036q0 53 -11 99.5t-34.5 80t-59.5 53t-87 19.5q-61 0 -97 -27.5t-36 -80.5q0 -35 13 -65t13 -64q0 -59 -43 -98.5t-108 -39.5q-66 0 -109 43t-43 109q0 55 31 108.5t87 94.5t136 65.5t180 24.5q109 0 192 -31t139 -80t85 -108.5t29 -116.5q0 -82 -33 -148.5 t-85 -121t-114.5 -98.5t-120.5 -79l-30 -18q-51 -31 -102.5 -65.5t-92.5 -76.5t-70.5 -94.5t-37.5 -119.5q16 2 43.5 5t56.5 4t54.5 2t35.5 1h244q59 0 94 22.5t53.5 54.5t24.5 68.5t6 65.5l111 -8q-23 -100 -33 -209t-19 -213q-115 10 -190.5 11t-140.5 1h-222 q-61 0 -141 -1t-166 -11v45q0 137 44 229t110.5 161t144.5 126t144.5 121.5t110.5 149.5t44 210z" />
<glyph unicode="3" horiz-adv-x="1091" d="M410 1057q0 -31 -12.5 -56.5t-33 -44t-47 -28.5t-53.5 -10q-72 0 -113.5 44t-41.5 107q0 55 29.5 107.5t85 92.5t135 63.5t180.5 23.5q117 0 198.5 -30t132 -77t74 -104.5t23.5 -114.5q0 -98 -32 -161.5t-77 -102.5t-92 -55.5t-78 -20.5v-10q35 -2 87 -20.5t101.5 -58.5 t84 -104.5t34.5 -158.5q0 -111 -46 -183.5t-116.5 -114.5t-153.5 -59.5t-157 -17.5q-104 0 -186 23.5t-138.5 63.5t-87 94.5t-30.5 115.5q0 20 6 47t24.5 50.5t49 40t80.5 16.5q72 0 106.5 -43t34.5 -90q0 -35 -11.5 -69t-11.5 -69q0 -37 14.5 -57t36 -31.5t47 -14.5 t48.5 -3q92 0 149.5 79t57.5 230q0 86 -26 143.5t-68 91t-93 48t-100 14.5h-22.5t-22.5 -2v82q10 -2 18.5 -2h16.5q53 0 104 13.5t90 48t62.5 95t23.5 152.5q0 45 -10 91t-31.5 83t-56.5 59.5t-82 22.5q-59 0 -96 -25.5t-37 -72.5q0 -35 14.5 -64.5t14.5 -66.5z" />
<glyph unicode="4" horiz-adv-x="1103" d="M567 498v286q0 47 1 112t7 136l-415 -534h407zM567 358h-360h-74t-88 -4l-27 144q303 356 468 576t190 282l155 -47q-4 -55 -7 -96.5t-4 -78t-1 -76.5v-93v-467h60h78.5t86.5 4v-148q-43 4 -87 4h-78h-60v-100q0 -113 22.5 -154t86.5 -41q16 0 34.5 1.5t55.5 5.5v-74 q-59 4 -101.5 6t-78 3t-68.5 1h-76h-82t-81 -1t-89 -3t-106 -6v74q43 -6 90 -7q78 0 109.5 42t31.5 153v100z" />
<glyph unicode="5" horiz-adv-x="1081" d="M258 715q41 41 106.5 73.5t172.5 32.5q96 0 178 -27.5t141 -81t93 -129t34 -171.5q0 -127 -48 -213t-121 -138.5t-157 -75t-153 -22.5q-199 0 -311.5 83t-112.5 214q0 55 39 104.5t119 49.5q39 0 65.5 -13.5t44 -34t25.5 -45t8 -49.5q0 -35 -13.5 -65.5t-13.5 -63.5 q0 -57 36 -81.5t95 -24.5q45 0 84 20.5t69 65.5t47 115.5t17 171.5q0 150 -46 238.5t-154 88.5q-88 0 -142.5 -35.5t-93.5 -109.5l-131 16q23 164 37 339t14 378q47 -4 120 -7t140 -3h244q47 0 104.5 1t135.5 9q2 -53 4 -97t6 -86t10 -84t15 -91l-99 -9q-4 53 -11 85 t-27.5 49.5t-56.5 23.5t-93 6h-279q-33 0 -54 -2t-36.5 -14t-24 -37t-12.5 -70l-26 -284h12z" />
<glyph unicode="6" horiz-adv-x="1136" d="M625 1280q-72 0 -120 -44t-79 -126t-45 -197.5t-14 -257.5q37 72 112.5 114t163.5 42q86 0 158.5 -26.5t126 -79t84 -131t30.5 -183.5q0 -98 -35.5 -178t-97 -135t-143.5 -85t-176 -30q-131 0 -224.5 52.5t-153.5 139.5t-88 203.5t-28 245.5q0 166 25.5 287t66.5 205 t95.5 135t112 78.5t112.5 37t102 9.5q123 0 200 -31t121 -74t60.5 -90t16.5 -80q0 -23 -7.5 -50t-26 -50t-48 -38t-72.5 -15q-72 0 -107.5 38t-35.5 97q0 29 10 58.5t10 64.5q0 47 -23.5 70.5t-82.5 23.5zM768 367q0 154 -44 249t-138 95q-92 0 -141.5 -96.5t-49.5 -252.5 q0 -141 48.5 -232t142.5 -91q88 0 135 93.5t47 234.5z" />
<glyph unicode="7" horiz-adv-x="964" d="M748 1124l-7 4q-37 -10 -68.5 -13t-76.5 -3h-256q-59 0 -94 -10t-54.5 -34t-27.5 -60.5t-10 -89.5l-103 8q16 86 26.5 187t10.5 212q80 -8 133 -9t101 -1h223q33 0 86 1t107.5 2t101.5 3t71 4l37 -63q-80 -135 -149.5 -258t-121.5 -234t-83 -209t-31 -184 q0 -59 18.5 -115.5t18.5 -120.5q0 -49 -15.5 -82.5t-38 -55t-52 -31t-56.5 -9.5q-90 0 -124.5 39t-34.5 111q0 100 64.5 250.5t174.5 355.5z" />
<glyph unicode="8" horiz-adv-x="1118" d="M369 653q-135 66 -187.5 148t-52.5 207q0 59 26.5 121.5t82 112.5t139.5 82t198 32q104 0 181.5 -25.5t127.5 -68.5t73.5 -101.5t23.5 -122.5q0 -117 -73.5 -194.5t-180.5 -118.5q55 -23 109.5 -58.5t97.5 -83.5t68.5 -109.5t25.5 -135.5q0 -78 -31.5 -146.5t-93 -118.5 t-150.5 -80t-202 -30q-100 0 -184 24.5t-144.5 70.5t-94.5 110.5t-34 144.5q0 70 20.5 125.5t57.5 96t87.5 70.5t109.5 48zM373 1053q0 -59 21.5 -98.5t56 -69t82 -53t98.5 -54.5q27 16 53.5 34.5t48 48.5t34.5 74t13 112q0 39 -9 81.5t-32.5 79.5t-63.5 61.5t-100 24.5 q-57 0 -96 -22.5t-62.5 -58t-33.5 -78.5t-10 -82zM774 285q0 66 -28.5 113.5t-73.5 83.5t-102.5 63.5t-114.5 54.5q-57 -29 -101.5 -101.5t-44.5 -193.5q0 -53 14.5 -104t43 -90t72.5 -62.5t104 -23.5q63 0 107 23.5t72 61t40 84t12 91.5z" />
<glyph unicode="9" horiz-adv-x="1138" d="M514 37q70 0 119 46t79.5 129t44 199.5t13.5 258.5q-33 -68 -104.5 -109t-157.5 -41q-88 0 -163 23.5t-130 74t-86 127t-31 183.5q0 100 35 180t95.5 135t142.5 84t178 29q131 0 224 -51.5t152.5 -139.5t88 -203.5t28.5 -246.5q0 -166 -25.5 -287t-66.5 -205t-95 -135 t-111.5 -78.5t-114 -37t-101.5 -9.5q-123 0 -201.5 30t-124.5 71.5t-64.5 88t-18.5 78.5q0 80 46 124t107 44q57 0 101.5 -32.5t44.5 -98.5q0 -33 -9.5 -61.5t-9.5 -63.5q0 -47 31 -76.5t84 -29.5zM371 956q0 -147 48 -239t134 -92q92 0 141 88t49 243q0 70 -12 130.5 t-35.5 104.5t-59.5 68.5t-83 24.5q-43 0 -78 -24.5t-57.5 -68.5t-34.5 -104.5t-12 -130.5z" />
<glyph unicode=":" horiz-adv-x="618" d="M139 135q0 68 49.5 115t120.5 47q72 0 121 -47t49 -115t-49 -115t-121 -47t-121 47t-49 115zM139 805q0 68 49.5 115t120.5 47q72 0 121 -47.5t49 -114.5q0 -68 -49 -115t-121 -47t-121 47t-49 115z" />
<glyph unicode=";" horiz-adv-x="622" d="M141 805q0 68 49.5 115t120.5 47q72 0 121 -47.5t49 -114.5q0 -68 -49 -115t-121 -47t-121 47t-49 115zM281 -25q-139 25 -140 160q0 68 49.5 115t120.5 47q78 0 124 -49t46 -119q0 -84 -33.5 -165t-82 -148.5t-100.5 -116.5t-87 -70l-47 74q37 27 71 59.5t59.5 65.5 t40.5 62.5t15 52.5q0 18 -12 24t-24 8z" />
<glyph unicode="&#x3c;" d="M84 541l790 436l39 -82l-731 -397l731 -412l-39 -86l-790 449v92z" />
<glyph unicode="=" d="M977 707v-91h-930v91h930zM977 391v-90h-930v90h930z" />
<glyph unicode="&#x3e;" d="M940 449l-790 -449l-39 86l731 412l-731 397l39 82l790 -436v-92z" />
<glyph unicode="?" horiz-adv-x="1032" d="M324 135q0 68 44 115t109 47q66 0 110 -47t44 -115t-44 -115t-110 -47t-109.5 47t-43.5 115zM420 426q-6 49 -6 94q0 96 29.5 174t95.5 170q23 27 47 58.5t45.5 68.5t35 77t13.5 85q0 37 -7 80t-28.5 80t-59.5 61.5t-100 24.5q-76 0 -113.5 -35t-37.5 -88q0 -35 12 -68.5 t12 -74.5q0 -61 -43 -99.5t-102 -38.5q-70 0 -112 42t-42 114q0 61 33 118.5t92.5 102.5t142.5 71.5t185 26.5q111 0 197 -25.5t143 -70.5t87 -106.5t30 -130.5q0 -96 -33 -157.5t-83 -106t-108.5 -80t-108.5 -79.5t-83 -104.5t-33 -152.5q0 -8 1 -15.5t1 -15.5h-102z" />
<glyph unicode="@" horiz-adv-x="2013" d="M1409 -35q-57 0 -101 7.5t-76 26.5t-53.5 53t-31.5 89l-12 2q-16 -25 -41 -56.5t-57.5 -59t-74.5 -46t-94 -18.5q-37 0 -94 13.5t-110.5 56.5t-91 123t-37.5 213q0 102 34.5 199.5t97 173t148.5 121.5t189 46q57 0 96 -10t65.5 -23.5t46 -23.5t37.5 -10q8 0 22.5 2t31 8 t32 17.5t27.5 31.5l86 -33l-18 -63q-14 -72 -33 -160t-35 -175t-27.5 -163t-11.5 -123q0 -27 3 -52.5t15.5 -44.5t34 -31.5t58.5 -12.5q68 0 120 53.5t86.5 139.5t52 194.5t17.5 218.5q0 166 -46 280.5t-126 187.5t-187.5 104.5t-230.5 31.5q-158 0 -306 -51t-265 -155.5 t-187.5 -264t-70.5 -376.5q0 -199 50 -344.5t141 -239.5t217 -139t278 -45q63 0 114.5 7t131.5 27l12 -82q-88 -16 -148.5 -25t-136.5 -9q-205 0 -366.5 65.5t-274 178t-172 263t-59.5 320.5q0 180 64.5 351t193.5 305.5t320.5 215t447.5 80.5q219 0 374.5 -59t255 -157.5 t145.5 -225.5t46 -262q0 -145 -41 -268t-111.5 -211.5t-165 -137.5t-198.5 -49zM764 305q2 -33 5 -77t15.5 -85t37 -69.5t65.5 -28.5q63 0 113.5 60.5t85 149.5t54 193.5t19.5 194.5q0 92 -23.5 143.5t-86.5 51.5q-55 0 -106.5 -43t-91.5 -116t-63.5 -170.5t-23.5 -203.5z " />
<glyph unicode="A" horiz-adv-x="1484" d="M1315 201q23 -53 49.5 -92t83.5 -39q12 0 29.5 1t29.5 3v-80q-78 6 -173 9t-169 3q-76 0 -169 -3t-173 -9v80q23 -4 42.5 -4h41.5q55 0 84 16t29 61q0 16 -6 39t-15 45l-112 291h-477l-101 -266q-25 -61 -24 -104q0 -41 30.5 -61.5t122.5 -20.5h32.5t33.5 4v-80 q-80 6 -148.5 9t-142.5 3q-41 0 -72.5 -1t-57.5 -2t-50.5 -4t-52.5 -5v80q14 -2 27 -2h30q33 0 55.5 7t38.5 27.5t32.5 54.5t37.5 87l477 1222h123zM438 594h420l-133 340q-23 53 -40 106.5t-28 94.5h-10z" />
<glyph unicode="B" horiz-adv-x="1349" d="M63 74q45 -6 89 -6q35 0 58 6t38.5 27.5t21.5 64.5t6 115v872q0 70 -6 112t-19 64.5t-35.5 29.5t-53.5 7q-49 0 -99 -6v80q98 -8 171 -10.5t141 -2.5q84 0 168 6.5t184 6.5q156 0 253 -33t151.5 -85t74 -114.5t19.5 -122.5q0 -70 -30 -127t-79 -98t-111.5 -65.5 t-127.5 -26.5v-10q70 0 138 -25.5t122.5 -71t88.5 -111t34 -144.5q0 -219 -142.5 -315.5t-425.5 -96.5q-70 0 -138.5 6t-145.5 6q-70 0 -149 -3t-196 -9v80zM545 786q10 -2 21.5 -2h25.5q78 0 142.5 17.5t110.5 54.5t71.5 96.5t25.5 145.5q0 123 -64.5 199.5t-181.5 76.5 q-55 0 -85.5 -8t-45 -27.5t-17.5 -54.5t-3 -90v-408zM545 244q0 -53 6 -89t20.5 -56.5t40 -29t64.5 -8.5q49 0 101 12.5t95 49.5t71 102.5t28 169.5q0 92 -26.5 153.5t-73 98.5t-111 53.5t-137.5 16.5h-38.5t-39.5 -2v-471z" />
<glyph unicode="C" horiz-adv-x="1339" d="M1231 1417q0 -63 1 -110t4 -89t9 -82t15 -89l-103 -7q-6 106 -34.5 177t-75 111t-103.5 56.5t-119 16.5q-96 0 -176 -45t-137 -132t-89 -215t-32 -292q0 -147 27.5 -270t82 -212.5t133.5 -138.5t181 -49q66 0 126 21.5t111.5 58.5t91.5 87t64 110l92 -37 q-76 -168 -217 -246t-309 -78q-152 0 -277.5 49t-217 144.5t-142.5 235.5t-51 325q0 182 55.5 322.5t153.5 236.5t232.5 145t291.5 49q143 0 246 -18.5t166 -34.5z" />
<glyph unicode="D" horiz-adv-x="1581" d="M1192 717q0 125 -21.5 242.5t-74 209t-142.5 146.5t-227 55q-66 0 -102.5 -6t-55 -23.5t-22.5 -49t-4 -81.5v-987q0 -51 6 -81.5t25.5 -48t55.5 -24t97 -6.5q131 0 220 53.5t143.5 143.5t78 209t23.5 248zM66 74q43 -6 86 -6q35 0 58 6t37.5 27.5t20.5 64.5t6 115v872 q0 70 -5 112t-18 64.5t-34.5 29.5t-54.5 7q-51 0 -96 -6v80q27 -4 72.5 -6t95 -3t95.5 -2.5t74 -1.5q53 0 89 2.5t69 4.5t71 4t97 2q166 0 306.5 -40t241.5 -126t158.5 -223.5t57.5 -333.5q0 -186 -58.5 -322.5t-161 -225.5t-241.5 -132t-299 -43q-90 0 -177 6t-181 6 q-66 0 -141.5 -2t-167.5 -10v80z" />
<glyph unicode="E" horiz-adv-x="1335" d="M63 74q45 -6 89 -6q35 0 58 6t37.5 27.5t20.5 64.5t6 115v872q0 70 -6 112t-19 64.5t-34.5 29.5t-52.5 7q-49 0 -99 -6v80q135 -8 279.5 -10.5t261.5 -2.5q147 0 292.5 3.5t285.5 9.5q0 -55 3 -100.5t7 -89.5t11 -92t18 -109l-97 -11q-6 113 -31.5 177.5t-71.5 96 t-118 39t-170 7.5q-68 0 -106.5 -5t-58 -21.5t-23.5 -50.5t-4 -89v-408q29 -2 46 -2h44q92 0 141 13.5t71.5 41t29 67.5t10.5 93l84 -4q-6 -70 -10.5 -130t-4.5 -118q0 -63 4.5 -123.5t10.5 -121.5l-84 -4q-2 51 -7.5 92t-29 67.5t-73.5 41t-142 14.5h-44.5t-45.5 -2v-469 q0 -55 3 -87t19.5 -49.5t51 -22.5t100.5 -5q119 0 200.5 10t133 48t77 109.5t35.5 194.5l99 -10q-25 -123 -34 -222.5t-14 -211.5q-162 6 -328.5 9t-318.5 3q-119 0 -252 -2t-250 -10v80z" />
<glyph unicode="F" horiz-adv-x="1216" d="M541 281q0 -70 6 -112t19.5 -64.5t35 -29.5t53.5 -7q47 0 97 6v-80q-66 4 -110 7t-81 4t-72.5 1h-80.5h-82t-72 -1t-82 -4t-109 -7v80q45 -6 87 -6q35 0 59 6t38.5 27.5t20.5 64.5t6 115v872q0 70 -6 112t-19 64.5t-34.5 29.5t-54.5 7q-47 0 -97 -6v80 q135 -8 279.5 -10.5t261.5 -2.5q147 0 277.5 3.5t269.5 9.5q0 -55 3 -100.5t7 -89.5t11.5 -92t17.5 -109l-96 -11q-6 113 -28 177.5t-62.5 96t-107.5 39t-165 7.5q-68 0 -106.5 -5t-57 -21.5t-22.5 -50.5t-4 -89v-426q31 -4 47 -4h43q92 0 141 13t71.5 41t29 68t10.5 93 l84 -4q-8 -70 -12.5 -130.5t-4.5 -117.5q0 -63 4 -123.5t13 -122.5l-84 -4q-2 51 -7.5 92t-29 68t-73.5 41t-142 14h-45.5t-44.5 -4v-405z" />
<glyph unicode="G" horiz-adv-x="1513" d="M1036 375q0 70 -6 111.5t-19.5 64t-35 30t-53.5 7.5q-47 0 -97 -6v80q63 -4 108.5 -7.5t82.5 -4.5t71.5 -1h81.5h78t66 1t75 4t107 8v-80q-23 4 -46.5 6t-39.5 2q-39 0 -60.5 -13.5t-31.5 -41t-12 -67.5t-2 -93v-170q0 -33 1 -71t7 -91q-78 -29 -212 -54.5t-288 -25.5 q-156 0 -270.5 35t-195.5 93.5t-131 135t-79 160.5t-39 169t-10 161q0 125 37 258t128 243.5t246.5 181t393.5 70.5q49 0 94 -3t90 -10t95.5 -18.5t111.5 -27.5q0 -90 4 -179t23 -185l-111 -11q-2 74 -19.5 139.5t-57.5 115.5t-102.5 80t-154.5 30q-98 0 -170.5 -33 t-126 -87t-86 -125t-53 -147.5t-28 -152.5t-7.5 -139q0 -57 6.5 -130t23.5 -149t48 -149.5t78 -130t114.5 -91t159.5 -34.5q72 0 114 14t64.5 46t28.5 82t6 120v80z" />
<glyph unicode="H" horiz-adv-x="1660" d="M1386 281q0 -70 6.5 -112t19.5 -64.5t34.5 -29.5t54.5 -7q43 0 96 6v-80q-66 4 -109.5 7t-80.5 4t-73 1h-81h-81.5t-71.5 -1t-82 -4t-109 -7v80q43 -6 86 -6q35 0 59.5 6t39 27.5t20.5 64.5t6 115v434h-579v-434q0 -70 6 -112t19.5 -64.5t35 -29.5t53.5 -7q47 0 97 6v-80 q-66 4 -110 7t-81 4t-72.5 1h-80.5h-82t-72 -1t-82 -4t-109 -7v80q45 -6 87 -6q35 0 59 6t38.5 27.5t20.5 64.5t6 115v872q0 70 -6 112t-19 64.5t-34.5 29.5t-54.5 7q-47 0 -97 -6v80q63 -4 108.5 -7t82.5 -4.5t71.5 -1.5h82.5h80.5t72.5 1.5t81 4.5t110 7v-80q-43 6 -86 6 q-35 0 -59.5 -6t-39 -27.5t-20.5 -64.5t-6 -115v-365h579v365q0 70 -6 112t-19.5 64.5t-35 29.5t-53.5 7q-53 0 -97 -6v80q63 -4 108.5 -7t82.5 -4.5t71.5 -1.5h81.5h81t73 1.5t81 4.5t109 7v-80q-47 6 -86 6q-35 0 -59.5 -6t-38.5 -27.5t-20.5 -64.5t-6.5 -115v-872z" />
<glyph unicode="I" horiz-adv-x="815" d="M541 281q0 -70 6 -112t19.5 -64.5t35 -29.5t53.5 -7q43 0 97 6v-80q-66 4 -110 7t-81 4t-72.5 1h-80.5h-82t-72 -1t-82 -4t-109 -7v80q45 -6 87 -6q35 0 59 6t38.5 27.5t20.5 64.5t6 115v872q0 70 -6 112t-19 64.5t-34.5 29.5t-54.5 7q-47 0 -97 -6v80q63 -4 108.5 -7 t82.5 -4.5t71.5 -1.5h82.5h80.5t72.5 1.5t81 4.5t110 7v-80q-47 6 -86 6q-35 0 -59.5 -6t-39 -27.5t-20.5 -64.5t-6 -115v-872z" />
<glyph unicode="J" horiz-adv-x="892" d="M373 1153q0 70 -6.5 112t-19.5 64.5t-34.5 29.5t-52.5 7q-49 0 -98 -6v80q63 -4 108 -7t82 -4.5t73 -1.5h83h81t72.5 1.5t80.5 4.5t110 7v-80q-47 6 -88 6q-35 0 -58.5 -6t-38 -27.5t-20.5 -64.5t-6 -115v-862q0 -86 -31.5 -148.5t-82 -102.5t-112 -59.5t-120.5 -19.5 t-109.5 13.5t-88.5 33t-65.5 40t-39.5 34.5l65 68q45 -41 90.5 -64t98.5 -23q27 0 49 9.5t39.5 34t28 66.5t10.5 108v872z" />
<glyph unicode="K" horiz-adv-x="1470" d="M541 281q0 -70 6 -112t19.5 -64.5t35 -29.5t53.5 -7q43 0 97 6v-80q-66 4 -110 7t-81 4t-72.5 1h-80.5h-82t-72 -1t-82 -4t-109 -7v80q43 -6 87 -6q35 0 59 6t38.5 27.5t20.5 64.5t6 115v872q0 70 -6 112t-19 64.5t-34.5 29.5t-54.5 7q-51 0 -97 -6v80q63 -4 108.5 -7 t82.5 -4.5t71.5 -1.5h82.5h80.5t72.5 1.5t81 4.5t110 7v-80q-47 6 -86 6q-35 0 -59.5 -6t-39 -27.5t-20.5 -64.5t-6 -115v-367q45 2 68.5 15.5t58.5 54.5l260 295q59 66 85.5 104.5t26.5 77.5q0 20 -20.5 26.5t-48.5 6.5q-41 0 -84 -6v80q123 -12 262 -13q66 0 124 2.5 t128 10.5v-80q-37 6 -78 6q-61 0 -104 -34t-111 -109l-334 -383q41 0 87 -24.5t87 -94.5l197 -340q39 -68 70.5 -125t65.5 -99t74 -64.5t95 -22.5q10 0 20.5 1t20.5 3v-80q-41 4 -82 7t-86 3q-82 0 -152.5 -9t-117.5 -30q-43 88 -83 166t-82 154.5t-88 157.5t-100 175 q-20 35 -38.5 54.5t-37 29t-39 10.5t-44.5 1v-432z" />
<glyph unicode="L" horiz-adv-x="1228" d="M541 262q0 -55 3 -91t19.5 -57.5t51 -29.5t100.5 -8q119 0 192.5 10t114.5 48t59.5 109.5t28.5 194.5l98 -10q-25 -123 -34 -222.5t-13 -211.5q-162 6 -303 9t-293 3q-119 0 -252 -2t-250 -10v80q45 -6 87 -6q35 0 59 6t38.5 27.5t20.5 64.5t6 115v872q0 70 -6 112 t-19 64.5t-34.5 29.5t-54.5 7q-47 0 -97 -6v80q63 -4 108.5 -7t82.5 -4.5t71.5 -1.5h82.5h80.5t72.5 1.5t81 4.5t110 7v-80q-43 6 -86 6q-35 0 -59.5 -6t-39 -27.5t-20.5 -64.5t-6 -115v-891z" />
<glyph unicode="M" horiz-adv-x="1947" d="M1673 281q0 -70 5 -112t18.5 -64.5t35 -29.5t54.5 -7q45 0 98 6v-80q-66 4 -110.5 7t-81.5 4t-73 1h-81h-82t-71.5 -1t-82 -4t-108.5 -7v80q45 -6 86 -6q35 0 59.5 6t39 27.5t20.5 64.5t6 115v616v50t1 95.5t2 104.5t3 76h-10l-457 -1188h-102q-119 313 -198 515 t-129 332t-78.5 205.5t-47.5 135.5h-10v-979q0 -102 29.5 -139t101.5 -37q20 0 44 1t46 5v-80q-66 2 -133.5 6t-142.5 4q-57 0 -94 -1t-85 -5l-75 -4v80q45 -6 88 -6q66 0 91 37.5t25 138.5v966q0 90 -24.5 123t-93.5 33q-16 0 -40 -1t-46 -3v78q84 -6 143 -9.5t119 -3.5 h58.5t70.5 2.5t72.5 4.5t60.5 6q6 -29 22.5 -78t36.5 -105l281 -745q12 -33 21.5 -68.5t13.5 -58.5h10l233 612q41 111 84 230t72 213q25 -4 58.5 -6t67.5 -4.5t65.5 -2.5h56.5q59 0 118.5 3.5t143.5 9.5v-78q-23 2 -46.5 3t-39.5 1q-70 0 -94.5 -33t-24.5 -123v-929z" />
<glyph unicode="N" horiz-adv-x="1634" d="M1276 1190q0 100 -26.5 138t-92.5 38q-43 0 -86 -6v80l74 -4q47 -4 84 -5t96 -1q66 0 133.5 3t134.5 7v-80q-43 6 -82 6q-74 0 -103.5 -37t-29.5 -139v-1227h-118l-746 1030q-12 14 -31.5 43t-40 59.5t-39 60.5t-26.5 48v-960q0 -102 29.5 -139t103.5 -37q39 0 82 6v-80 q-63 4 -129 7t-139 3q-59 0 -96.5 -1t-84.5 -5l-73 -4v80q45 -6 86 -6q66 0 92 37.5t26 138.5v966q0 90 -25.5 123t-94.5 33q-16 0 -39 -1t-45 -3v78q82 -6 141 -9.5t119 -3.5q47 0 109.5 2.5t111.5 10.5q6 -18 13 -31.5t26.5 -42.5t57.5 -82t106.5 -148.5t174 -243 t259.5 -364.5q33 -45 51 -75.5t37 -59.5v797z" />
<glyph unicode="O" horiz-adv-x="1548" d="M84 717q0 168 51 306t142.5 237.5t218.5 154.5t278 55q152 0 279 -55t218 -154.5t142 -237.5t51 -306t-51 -307.5t-142 -238.5t-218 -153.5t-279 -54.5t-278.5 54.5t-218 153.5t-142.5 238.5t-51 307.5zM391 717q0 -158 22.5 -284t70.5 -215t120 -137t170 -48t170 48 t120 137t70.5 215t22.5 284t-22.5 283.5t-70.5 215t-120 137.5t-170 48t-170 -48t-120 -137.5t-70.5 -215t-22.5 -283.5z" />
<glyph unicode="P" horiz-adv-x="1249" d="M541 719q29 -2 44 -3t42 -1q154 0 227.5 93t73.5 253q0 78 -20.5 136t-54.5 96t-79 57.5t-96 19.5q-39 0 -65.5 -5t-42 -22.5t-22.5 -49t-7 -83.5v-491zM541 281q0 -70 6 -112t19.5 -64.5t35 -29.5t53.5 -7q47 0 97 6v-80q-66 4 -110 7t-81 4t-72.5 1h-80.5h-82t-72 -1 t-82 -4t-109 -7v80q45 -6 87 -6q35 0 59 6t38.5 27.5t20.5 64.5t6 115v872q0 70 -6 112t-19 64.5t-34.5 29.5t-54.5 7q-47 0 -97 -6v80q92 -8 168 -10.5t142 -2.5q84 0 171 6.5t179 6.5q246 0 367.5 -96.5t121.5 -284.5q0 -80 -29.5 -157t-100 -135t-185.5 -94t-285 -36 h-35.5t-35.5 2v-358z" />
<glyph unicode="Q" horiz-adv-x="1548" d="M618 -23q-119 25 -217 89.5t-168.5 160t-109.5 219t-39 271.5q0 168 51 306t142.5 237.5t218.5 154.5t278 55q152 0 279 -55t218 -154.5t142 -237.5t51 -306q0 -150 -46 -278t-126 -226t-189.5 -163.5t-238.5 -88.5q8 -2 17.5 -8t26 -19.5t42 -39t66.5 -68.5 q49 -51 97 -71.5t89 -20.5q47 0 89 20.5t81 52.5l62 -59q-82 -78 -163 -112.5t-165 -34.5q-70 0 -135.5 23.5t-124 62.5t-107.5 90t-86 106q-12 20 -22.5 42.5t-12.5 51.5zM391 717q0 -158 22.5 -285t70.5 -216t120 -137t170 -48t170 48t120 137t70.5 216t22.5 285 t-22.5 283.5t-70.5 215t-120 137.5t-170 48t-170 -48t-120 -137.5t-70.5 -215t-22.5 -283.5z" />
<glyph unicode="R" horiz-adv-x="1437" d="M543 281q0 -70 6 -112t19.5 -64.5t35 -29.5t51.5 -7q45 0 99 6v-80q-66 4 -110 7t-81 4t-72.5 1h-80.5h-83t-73 -1t-81 -4t-110 -7v80q45 -6 89 -6q35 0 58 6t37.5 27.5t20.5 64.5t6 115v872q0 70 -5 112t-18 64.5t-34.5 29.5t-54.5 7q-49 0 -99 -6v80q92 -8 171 -10.5 t145 -2.5q80 0 161 7.5t167 7.5q268 0 393 -89t125 -259q0 -66 -24.5 -124.5t-72 -104.5t-117 -78.5t-157.5 -45.5v-10q82 0 135 -18.5t87 -51t52.5 -77.5t34.5 -99l86 -303q20 -72 52 -92t77 -20q25 0 48.5 2t31.5 2v-80q-49 2 -101 6t-108 4q-33 0 -60.5 -1t-56 -3 t-61.5 -6t-72 -12q-10 84 -34.5 178t-51.5 184l-28 98q-16 51 -29.5 97.5t-41.5 82t-75 56t-129 20.5q-10 0 -28.5 -1t-38.5 -3v-413zM543 768q16 -2 34.5 -3t34.5 -1q154 0 240 77t86 253q0 135 -70.5 205.5t-187.5 70.5q-39 0 -64.5 -4t-42 -20.5t-23.5 -48t-7 -87.5v-442 z" />
<glyph unicode="S" horiz-adv-x="1191" d="M846 305q0 100 -53.5 160.5t-134 103.5t-174 80t-174.5 90.5t-134 134t-53 211.5q0 86 35 158t100.5 122t156.5 79t206 29q180 0 380 -50q0 -72 1.5 -117.5t4.5 -84.5t9 -78t16 -96l-108 -11q-2 61 -14.5 126t-44 118t-88 88t-146.5 35q-78 0 -129 -24.5t-83 -62.5 t-45.5 -85t-13.5 -90q0 -80 54.5 -129t137.5 -89t178 -78t178 -96.5t137.5 -145.5t54.5 -222q0 -102 -43 -180t-116 -130.5t-170 -80t-208 -27.5q-117 0 -225.5 18.5t-202.5 43.5v65q0 47 -1 84t-5 75t-10 82t-17 109l111 11q2 -61 16.5 -134t53.5 -134.5t105.5 -103.5 t172.5 -42q63 0 116.5 22.5t90.5 59.5t57.5 85t20.5 101z" />
<glyph unicode="T" horiz-adv-x="1249" d="M758 281q0 -70 6 -112t19.5 -64.5t35 -29.5t53.5 -7q43 0 97 6v-80q-66 4 -110 7t-81 4t-72.5 1h-80.5h-82t-72 -1t-82 -4t-108 -7v80q45 -6 86 -6q35 0 59.5 6t38.5 27.5t20.5 64.5t6.5 115v876q0 70 -4.5 111t-18.5 60.5t-44 24.5t-81 5q-70 0 -110.5 -22.5t-62 -59.5 t-29 -84t-13.5 -98l-6 -56l-98 13q23 109 27.5 196.5t6.5 192.5q39 -4 114 -6t158 -3t162.5 -2.5t131.5 -1.5q51 0 131 1.5t162.5 2.5t156.5 3t115 6q2 -104 7 -192.5t28 -196.5l-99 -13l-6 56q-6 51 -14 98t-29.5 84t-61.5 59.5t-110 22.5q-51 0 -80.5 -5t-44 -24.5 t-18.5 -60.5t-4 -111v-876z" />
<glyph unicode="U" horiz-adv-x="1581" d="M246 1153q0 70 -6.5 112t-19.5 64.5t-34.5 29.5t-54.5 7q-47 0 -96 -6v80q63 -4 108 -7t82 -4.5t72 -1.5h82h81t72.5 1.5t80.5 4.5t110 7v-80q-47 6 -86 6q-35 0 -59.5 -6t-39 -27.5t-20.5 -64.5t-6 -115v-559q0 -88 5 -158.5t18.5 -128t37 -103.5t60.5 -83 q35 -29 95 -56.5t126 -27.5q92 0 167 41t128 117q29 43 46 90t26.5 110.5t11.5 145.5t2 194v475q0 96 -26.5 126t-92.5 30q-18 0 -43.5 -1t-52.5 -3v78q66 0 131.5 -5t138.5 -5q57 0 94 1t84 5l74 4v-78q-55 6 -98 6q-59 0 -83 -31.5t-24 -126.5v-592q0 -82 -4 -145 t-13 -116.5t-25.5 -97.5t-41.5 -87q-27 -43 -69.5 -81t-98 -67.5t-124 -46t-144.5 -16.5q-195 0 -332 69.5t-196 209.5q-29 68 -36 149.5t-7 188.5v575z" />
<glyph unicode="V" horiz-adv-x="1402" d="M172 1233q-20 55 -49 93t-86 38q-12 0 -28.5 -1t-28.5 -3v80q78 -6 172 -9.5t170 -3.5q74 0 161.5 3.5t167.5 9.5v-80q-23 4 -35 4h-36q-55 0 -84 -16.5t-29 -61.5q0 -16 3 -39.5t13 -46.5l230 -606q8 -20 19 -57t23.5 -77t21.5 -76t11 -52h11l288 796q6 14 13.5 37 t13.5 44.5t11 41t5 29.5q0 45 -30.5 64.5t-104.5 19.5h-41.5t-44.5 -4v80q80 -6 148.5 -9.5t144.5 -3.5q41 0 69.5 1.5t53.5 2.5t47.5 3t50.5 6v-80q-2 0 -17 2t-30 2q-29 0 -49 -8t-38.5 -28.5t-36 -55.5t-40.5 -86l-446 -1225h-115z" />
<glyph unicode="W" horiz-adv-x="2021" d="M1042 1434h107l268 -836q10 -35 18.5 -59.5t15.5 -47t14.5 -45t13.5 -53.5h10l231 785q10 31 15.5 57.5t5.5 46.5q0 41 -23.5 61.5t-87.5 20.5h-50.5t-53.5 -4v80q82 -6 149.5 -9.5t143.5 -3.5q41 0 69.5 1.5t53 2.5t48 3t52.5 6v-78q-2 0 -18.5 2t-30.5 2 q-37 0 -59.5 -8t-39 -29.5t-31 -56.5t-32.5 -86l-391 -1225h-105l-254 784q-16 47 -25 82t-15.5 63t-11.5 52.5t-11 52.5h-10l-316 -1034h-106l-396 1221q-25 76 -55.5 129t-95.5 53q-12 0 -29.5 -1t-29.5 -3v80q80 -6 174 -9.5t168 -3.5q76 0 162.5 3.5t168.5 9.5v-80 q-23 4 -35 4h-38q-55 0 -83 -16.5t-28 -61.5q0 -10 3 -26.5t7 -37t9.5 -40t9.5 -33.5l170 -549q4 -16 11 -43t13 -57.5t12.5 -59t8.5 -47.5h10z" />
<glyph unicode="X" horiz-adv-x="1437" d="M911 205q-102 158 -169.5 268.5t-79.5 151.5q-43 -59 -101.5 -132t-112 -143.5t-90 -131t-36.5 -93.5q0 -25 18 -40t68 -15h45.5t60.5 4v-80q-80 6 -148.5 9t-144.5 3q-41 0 -69.5 -1t-53 -2t-47 -4t-51.5 -5v80q20 -2 28.5 -2h18.5q29 0 51.5 7t48 28.5t56 57.5t76.5 95 q80 104 161.5 214t161.5 214q-121 182 -193.5 292t-112.5 168t-52.5 76.5t-10.5 18.5q-16 27 -31.5 48.5t-33.5 38t-41 25.5t-55 9q-10 0 -20.5 -1t-20.5 -3v80q80 -6 172 -9.5t168 -3.5q74 0 162 3.5t167 9.5v-80q-14 2 -25 3t-38 1q-57 0 -79.5 -10.5t-22.5 -55.5 q0 -14 7 -34.5t36 -61.5q55 -86 91 -138t57.5 -86t32.5 -56.5t17 -47.5q39 51 90.5 113t97.5 122t78.5 112.5t32.5 87.5q0 23 -18.5 39t-65.5 16h-48t-60 -4v80q82 -6 149.5 -9.5t143.5 -3.5q41 0 69.5 1.5t53 2.5t48 3t52.5 6v-80q-23 2 -31 2h-18q-29 0 -51.5 -8 t-48 -28.5t-56.5 -57.5t-76 -94q-70 -92 -140.5 -183.5t-139.5 -183.5l399 -617q35 -53 66.5 -86.5t95.5 -33.5q10 0 19 1t20 3v-80q-78 6 -172.5 9t-169.5 3q-74 0 -162 -3t-168 -9v80q16 0 31.5 -2t40.5 -2q59 0 81.5 10t22.5 55q0 23 -31 70z" />
<glyph unicode="Y" horiz-adv-x="1323" d="M504 1202q70 -129 111.5 -206.5t66.5 -127t37 -80t24 -61.5h11l247 447q18 35 30.5 66.5t12.5 53.5q0 37 -29.5 53.5t-94.5 16.5h-50.5t-62.5 -4v80q82 -6 149.5 -9.5t143.5 -3.5q41 0 69.5 1.5t53 2.5t48 3t52.5 6v-80q-23 2 -31 2h-18q-49 0 -76 -35t-70 -113 l-333 -608v-325q0 -70 6 -112t19.5 -64.5t35 -29.5t53.5 -7q43 0 97 6v-80q-66 4 -110 7t-81 4t-72.5 1h-80.5h-82t-72 -1t-82 -4t-109 -7v80q45 -6 86 -6q35 0 59.5 6t39 27.5t20.5 64.5t6 115v319l-338 635q-16 29 -28 52.5t-27.5 41t-37 26.5t-54.5 9q-10 0 -20.5 -1 t-22.5 -3v80q80 -6 170 -9.5t166 -3.5q74 0 162 3.5t170 9.5v-80q-14 0 -30.5 2t-43.5 2q-59 0 -93 -10.5t-34 -55.5q0 -18 8.5 -38.5t28.5 -57.5z" />
<glyph unicode="Z" horiz-adv-x="1232" d="M721 1176q29 49 51.5 82.5t63.5 89.5q-16 2 -34 4t-46.5 3t-73.5 1h-117q-92 0 -157.5 -9.5t-108.5 -42t-65.5 -98t-28.5 -176.5l-107 8q20 111 25.5 216.5t5.5 191.5q66 -4 126 -7t118.5 -5t119 -4.5t128.5 -2.5q121 0 237.5 5.5t245.5 13.5l47 -64l-651 -1081 q-18 -29 -33.5 -53.5t-32 -49t-36 -51t-44.5 -61.5q33 -4 61.5 -5t60.5 -3t75 -2h108q109 0 182.5 13t120 51t68 108.5t25.5 187.5l106 -10q-14 -70 -21 -122t-10.5 -101t-4.5 -100.5t-3 -114.5q-139 4 -265 10t-259 6q-119 0 -240.5 -4t-257.5 -12l-49 63z" />
<glyph unicode="[" horiz-adv-x="647" d="M612 -270v-78h-430v1818h430v-77h-200v-1663h200z" />
<glyph unicode="\" horiz-adv-x="956" d="M909 -152l-116 -41l-746 1711l117 41z" />
<glyph unicode="]" horiz-adv-x="647" d="M236 -270v1663h-201v77h430v-1818h-430v78h201z" />
<glyph unicode="^" d="M557 1452l447 -793l-86 -41l-408 719l-406 -719l-84 41l437 793h100z" />
<glyph unicode="_" d="M1024 -281h-1024v91h1024v-91z" />
<glyph unicode="`" horiz-adv-x="819" d="M356 1229q-18 10 -43.5 25.5t-50 36t-41 44t-16.5 49.5q0 29 20.5 54.5t73.5 25.5q45 0 83 -27.5t75 -73.5t74.5 -104.5t82.5 -119.5l-47 -54z" />
<glyph unicode="a" horiz-adv-x="1099" d="M883 -31q-76 0 -126 45t-63 105q-14 -23 -35.5 -48.5t-54.5 -48t-80 -38t-110 -15.5q-104 0 -169 27t-102 66.5t-50 86t-13 84.5q0 53 18.5 107.5t80 97.5t176 71t307.5 30v129q0 45 -5.5 90t-23 80.5t-49 57.5t-82.5 22q-66 0 -99.5 -27t-33.5 -74q0 -23 6 -46t6 -48 q0 -55 -41 -88t-92 -33q-18 0 -41 7t-43.5 22.5t-33.5 42t-13 65.5q0 37 25.5 79t74.5 78t122 59.5t167 23.5q111 0 187.5 -23.5t124.5 -67.5t69.5 -106.5t21.5 -140.5v-418q0 -66 12.5 -104.5t36.5 -38.5q14 0 30 11t30 26q16 16 31 37l57 -52q-39 -57 -99.5 -95 t-123.5 -38zM662 471q-59 0 -117 -7t-103 -31.5t-72.5 -71t-27.5 -121.5q0 -25 6 -57.5t21.5 -62.5t41 -49.5t64.5 -19.5q61 0 97 31t56.5 77t27 99t6.5 100v113z" />
<glyph unicode="b" horiz-adv-x="1150" d="M414 1098v-46v-72t-1 -83t-3 -80q39 63 106.5 108.5t159.5 45.5q84 0 155.5 -34t125 -97.5t84 -156.5t30.5 -212q0 -113 -36 -205t-96 -158.5t-141 -102.5t-169 -36q-55 0 -95 12.5t-72 27t-59.5 26.5t-54.5 12q-59 0 -80 -63h-106v1216q0 47 -2 80t-11.5 53.5t-30 29.5 t-57.5 9q-43 0 -86 -6v72q31 -2 65 -3t62 -1q78 0 155 8t157 26v-370zM805 508q0 68 -9.5 136.5t-30 125.5t-54 93t-82.5 36t-90 -36t-71 -97t-46 -144t-16 -178q0 -80 9 -151.5t31.5 -126.5t60.5 -88t95 -33q49 0 87 35t63.5 97.5t39 147.5t13.5 183z" />
<glyph unicode="c" horiz-adv-x="989" d="M944 225q-27 -57 -60.5 -105t-79.5 -83t-106.5 -54.5t-138.5 -19.5q-111 0 -199 36t-150.5 101.5t-96 160.5t-33.5 212q0 111 32.5 204t95 159.5t152 104.5t199.5 38q100 0 172 -24.5t118 -61.5t66.5 -82t20.5 -86q0 -68 -43 -100.5t-94 -32.5t-92 29.5t-41 87.5 q0 25 7 47t7 51q0 47 -24.5 79t-82.5 32q-104 0 -159.5 -114t-55.5 -331t67 -327.5t173 -110.5q31 0 66.5 12t71.5 39t69 71t59 105z" />
<glyph unicode="d" horiz-adv-x="1179" d="M346 424q0 -72 9.5 -140.5t30 -121.5t54 -87t82.5 -34t90 31.5t71 90t46 140.5t16 184q0 86 -9 160t-31.5 127t-59.5 83t-90 30t-92 -35t-64.5 -97.5t-39 -147.5t-13.5 -183zM522 963q66 0 124.5 -17.5t96.5 -77.5l7 2q-6 43 -8.5 75t-3.5 68t-1 80v109q0 47 -2 79 t-11 52.5t-28.5 28.5t-54.5 8q-41 0 -90 -6v74q31 -2 64.5 -3t62.5 -1q78 0 154.5 8t156.5 26v-1235q0 -47 2 -78.5t11.5 -52t29 -28.5t53.5 -8q41 0 91 6v-76q-31 2 -63 3t-58 1q-70 0 -135.5 -4t-145.5 -23q-6 39 -9 79t-5 87l-6 2q-45 -92 -119 -132t-160 -40 q-84 0 -155.5 31t-125 91.5t-84 150.5t-30.5 209q0 113 36 207t96 161.5t140 105.5t170 38z" />
<glyph unicode="e" horiz-adv-x="1048" d="M975 236q-53 -121 -158.5 -197t-265.5 -76q-111 0 -199 38t-148.5 104.5t-93 159.5t-32.5 204q2 113 35.5 206t94 160.5t146.5 105.5t195 38q125 0 208 -43t132 -105.5t68.5 -133t19.5 -124.5q0 -35 -10.5 -55t-36 -30.5t-71.5 -13.5t-118 -3h-403q6 -205 81 -313.5 t191 -108.5q31 0 69 11.5t75 37t71.5 68.5t61.5 108zM514 539q74 0 116 6t62.5 23.5t25.5 46t5 73.5t-12.5 86t-36 73t-55 51.5t-70.5 19.5q-51 0 -89 -36t-63.5 -91.5t-40 -122t-16.5 -129.5h174z" />
<glyph unicode="f" horiz-adv-x="749" d="M467 233q0 -49 2 -81.5t13.5 -52t36 -28t71.5 -8.5h26.5t30.5 3v-72q-78 8 -154.5 11t-138.5 3q-61 0 -136 -4t-146 -14v71q10 0 17 -1t15 -1q41 0 63.5 8.5t33 29t12.5 53t2 79.5v639h-184v74h184v141q0 51 10.5 117t47 123t107.5 96t193 39q59 0 111.5 -12t91.5 -33.5 t61.5 -53.5t22.5 -71q0 -78 -40 -103.5t-87 -25.5t-71.5 16.5t-36 42t-15.5 55.5t-11 55.5t-22.5 41.5t-50.5 16q-39 0 -61.5 -27.5t-22.5 -74.5q0 -35 4.5 -67.5t8.5 -71.5t8 -87t4 -116h248v-74h-248v-635z" />
<glyph unicode="g" horiz-adv-x="1026" d="M504 -393q158 0 242.5 55t84.5 127q0 88 -73.5 112.5t-204.5 24.5h-107q-66 0 -105.5 5.5t-55.5 13.5q-43 -33 -54.5 -72t-11.5 -59q0 -39 14.5 -76t48 -66.5t88 -47t134.5 -17.5zM332 637q0 -129 41 -202t121 -73q78 0 118.5 73t40.5 202q0 127 -41 201.5t-118 74.5 q-80 0 -121 -74.5t-41 -201.5zM999 860h-94t-61.5 1t-40 2t-29.5 3q55 -43 90 -105.5t35 -131.5q0 -154 -106.5 -242t-298.5 -88q-35 0 -72 5t-64 11q-43 -23 -60 -48t-17 -50q0 -18 7 -33.5t26.5 -27t57.5 -18.5t99 -7h170q104 0 170 -23.5t103.5 -60.5t52 -82t14.5 -86 q0 -78 -39 -142.5t-104.5 -110.5t-154.5 -70.5t-189 -24.5q-94 0 -177.5 14.5t-145.5 45t-99 77.5t-37 113q0 27 11 57.5t34.5 58t60.5 49t88 27.5q-125 57 -125 160q0 49 51.5 108.5t137.5 96.5q-92 39 -150.5 110.5t-58.5 176.5q0 76 27.5 139t80 109.5t128 73t174.5 26.5 q86 0 170 -19.5t188 -19.5q29 0 66.5 3t80.5 5v-82z" />
<glyph unicode="h" horiz-adv-x="1228" d="M436 1022q0 -37 -1 -62.5t-2 -46t-3 -40t-4 -44.5h10q37 61 105.5 101.5t163.5 40.5q119 0 188.5 -34t103 -87t43 -117.5t9.5 -126.5v-373q0 -49 1 -81.5t12 -52t34.5 -28t70.5 -8.5h26.5t31.5 3v-72q-78 8 -153 11t-136 3t-136 -4t-147 -14v71q10 0 17.5 -1t15.5 -1 q41 0 63.5 8.5t33 29t12.5 53t2 79.5v336q0 180 -32 252t-116 72q-35 0 -72.5 -15.5t-68.5 -59.5t-51.5 -123t-20.5 -208v-250q0 -49 1 -81.5t10.5 -52t32 -28t67.5 -8.5h23.5t29.5 3v-72q-78 8 -146.5 11t-129.5 3t-136 -4t-147 -14v71q10 0 17.5 -1t15.5 -1q41 0 63.5 8.5 t32.5 29t12 53t2 79.5v955q0 49 -2 82.5t-12 56.5t-32.5 33t-61.5 10q-16 0 -37 -1t-41 -3v74q31 -2 64.5 -3t62.5 -1q78 0 154.5 8t156.5 26v-444v0z" />
<glyph unicode="i" horiz-adv-x="661" d="M188 1300q0 70 41 112t113 42t113 -42t41 -112q0 -68 -41 -108.5t-113 -40.5t-113 40.5t-41 108.5zM217 705q0 47 -2 78.5t-11 52t-28.5 28.5t-54.5 8q-41 0 -90 -6v76q31 -2 64.5 -3t62.5 -1q78 0 154.5 8t156.5 27v-740q0 -49 2 -81.5t13.5 -52t36 -28t71.5 -8.5h26.5 t30.5 3v-72q-78 8 -154.5 11t-138.5 3q-61 0 -136 -4t-146 -14v71q10 0 17 -1t15 -1q41 0 64 8.5t33 29t12 53t2 79.5v476z" />
<glyph unicode="j" horiz-adv-x="612" d="M166 1300q0 70 44 112t116 42t115.5 -42t43.5 -112q0 -68 -44 -108.5t-115 -40.5q-72 0 -116 40.5t-44 108.5zM453 -25q0 -78 -3.5 -143t-15.5 -113q-23 -86 -98.5 -137t-200.5 -51q-63 0 -128.5 17.5t-100.5 39.5l35 72q35 -25 67.5 -37t54.5 -12q51 0 79 29.5 t41.5 76.5t15.5 107.5t2 120.5v760q0 47 -2 78.5t-11.5 52t-29 28.5t-54.5 8q-41 0 -90 -6v76q31 -2 65 -3t62 -1q78 0 155 8t157 27v-998z" />
<glyph unicode="k" horiz-adv-x="1159" d="M436 233q0 -49 3 -81.5t16.5 -52t39 -28t68.5 -8.5h26.5t26.5 3v-72q-78 8 -154.5 11t-137.5 3t-136 -4t-147 -14v71h12q4 0 5 -1t5 -1h17q39 0 59.5 8.5t30.5 29t12 53t2 79.5v973q0 47 -2 79t-11 52.5t-28.5 28.5t-54.5 8q-41 0 -90 -6v74q31 -4 62.5 -4h64.5 q78 0 154.5 8t156.5 26v-901q31 0 53.5 2t44 11.5t44 27t55.5 47.5l80 76q27 25 45 55.5t20 49.5q0 39 -73 38q-20 0 -37 -2t-35 -2v74q47 -4 96 -7t102 -3q70 0 138.5 5t130.5 17v-71q-39 0 -67.5 -4t-56.5 -18.5t-59.5 -40t-76.5 -70.5l-181 -177q53 0 87 -21.5t61 -64.5 l201 -333q33 -47 70.5 -70t92.5 -23q16 0 27 3v-72q-33 4 -73 7t-85 3q-61 0 -121.5 -6t-105.5 -16q-14 33 -26.5 57t-25.5 49t-29.5 52.5t-39.5 66.5l-117 201q-16 25 -28 42t-26.5 28t-34 17.5t-50.5 6.5v-269z" />
<glyph unicode="l" horiz-adv-x="638" d="M193 1202q0 47 -2.5 79t-11.5 52.5t-28.5 28.5t-54.5 8q-41 0 -90 -6v74q31 -2 64.5 -3t62.5 -1q78 0 155 8t156 26v-1235q0 -49 2.5 -81.5t13.5 -52t35.5 -28t71.5 -8.5h26.5t31.5 3v-72q-78 8 -155 11t-138 3t-136 -4t-147 -14v71q10 0 17.5 -1t15.5 -1q41 0 63.5 8.5 t32.5 29t12.5 53t2.5 79.5v973v0z" />
<glyph unicode="m" horiz-adv-x="1781" d="M719 973q68 0 115 -15.5t79.5 -42t52 -60.5t31.5 -71q33 78 110 133.5t179 55.5q98 0 159.5 -30t96.5 -80t47.5 -115.5t12.5 -135.5v-397q0 -45 2 -73.5t13 -46t34.5 -25t68.5 -7.5h23.5t28.5 3v-72q-78 8 -150 11t-133 3q-119 0 -256 -18v71q8 0 14 -1t15 -1 q33 0 50 6.5t25.5 21.5t10.5 40t2 59v385q0 90 -6.5 151.5t-20.5 98.5t-38.5 53.5t-61.5 16.5q-25 0 -57.5 -12.5t-62.5 -55.5t-49.5 -124t-19.5 -216v-276q0 -43 1 -70.5t10.5 -44t30 -23t57.5 -6.5h22t27 3v-72q-78 8 -138.5 11t-121.5 3q-119 0 -256 -18v71q8 0 14 -1 t14 -1q33 0 51.5 6.5t26.5 21.5t9 40t1 59v385q0 90 -6 151.5t-20.5 98.5t-39 53.5t-61.5 16.5q-25 0 -57.5 -12.5t-62 -55.5t-49 -124t-19.5 -216v-278q0 -35 2 -60.5t11 -44t29.5 -28t57.5 -9.5h21.5t25.5 3v-72q-78 8 -138 11t-122 3q-63 0 -133.5 -4t-138.5 -14v71 q49 0 75.5 5.5t40 20.5t15.5 44t2 76v498q0 47 -2 78.5t-11 52t-28.5 28.5t-54.5 8q-37 0 -86 -6v76q29 -2 59.5 -3t54.5 -1q72 0 132.5 8t140.5 27q8 -55 12 -91t8 -77h9q35 72 103.5 120t166.5 48z" />
<glyph unicode="n" horiz-adv-x="1261" d="M459 815q41 74 106.5 115t182.5 41q113 0 178 -31t100 -82t45 -116.5t10 -135.5v-373q0 -49 2 -81.5t13.5 -52t36 -28t71.5 -8.5h26.5t31.5 3v-72q-78 8 -155 11t-138 3t-134 -4t-143 -14v71q10 0 17.5 -1t15.5 -1q39 0 60.5 8.5t30.5 27t11 48t2 72.5v350 q0 180 -31.5 252t-115.5 72q-35 0 -73 -15.5t-68.5 -59.5t-51 -123t-20.5 -208v-262q0 -35 2 -64.5t12.5 -50t33 -32t63.5 -11.5h25t30 3v-72q-78 8 -147.5 11t-131.5 3q-61 0 -136 -4t-146 -14v71q10 0 17 -1t15 -1q41 0 64 8.5t33 29t12 53t2 79.5v476q0 47 -2 78.5 t-11 52t-28.5 28.5t-54.5 8q-41 0 -90 -6v76q31 -2 62.5 -3t58.5 -1q70 0 135 8t145 27q10 -55 13.5 -86t5.5 -72h8z" />
<glyph unicode="o" horiz-adv-x="1128" d="M78 471q0 115 36 209t100.5 160.5t153.5 102.5t195 36t196.5 -36t155 -102.5t100.5 -160.5t36 -209t-36 -208t-100.5 -159.5t-154.5 -103.5t-197 -37q-106 0 -195 37t-153.5 103.5t-100.5 159.5t-36 208zM367 471q0 -100 10 -182t32.5 -140.5t60.5 -91t93 -32.5t94 32.5 t61.5 91t33 140.5t10.5 182t-10.5 182t-33 140.5t-61.5 91.5t-94 33t-93 -33t-60.5 -91.5t-32.5 -140.5t-10 -182z" />
<glyph unicode="p" horiz-adv-x="1181" d="M444 -221q0 -49 2.5 -82t13.5 -52.5t35.5 -27.5t71.5 -8h26.5t31.5 2v-72q-78 8 -155 11.5t-138 3.5t-136 -4.5t-147 -14.5v72q10 0 17.5 -1t15.5 -1q41 0 63.5 8t32.5 28.5t12.5 53.5t2.5 80v925q0 47 -2.5 79t-11.5 52.5t-28.5 28.5t-54.5 8q-41 0 -90 -6v76 q31 -2 62.5 -3t58.5 -1q70 0 135.5 8t145.5 27q6 -43 9 -90.5t3 -75.5h8q35 76 110.5 122t168.5 46q84 0 155.5 -32t124.5 -93.5t84 -152.5t31 -210q0 -113 -36 -207t-96.5 -161.5t-141 -104.5t-169.5 -37q-61 0 -117.5 18.5t-105.5 76.5l-8 -2q10 -47 13 -97.5t3 -87.5 v-102zM836 510q0 70 -9.5 139.5t-30 124.5t-54 90t-83.5 35q-49 0 -90 -32.5t-70.5 -92t-46 -142.5t-16.5 -186q0 -86 9.5 -159.5t32 -125.5t60 -82t95.5 -30q49 0 87 35t63.5 96.5t39 146.5t13.5 183z" />
<glyph unicode="q" horiz-adv-x="1148" d="M346 440q0 -72 9.5 -141.5t30 -126.5t54 -92t82.5 -35t90 36t71 98.5t46 146.5t16 178q0 80 -9 150.5t-31.5 123.5t-60.5 85t-95 32q-49 0 -87 -34t-63.5 -94t-39 -144.5t-13.5 -182.5zM989 -176q0 -59 2 -100t11.5 -67t30 -37t57.5 -11h18t20 2v-72q-78 8 -133 11.5 t-118 3.5q-31 0 -74 -1.5t-89 -3.5t-91 -6t-78 -8v72q20 -2 40.5 -2h37.5q76 0 95 46t19 136v162v67.5t4 110.5q-39 -63 -106.5 -108.5t-159.5 -45.5q-84 0 -155.5 33t-125 95.5t-84 154.5t-30.5 211q0 113 36 206t96 158.5t140 102.5t170 37q55 0 106.5 -14.5t110.5 -57.5 q16 -8 41 -8q31 0 59.5 17.5t39.5 47.5h110v-1132z" />
<glyph unicode="r" horiz-adv-x="946" d="M709 977q61 0 104 -17.5t68.5 -45t38 -61.5t12.5 -67q0 -53 -36 -95t-95 -42q-49 0 -76 16.5t-40 42t-17 55.5t-7.5 56.5t-10.5 44t-27 19.5q-70 0 -112 -112t-42 -308v-230q0 -49 2 -81.5t13.5 -52t36 -28t71.5 -8.5h26.5t30.5 3v-72q-78 8 -154.5 11t-138.5 3 q-61 0 -136 -4t-146 -14v71q10 0 17 -1t15 -1q41 0 64 8.5t33 29t12 53t2 79.5v476q0 47 -2 78.5t-11 52t-28.5 28.5t-54.5 8q-37 0 -86 -6v76q29 -2 59.5 -3t55.5 -1q68 0 132 8t144 27q12 -55 13 -88t3 -74h9q31 68 93.5 117t164.5 49z" />
<glyph unicode="s" horiz-adv-x="948" d="M803 887q0 -59 4 -108.5t16 -104.5l-98 -10q0 37 -5 82t-24.5 82.5t-61.5 63.5t-116 26q-98 0 -147 -51.5t-49 -116.5q0 -35 13 -59.5t38.5 -42t62.5 -32t86 -30.5q70 -25 133.5 -49.5t111.5 -60.5t76.5 -87t28.5 -127q0 -84 -37.5 -140t-99 -92t-137.5 -51.5t-152 -15.5 q-94 0 -179 13.5t-156 35.5q0 66 -6.5 130.5t-16.5 138.5l98 10q2 -53 16.5 -101.5t43 -85t72.5 -58t104 -21.5q102 0 153.5 52t51.5 120q0 37 -16.5 63.5t-43 47t-63.5 35.5t-76 30q-74 27 -136.5 52.5t-107.5 61t-69.5 86t-24.5 125.5q0 51 23.5 102.5t71.5 90.5t122 63.5 t172 24.5q123 0 198 -16.5t122 -32.5z" />
<glyph unicode="t" horiz-adv-x="710" d="M16 866v76q172 0 249 79t77 239h98v-318h248v-76h-248v-628q0 -72 10.5 -117t51.5 -47q31 0 63.5 30.5t71.5 108.5l72 -45q-35 -82 -104.5 -140.5t-168.5 -58.5q-119 0 -183.5 67.5t-64.5 215.5v614h-172z" />
<glyph unicode="u" horiz-adv-x="1216" d="M1020 233q0 -47 2 -78.5t11 -52t28.5 -28.5t54.5 -8q37 0 86 6v-76q-31 2 -60.5 3t-56.5 1q-70 0 -134 -8t-144 -27q-10 55 -11 86t-3 72l-11 2q-35 -76 -103.5 -120t-170.5 -44q-113 0 -177.5 34t-98 87t-43 117.5t-9.5 126.5v381q0 47 -1 78.5t-9 52t-27.5 28.5 t-54.5 8q-39 0 -88 -6v74q31 -2 61.5 -3t59.5 -1q78 0 154.5 8t156.5 27v-606q0 -180 32 -252t101 -72q33 0 69 16.5t65.5 61.5t49 125t19.5 209v252q0 47 -2 78.5t-11.5 52t-28.5 28.5t-54 8q-41 0 -90 -6v74q31 -2 64.5 -3t62.5 -1q78 0 154.5 8t156.5 27v-740z" />
<glyph unicode="v" horiz-adv-x="1075" d="M535 506q35 -82 51 -137.5t20 -89.5h8l142 333q4 12 14 38t21.5 57.5t19.5 64.5t8 57q0 27 -25.5 36t-56.5 9h-34.5t-30.5 -2v74q41 -4 85 -7t89 -3q55 0 113.5 4t111.5 12v-78q-10 2 -17 2.5t-16 0.5q-47 0 -72.5 -29t-54.5 -100l-325 -783h-99l-290 701 q-23 63 -41.5 104t-36 63.5t-35.5 31.5t-43 9h-14.5t-24.5 -4v76q57 -4 132 -7t138 -3t146.5 3t146.5 13v-75q-14 2 -27.5 3t-27.5 1q-29 0 -60.5 -7.5t-31.5 -42.5q0 -23 14 -65.5t37 -95.5l66 -164v0z" />
<glyph unicode="w" horiz-adv-x="1560" d="M842 422q-23 59 -33 96t-18 66h-9l-225 -619h-100l-221 602q-35 96 -60.5 155.5t-47.5 92.5t-43.5 45t-47.5 12q-6 0 -17.5 -1t-19.5 -1v76q57 -4 133 -7t139 -3t146.5 3t146.5 13v-71h-39q-61 0 -84.5 -14.5t-23.5 -49.5q0 -29 11 -66.5t26 -72.5l73 -205 q12 -35 24.5 -81t25.5 -95h8l233 645h80l168 -457q16 -47 33.5 -94t32.5 -94h8l133 375q31 106 31 157q0 33 -21.5 41.5t-50.5 8.5q-20 0 -35.5 -2.5t-34.5 -4.5v74q41 -4 85 -6t89 -2q55 0 108.5 3t106.5 11v-69q-8 2 -17 2h-15q-27 0 -43.5 -8.5t-29.5 -25.5t-23.5 -45 t-24.5 -67l-281 -774h-108z" />
<glyph unicode="x" horiz-adv-x="1091" d="M729 739q33 39 46 59.5t13 45.5q0 23 -17 31t-42 8q-14 0 -34.5 -1t-41.5 -3v67q53 -4 94 -6t82 -2q51 0 119 2t115 12v-71q-6 0 -13.5 1t-13.5 1q-31 0 -50 -3t-36.5 -13.5t-36 -29t-45.5 -51.5l-213 -262l95 -131q68 -94 109.5 -157.5t74.5 -102.5t63.5 -55.5 t75.5 -16.5q6 0 12.5 1t10.5 1v-67q-27 2 -66 4t-79 4t-73.5 2h-48.5q-70 0 -137 -3t-139 -13v71q12 -2 25.5 -2h23.5q25 0 41 5.5t16 23.5q0 12 -13 37t-30.5 52.5t-36 53t-28.5 41.5l-66 101l-90 -103q-53 -59 -86 -106t-33 -72q0 -18 20.5 -24.5t55.5 -6.5q25 0 39.5 1 t38.5 6v-72q-43 4 -94 6t-94 2h-56.5t-64.5 -2t-62.5 -4t-54.5 -8v76q6 -2 13.5 -2.5t13.5 -0.5q94 0 145 68l258 303q-104 141 -162.5 227.5t-92.5 134.5t-56.5 64.5t-54.5 16.5h-16.5t-18.5 -3v72q59 -6 118.5 -8t120.5 -2q72 0 144.5 3t148.5 13v-71q-14 2 -24.5 2h-20.5 q-39 0 -54 -8.5t-15 -24.5q0 -14 11 -35.5t27 -46.5q49 -72 76 -108.5t41 -69.5z" />
<glyph unicode="y" horiz-adv-x="1073" d="M614 -96q-37 -102 -65.5 -174t-58 -117t-65.5 -64.5t-85 -19.5q-76 0 -111.5 36t-35.5 85q0 43 31.5 82t90.5 39q33 0 52.5 -8.5t38.5 -8.5q29 0 53 24.5t47 92.5l43 129q-35 2 -55.5 12.5t-36.5 46.5l-215 504q-41 92 -66.5 151.5t-46 95.5t-40 49t-48.5 13 q-4 0 -16.5 -1t-18.5 -1v76q57 -4 133 -7t140 -3q63 0 146 3t146 13v-75q-18 2 -26 3t-13.5 2t-10.5 1h-19q-29 0 -53.5 -10.5t-24.5 -41.5q0 -25 13.5 -62.5t37.5 -98.5l98 -248q6 -12 14.5 -36t16.5 -48.5t16.5 -48t12.5 -35.5h8l150 424q14 39 25 80t11 69 q0 31 -25.5 41.5t-58.5 10.5q-16 0 -32.5 -2.5t-30.5 -4.5v74q41 -4 85 -6t89 -2q55 0 108.5 3t106.5 11v-69q-10 2 -16 2h-15q-29 0 -48 -10.5t-36.5 -37t-36 -72.5t-43.5 -118z" />
<glyph unicode="z" horiz-adv-x="964" d="M475 860q-72 0 -125 -6t-90 -30.5t-59.5 -73t-28.5 -132.5l-86 9q2 10 8 54t12.5 95t11.5 99.5t5 66.5q49 -6 144 -9t210 -3q106 0 205.5 3t165.5 9l20 -57l-383 -637q-18 -31 -32.5 -53.5t-27.5 -42t-26.5 -38t-31.5 -40.5q68 -6 127 -6q100 0 160.5 15t92 49t43 87 t15.5 129l94 -8q0 -4 -1 -6t-1 -6q-14 -70 -25.5 -149t-15.5 -189q-49 6 -150.5 9t-224.5 3q-117 0 -223 -3t-172 -9l-20 53l397 662q23 39 46 76.5t58 76.5q-23 0 -46 1t-46 1z" />
<glyph unicode="{" horiz-adv-x="636" d="M416 784q-6 -86 -38 -139t-112 -76v-8q84 -20 117 -73.5t33 -141.5v-436q0 -31 5 -62.5t22.5 -59.5t51 -49.5t91.5 -29.5v-57q-39 0 -105.5 10t-130 40t-110.5 84t-47 144v467q0 72 -32 103.5t-110 42.5q-12 12 -12 24q0 8 8 21q49 4 78 15t44 33.5t19.5 57.5t4.5 84v414 q0 90 46 144.5t109.5 84t130 39.5t105.5 10v-57q-57 -10 -90 -30.5t-50.5 -48t-22.5 -59.5t-5 -63v-428v0z" />
<glyph unicode="|" horiz-adv-x="483" d="M303 -512h-123v2048h123v-2048z" />
<glyph unicode="}" horiz-adv-x="634" d="M221 1212q0 31 -5 63t-22.5 59.5t-50 48t-90.5 30.5v57q39 0 105.5 -10t130 -39.5t109.5 -84t46 -144.5v-414q0 -49 4.5 -84t19.5 -57.5t44 -33.5t78 -15q6 -10 6 -21q0 -14 -10 -24q-59 -4 -100.5 -34t-41.5 -112v-467q0 -90 -47 -144t-110.5 -84t-130 -40t-105.5 -10 v57q57 8 91 29.5t51.5 49.5t22.5 59.5t5 62.5v436q0 176 150 217v8q-84 23 -114 75t-36 138v428z" />
<glyph unicode="~" d="M932 573q-45 -90 -104.5 -126.5t-127.5 -36.5q-41 0 -91 15t-97 38q-51 25 -90 43t-92 18t-90 -32.5t-70 -79.5l-78 43q41 74 101.5 113.5t148.5 39.5q61 0 113.5 -23.5t95.5 -43.5q51 -23 90 -36t68 -13q51 0 80.5 31.5t64.5 86.5z" />
<glyph unicode="&#xa1;" horiz-adv-x="524" d="M262 -471q-86 0 -129 56.5t-43 144.5q0 37 11.5 95t33.5 144q25 102 49.5 225t24.5 252q0 59 -6 125h119q-6 -66 -7 -125q0 -129 25 -251.5t49 -225.5q23 -86 34 -144t11 -95q0 -88 -43 -144.5t-129 -56.5zM92 864q0 68 49 115t121 47t121 -47t49 -115t-49 -115t-121 -47 t-121 47t-49 115z" />
<glyph unicode="&#xa2;" horiz-adv-x="1013" d="M946 225q-49 -106 -127 -177t-211 -83v-211h-94v211q-100 8 -180 46t-136.5 103.5t-86 156.5t-29.5 202q0 104 29.5 193.5t85 155t135.5 106.5t182 49v201h94v-201q88 -6 150.5 -30.5t102.5 -61.5t58.5 -79t18.5 -81q0 -68 -43 -100.5t-94 -32.5t-92 29.5t-41 87.5 q0 25 7 47t7 51q0 39 -17.5 67.5t-56.5 38.5v-878q31 2 65 14t68.5 40t67.5 70t57 103zM360 473q0 -170 41 -274.5t113 -143.5v850q-74 -33 -114 -141.5t-40 -290.5z" />
<glyph unicode="&#xa3;" horiz-adv-x="1245" d="M74 784h219q6 135 19.5 259t58.5 219.5t135 151.5t250 56q90 0 157.5 -21.5t111.5 -57t65.5 -78.5t21.5 -86q0 -88 -42 -123t-101 -35q-68 0 -103 48t-35 108q0 23 4.5 44t4.5 40q0 47 -30 67.5t-73 20.5q-84 0 -123 -54.5t-53 -141.5t-14 -196.5t-6 -220.5h272v-82h-278 q-6 -68 -17.5 -137t-33 -137t-52.5 -132.5t-76 -119.5l6 -10q37 25 68 38t59.5 19t57 7t59.5 1q43 0 86 -10t86 -21.5t87 -21.5t87 -10q41 0 82 26.5t70 102.5l78 -33q-27 -86 -64 -140t-82 -85t-97 -42t-110 -11q-102 0 -205.5 17t-217.5 17q-63 0 -133 -10t-148 -41 l-57 60q59 63 99 144t64.5 170t38 181t19.5 178h-215v82z" />
<glyph unicode="&#xa4;" horiz-adv-x="1206" d="M983 174l-137 162q-49 -39 -119 -59.5t-123 -20.5q-27 0 -59.5 5t-66.5 14.5t-64.5 24.5t-55.5 34l-133 -160l-104 102l149 140q-45 57 -67.5 124.5t-22.5 137.5q0 145 90 258l-149 145l104 101l135 -160q49 39 121 58.5t125 19.5q51 0 122 -19.5t122 -58.5l133 160 l104 -101l-149 -143q45 -53 67.5 -120.5t22.5 -139.5t-22.5 -137.5t-69.5 -120.5l149 -144zM604 975q-106 0 -171.5 -82t-65.5 -215q0 -135 66.5 -217t172.5 -82t171 82t65 217q0 133 -64.5 215t-173.5 82z" />
<glyph unicode="&#xa5;" horiz-adv-x="1396" d="M506 727l-260 508q-31 59 -58.5 94t-89.5 35q-10 0 -20 -1t-23 -3v80q80 -6 174.5 -9.5t167.5 -3.5q147 0 312 13v-80q-20 2 -27.5 3t-26.5 1q-59 0 -93 -10.5t-34 -55.5q0 -18 11.5 -42.5t25.5 -53.5l221 -475h11l225 447q16 35 28.5 66.5t14.5 53.5q0 37 -29.5 53.5 t-95.5 16.5h-23.5h-18.5t-20.5 -1t-29.5 -3v80q82 -6 139 -9.5t133 -3.5q41 0 70 1.5t53.5 2.5t48 3t51.5 6v-80q-23 2 -30.5 2h-18.5q-23 0 -40 -9.5t-36.5 -31t-41 -58t-50.5 -92.5l-227 -444h193l2 -86h-240l-16 -35v-98h258v-86h-258v-141q0 -70 6 -111t19.5 -63.5 t35 -29.5t53.5 -7h46.5t50.5 4v-80q-66 4 -110 7t-81 4t-72.5 1h-80.5h-82t-72 -1t-82 -4t-109 -7v80q23 -4 44.5 -4h41.5q35 0 59.5 6t39 27.5t20.5 63.5t6 114v141h-282v86h282v92l-22 41h-260v86h217z" />
<glyph unicode="&#xa6;" horiz-adv-x="483" d="M303 -338h-123v752h123v-752zM303 692h-123v752h123v-752z" />
<glyph unicode="&#xa7;" horiz-adv-x="1103" d="M369 868q-127 61 -173 133t-46 181q0 55 26.5 107t76.5 92t125 64.5t171 24.5q74 0 147.5 -16t133 -48t96.5 -77t37 -102q0 -59 -37 -102.5t-105 -43.5t-105.5 36t-37.5 91q0 16 7 40t7 40q0 33 -13 54.5t-33.5 34t-46.5 17.5t-50 5q-23 0 -53.5 -7.5t-57 -25.5t-45 -49 t-18.5 -76q0 -51 18.5 -88t49 -63.5t67.5 -45t74 -32.5q98 -37 179 -73t137 -79t88 -98t32 -133q0 -123 -66.5 -205t-220.5 -152q39 -18 82 -41.5t79 -58.5t58.5 -86t22.5 -125q0 -68 -33 -126t-90 -100t-135 -66.5t-166 -24.5q-72 0 -147.5 18.5t-137 52t-100.5 83.5 t-39 116q0 59 37 102t104 43q68 0 106 -41t38 -96q0 -23 -7.5 -45t-7.5 -45q0 -33 14.5 -55.5t36 -35.5t48 -19.5t53.5 -6.5q37 0 72.5 9.5t63.5 30t45.5 52t17.5 76.5q0 55 -23 93t-65 66t-99 51.5t-125 49.5q-66 27 -129 57.5t-113.5 74.5t-81 105.5t-30.5 149.5 q0 117 70 192.5t217 145.5zM313 596q0 -63 24.5 -103t63.5 -68t86.5 -47.5t94.5 -37.5l57 -25q29 14 55.5 35t48 47.5t33.5 61.5t12 80q0 61 -26.5 102t-67.5 68.5t-90 48t-94 41.5l-57 26q-53 -31 -96.5 -85t-43.5 -144z" />
<glyph unicode="&#xa8;" horiz-adv-x="819" d="M92 1249q0 55 39 93t94 38q53 0 93 -37.5t40 -93.5q0 -55 -39.5 -92t-93.5 -37q-55 0 -94 37t-39 92zM461 1249q0 55 39 93t94 38q53 0 93 -37.5t40 -93.5q0 -55 -40 -92t-93 -37q-55 0 -94 37t-39 92z" />
<glyph unicode="&#xa9;" horiz-adv-x="1579" d="M1053 1126q0 -39 2 -65.5t3 -48t4 -42t7 -44.5l-63 -4q-2 57 -17.5 93t-40 56.5t-55.5 27.5t-64 7q-109 0 -172 -85t-63 -269q0 -346 229 -346q66 0 119 37.5t82 101.5l66 -27q-47 -92 -122 -135t-169 -43q-88 0 -160 25.5t-124 77t-80.5 129t-28.5 180.5 q0 98 32.5 173.5t89 127t134 77t167.5 25.5q76 0 130.5 -9.5t93.5 -19.5zM86 715q0 154 55.5 282.5t150.5 223t223 146.5t273 52t274.5 -52t224.5 -146.5t150.5 -223.5t55.5 -282q0 -154 -55.5 -283t-150.5 -222t-224 -145.5t-275 -52.5q-145 0 -273 52.5t-223 145.5 t-150.5 222t-55.5 283zM158 715q0 -129 50 -244t136 -201t200.5 -136t243.5 -50q131 0 246 50t201 136t136 201t50 244q0 131 -50 245.5t-136 200.5t-200.5 136.5t-246.5 50.5q-129 0 -243.5 -50.5t-200.5 -136.5t-136 -200.5t-50 -245.5z" />
<glyph unicode="&#xaa;" horiz-adv-x="815" d="M598 866q-47 0 -75.5 22.5t-39.5 57.5q-16 -29 -52 -56.5t-112 -27.5q-66 0 -106.5 16.5t-63 41t-31.5 52t-9 50.5q0 33 11 64.5t48 58t106.5 43t186.5 18.5v76q0 27 -3 53.5t-12.5 48t-27 34t-45.5 12.5q-72 0 -72 -58q0 -14 3 -27.5t3 -29.5q0 -35 -26.5 -56.5 t-61.5 -21.5q-27 0 -57.5 18.5t-30.5 69.5q0 53 64.5 99t179.5 46q131 0 189.5 -52t58.5 -152v-250q0 -37 5 -58.5t19 -21.5q18 0 37 22q8 8 16 23l41 -35q-25 -37 -60.5 -58.5t-82.5 -21.5zM461 1165q-102 0 -140 -37.5t-38 -101.5q0 -16 4 -34.5t12 -36t22.5 -29 t34.5 -11.5q33 0 54.5 18.5t32 46.5t14.5 59.5t4 60.5v65z" />
<glyph unicode="&#xab;" horiz-adv-x="923" d="M502 123l-51 -39l-312 315q-33 35 -46 56.5t-13 48.5q0 33 13 53.5t50 56.5l308 310l51 -39l-209 -381zM834 123l-52 -39l-311 315q-33 35 -46 56.5t-13 48.5q0 33 13 53.5t50 56.5l307 310l52 -39l-209 -381z" />
<glyph unicode="&#xac;" d="M856 608h-790v90h888v-479h-98v389z" />
<glyph unicode="&#xad;" horiz-adv-x="804" d="M139 604h527v-102h-527v102z" />
<glyph unicode="&#xae;" horiz-adv-x="1130" d="M686 748q-4 14 -4 20t-4 16l-37 129q-6 18 -9 34t-12.5 28t-27 19t-49.5 7q-10 0 -21 -2v-143q0 -45 8.5 -55t28.5 -10h13.5t27.5 2v-43q-78 6 -129 6q-57 0 -127 -6v43q16 -2 23.5 -2h11.5q23 0 32 10t9 55v332q0 33 -10.5 44t-34.5 11h-14.5t-18.5 -2v45q31 -4 61.5 -5 t55.5 -1q27 0 53.5 2t65.5 2q61 0 99 -12t59.5 -30.5t28.5 -42t7 -44.5q0 -51 -31.5 -85t-93.5 -44v-6q45 0 62.5 -21.5t33.5 -68.5l33 -96q8 -25 20.5 -34t39.5 -9h13t15 2v-43q-23 2 -39 3t-32 1t-46 -1t-61 -5zM664 1155q0 94 -86 94q-39 0 -47.5 -11t-8.5 -50v-146 q6 -2 14.5 -2h12.5q63 0 89 31t26 84zM78 989q0 109 38 198t104.5 152.5t154.5 98.5t190 35q100 0 189.5 -35t156 -98.5t104.5 -152.5t38 -198t-38 -198t-104.5 -152.5t-155.5 -98t-190 -34.5q-102 0 -190 36t-154.5 100.5t-104.5 152.5t-38 194zM147 989q0 -86 33 -162.5 t89.5 -133t133 -89.5t162.5 -33q88 0 164 33t133.5 89.5t90 133t32.5 162.5q0 88 -32.5 164t-90 133t-133.5 90t-164 33q-86 0 -162.5 -33t-133 -90t-89.5 -133t-33 -164z" />
<glyph unicode="&#xaf;" horiz-adv-x="819" d="M119 1305h583v-109h-585z" />
<glyph unicode="&#xb0;" horiz-adv-x="770" d="M94 1171q0 66 23.5 120.5t63.5 94t92.5 62t111.5 22.5q63 0 116.5 -22.5t92.5 -62t60.5 -94t21.5 -120.5t-21.5 -120t-60.5 -92.5t-92 -60t-117 -21.5q-63 0 -116.5 21.5t-92.5 60t-60.5 92.5t-21.5 120zM197 1171q0 -90 50 -144t138 -54t138 54t50 144t-50 146.5 t-138 56.5t-138 -56.5t-50 -146.5z" />
<glyph unicode="&#xb1;" d="M565 981v-360h353v-91h-353v-362h-102v362h-354v91h354v360h102zM109 0v90h809v-90h-809z" />
<glyph unicode="&#xb2;" horiz-adv-x="755" d="M477 1251q0 70 -29.5 117t-97.5 47q-39 0 -63.5 -16.5t-28.5 -46.5q0 -23 10.5 -43.5t10.5 -46.5q0 -47 -30 -73t-77 -26t-78 32t-31 77q0 37 21.5 71.5t60.5 61.5t95.5 43t126.5 16q80 0 137 -19.5t95 -50t56.5 -70.5t18.5 -81q0 -55 -24.5 -98t-61.5 -78t-82 -63.5 t-84 -55.5q-39 -23 -75 -42t-64.5 -44.5t-49 -58.5t-28.5 -80q16 4 40.5 5t41.5 1h215q39 0 61.5 14.5t33.5 35t14 44t5 41.5l72 -8q-14 -59 -19 -119.5t-5 -103.5v-29.5t2 -28.5q-78 6 -128.5 7.5t-93.5 1.5h-202q-33 0 -75 -3t-101 -8q0 82 20 142.5t54 105.5t77 80t86 68 q35 25 66.5 51.5t55.5 59t38 74.5t14 97z" />
<glyph unicode="&#xb3;" horiz-adv-x="761" d="M291 1268q0 -49 -34 -75t-71 -26q-51 0 -80.5 31t-29.5 78q0 78 78.5 133t220.5 55q82 0 138 -19.5t91 -50t51.5 -69.5t16.5 -76q0 -59 -19.5 -98t-48.5 -64.5t-59.5 -40t-55.5 -20.5v-8q39 -6 76 -22.5t64.5 -44t44 -66.5t16.5 -90q0 -74 -31.5 -121t-81 -75t-106.5 -39 t-106 -11q-147 0 -227.5 56.5t-80.5 135.5q0 14 4.5 34t16.5 36t33.5 28.5t56.5 12.5q53 0 76.5 -29.5t23.5 -66.5q0 -23 -7 -45.5t-7 -48.5q0 -20 10 -33t25.5 -19t32 -8t28.5 -2q61 0 100 51t39 148q0 111 -53 152.5t-141 41.5q-8 0 -15.5 -1t-15.5 -1v60q10 -2 31 -2 q86 0 134 42t48 158q0 31 -7 60.5t-21.5 53t-37 38t-53.5 14.5q-41 0 -65.5 -16.5t-24.5 -44.5q0 -23 11.5 -41t11.5 -45z" />
<glyph unicode="&#xb4;" horiz-adv-x="819" d="M252 1085l-47 54q45 61 83 119.5t74.5 104.5t74.5 73.5t83 27.5q53 0 73.5 -25.5t20.5 -54.5q0 -23 -13 -42t-34.5 -37.5t-49.5 -37t-54 -36.5z" />
<glyph unicode="&#xb5;" horiz-adv-x="1273" d="M219 -434q8 84 12.5 164t6.5 173t2 208.5t2 269.5v25v301q0 47 -2 78.5t-11.5 52t-29 28.5t-54.5 8q-41 0 -90 -6v74q31 -2 65 -3t62 -1q78 0 144.5 8t146.5 27v-567q0 -180 26.5 -252t96.5 -72q33 0 68.5 10t65.5 48t49.5 112t19.5 203v252q0 47 -2 78.5t-11.5 52 t-29 28.5t-54.5 8q-41 0 -90 -6v74q31 -2 65 -3t62 -1q78 0 144.5 8t146.5 27v-740q0 -47 2 -78.5t11.5 -50t29 -26.5t53.5 -8q41 0 91 6v-76q-45 0 -88.5 2t-88.5 2q-96 0 -204 -22q-6 27 -9.5 46t-4.5 34.5t-2 29.5t-1 35h-8q-47 -76 -104.5 -101.5t-157.5 -25.5 q-84 0 -133 20v-450z" />
<glyph unicode="&#xb6;" horiz-adv-x="1193" d="M526 516q-225 0 -346 95.5t-121 281.5q0 188 124 282.5t366 94.5h569v-82h-172v-1526h-102v1526h-213v-1526h-105v854v0z" />
<glyph unicode="&#xb7;" horiz-adv-x="585" d="M123 545q0 68 49 115t121 47t121 -47.5t49 -114.5q0 -68 -49 -115t-121 -47t-121 47t-49 115z" />
<glyph unicode="&#xb8;" horiz-adv-x="819" d="M248 -326q53 -33 100 -32q8 0 23.5 2t29 8t23.5 19.5t10 35.5q0 16 -17.5 34.5t-33.5 29.5q-27 16 -49.5 37.5t-22.5 50.5q0 53 50.5 81.5t127.5 57.5l25 8l27 -29q-53 -18 -71.5 -35.5t-18.5 -56.5q0 -18 17 -33.5t38 -29.5q31 -20 61.5 -48t30.5 -69q0 -35 -16.5 -58.5 t-43 -40t-61.5 -23.5t-69 -7q-18 0 -45 1t-54.5 6t-52.5 13.5t-39 20.5z" />
<glyph unicode="&#xb9;" horiz-adv-x="630" d="M461 752q2 -72 17.5 -98.5t62.5 -26.5q31 0 65 8v-62q-41 2 -71.5 4.5t-56 3.5t-50.5 1h-53q-59 0 -114.5 -1t-137.5 -8v62q23 -4 38 -5t27 -1q51 0 73 26.5t22 96.5v458q0 47 -10.5 64.5t-28.5 17.5q-16 0 -40 -8t-50.5 -19.5t-53 -24.5t-47.5 -26l-26 66 q74 27 127 48.5t94 43t73.5 44t67.5 48.5l80 -30q-4 -37 -6 -64t-2 -67v-551z" />
<glyph unicode="&#xba;" horiz-adv-x="790" d="M96 1165q0 143 84 224t215 81t215 -80.5t84 -224.5q0 -145 -84 -226t-215 -81t-215 81t-84 226zM287 1165q0 -119 23.5 -192.5t84.5 -73.5t85 74t24 192q0 117 -23.5 191t-85.5 74q-61 0 -84.5 -74t-23.5 -191z" />
<glyph unicode="&#xbb;" horiz-adv-x="923" d="M631 504l-209 381l51 39l307 -310q35 -37 49.5 -58t14.5 -52q0 -27 -13.5 -49.5t-46.5 -55.5l-311 -315l-51 39zM299 504l-209 381l51 39l308 -310q35 -37 49 -58t14 -52q0 -27 -13.5 -49.5t-45.5 -55.5l-312 -315l-51 39z" />
<glyph unicode="&#xbc;" horiz-adv-x="1632" d="M1231 248h-246h-52.5t-62.5 -2l-18 94q211 233 324.5 372.5t130.5 178.5l110 -31q-4 -37 -5 -62.5t-2 -49t-1 -48v-59.5v-295h37h57.5t61.5 2v-102q-29 2 -62 2h-57h-37v-76q0 -72 13.5 -95.5t58.5 -23.5q12 0 28.5 1t34.5 7v-61q-41 2 -70.5 4t-54 3t-48 1h-52.5 q-57 0 -111.5 -1t-138.5 -7v61q25 -4 40 -5t28 -1q51 0 71.5 23.5t22.5 93.5v76zM958 338q37 6 75 7t52 1h146v180v48t2 83l-6 2zM494 752q2 -72 17 -98.5t62 -26.5q31 0 66 8v-62q-41 2 -71.5 4.5t-56.5 3.5t-50.5 1h-52.5q-59 0 -114.5 -1t-137.5 -8v62q23 -4 38 -5t27 -1 q51 0 72.5 26.5t21.5 96.5v458q0 47 -10 64.5t-29 17.5q-16 0 -39.5 -8t-50 -19.5t-53.5 -24.5t-47 -26l-27 66q74 27 127.5 48.5t94.5 43t73.5 44t67.5 48.5l80 -30q-4 -37 -6 -64t-2 -67v-551zM1153 1554l98 -47l-764 -1718l-102 43z" />
<glyph unicode="&#xbd;" horiz-adv-x="1732" d="M492 752q2 -72 17 -98.5t62 -26.5q31 0 66 8v-62q-41 2 -71.5 4.5t-56.5 3.5t-50.5 1h-52.5q-59 0 -114.5 -1t-137.5 -8v62q23 -4 38 -5t27 -1q51 0 72.5 26.5t21.5 96.5v458q0 47 -10 64.5t-29 17.5q-16 0 -39.5 -8t-50 -19.5t-53.5 -24.5t-47 -26l-27 66 q74 27 127.5 48.5t94 43t73.5 44t68 48.5l80 -30q-4 -37 -6 -64t-2 -67v-551zM1442 676q0 70 -30 117t-97 47q-39 0 -63.5 -16.5t-28.5 -47.5q0 -23 10 -43t10 -47q0 -47 -29.5 -72.5t-76.5 -25.5t-78 31.5t-31 76.5q0 37 21.5 72t60.5 61.5t95.5 43t125.5 16.5 q80 0 137.5 -19.5t95.5 -50.5t56 -70.5t18 -80.5q0 -55 -24.5 -98.5t-61 -78t-82 -63.5t-84.5 -55q-39 -23 -74.5 -42.5t-64 -45t-49 -58t-29.5 -80.5q16 4 41 5.5t41 1.5h215q39 0 61.5 14t34 34.5t14.5 44t5 42.5l72 -8q-14 -59 -19.5 -120t-5.5 -104v-29.5t2 -27.5 q-78 6 -128 7t-93 1h-203q-33 0 -74.5 -3t-101.5 -7q0 82 20.5 142.5t54.5 105.5t77 79.5t86 67.5q35 25 66.5 51.5t55 59.5t38 75t14.5 97zM1163 1554l99 -47l-764 -1718l-103 43z" />
<glyph unicode="&#xbe;" horiz-adv-x="1675" d="M1280 248h-246h-52.5t-61.5 -2l-19 94q211 233 324.5 372.5t130.5 178.5l110 -31q-4 -37 -5 -62.5t-2 -49t-1 -48v-59.5v-295h37h57.5t61.5 2v-102q-29 2 -61.5 2h-57.5h-37v-76q0 -72 13.5 -95.5t58.5 -23.5q12 0 28.5 1t34.5 7v-61q-41 2 -70.5 4t-54 3t-48 1h-52.5 q-57 0 -111.5 -1t-138.5 -7v61q25 -4 40.5 -5t27.5 -1q51 0 71.5 23.5t22.5 93.5v76zM1008 338q37 6 74.5 7t52.5 1h145v180v48t2 83l-6 2zM301 1268q0 -49 -34 -75t-70 -26q-51 0 -81 31t-30 78q0 78 79 133t220 55q82 0 138.5 -19.5t91 -50t51 -69.5t16.5 -76 q0 -59 -19.5 -98t-48 -64.5t-59.5 -40t-55 -20.5v-8q39 -6 75.5 -22.5t64.5 -44t44 -66.5t16 -90q0 -74 -31.5 -121t-80.5 -75t-106.5 -39t-106.5 -11q-147 0 -227 56.5t-80 135.5q0 14 4 34t16 36t33.5 28.5t56.5 12.5q53 0 77 -29.5t24 -66.5q0 -23 -7.5 -45.5t-7.5 -48.5 q0 -20 10.5 -33t25.5 -19t31.5 -8t28.5 -2q61 0 100.5 51t39.5 148q0 111 -53.5 152.5t-141.5 41.5q-8 0 -15 -1t-16 -1v60q10 -2 31 -2q86 0 134 42t48 158q0 31 -7 60.5t-21.5 53t-37 38t-52.5 14.5q-41 0 -65.5 -16.5t-24.5 -44.5q0 -23 11 -41t11 -45zM1194 1554l98 -47 l-764 -1718l-102 43z" />
<glyph unicode="&#xbf;" horiz-adv-x="1015" d="M700 866q0 -68 -44 -114.5t-109 -46.5q-66 0 -110 47t-44 114q0 68 44 115t110 47t109.5 -47t43.5 -115zM604 575q6 -49 6 -94q0 -96 -29.5 -174t-95.5 -170q-23 -27 -47 -58.5t-45.5 -68.5t-35 -76.5t-13.5 -85.5q0 -37 7 -79.5t28.5 -79.5t59.5 -61.5t100 -24.5 q76 0 113.5 34.5t37.5 88.5q0 35 -12 68.5t-12 74.5q0 61 43 99t102 38q70 0 112 -42t42 -114q0 -61 -33 -118.5t-92.5 -102.5t-143.5 -71.5t-184 -26.5q-111 0 -197 25.5t-143 70.5t-87 105.5t-30 132.5q0 96 33 157.5t83 105.5t108.5 80t108.5 80t83 103.5t33 153.5 q0 8 -1 15t-1 15h102z" />
<glyph unicode="&#xc0;" horiz-adv-x="1484" d="M1315 201q23 -53 49.5 -92t83.5 -39q12 0 29.5 1t29.5 3v-80q-78 6 -173 9t-169 3q-76 0 -169 -3t-173 -9v80q23 -4 42.5 -4h41.5q55 0 84 16t29 61q0 16 -6 39t-15 45l-112 291h-477l-101 -266q-25 -61 -24 -104q0 -41 30.5 -61.5t122.5 -20.5h32.5t33.5 4v-80 q-80 6 -148.5 9t-142.5 3q-41 0 -72.5 -1t-57.5 -2t-50.5 -4t-52.5 -5v80q14 -2 27 -2h30q33 0 55.5 7t38.5 27.5t32.5 54.5t37.5 87l477 1222h123zM438 594h420l-133 340q-23 53 -40 106.5t-28 94.5h-10zM852 1526q-106 61 -176 103t-111 72t-57 51.5t-16 43.5 q0 29 19 53.5t75 24.5q27 0 55.5 -14.5t64 -49t84 -91t113.5 -138.5z" />
<glyph unicode="&#xc1;" horiz-adv-x="1484" d="M1315 201q23 -53 49.5 -92t83.5 -39q12 0 29.5 1t29.5 3v-80q-78 6 -173 9t-169 3q-76 0 -169 -3t-173 -9v80q23 -4 42.5 -4h41.5q55 0 84 16t29 61q0 16 -6 39t-15 45l-112 291h-477l-101 -266q-25 -61 -24 -104q0 -41 30.5 -61.5t122.5 -20.5h32.5t33.5 4v-80 q-80 6 -148.5 9t-142.5 3q-41 0 -72.5 -1t-57.5 -2t-50.5 -4t-52.5 -5v80q14 -2 27 -2h30q33 0 55.5 7t38.5 27.5t32.5 54.5t37.5 87l477 1222h123zM438 594h420l-133 340q-23 53 -40 106.5t-28 94.5h-10zM596 1581q66 80 114 136.5t83.5 91t63.5 50t56 15.5q55 0 75 -24.5 t20 -53.5q0 -23 -16.5 -42t-57.5 -48t-110.5 -71t-176.5 -109z" />
<glyph unicode="&#xc2;" horiz-adv-x="1484" d="M1315 201q23 -53 49.5 -92t83.5 -39q12 0 29.5 1t29.5 3v-80q-78 6 -173 9t-169 3q-76 0 -169 -3t-173 -9v80q23 -4 42.5 -4h41.5q55 0 84 16t29 61q0 16 -6 39t-15 45l-112 291h-477l-101 -266q-25 -61 -24 -104q0 -41 30.5 -61.5t122.5 -20.5h32.5t33.5 4v-80 q-80 6 -148.5 9t-142.5 3q-41 0 -72.5 -1t-57.5 -2t-50.5 -4t-52.5 -5v80q14 -2 27 -2h30q33 0 55.5 7t38.5 27.5t32.5 54.5t37.5 87l477 1222h123zM438 594h420l-133 340q-23 53 -40 106.5t-28 94.5h-10zM743 1692l-213 -166l-61 55l100 123q37 45 61.5 76.5t44 52t35 31 t33.5 10.5t35 -9.5t36.5 -28.5t44 -52t61.5 -80l98 -123l-62 -55z" />
<glyph unicode="&#xc3;" horiz-adv-x="1484" d="M1315 201q23 -53 49.5 -92t83.5 -39q12 0 29.5 1t29.5 3v-80q-78 6 -173 9t-169 3q-76 0 -169 -3t-173 -9v80q23 -4 42.5 -4h41.5q55 0 84 16t29 61q0 16 -6 39t-15 45l-112 291h-477l-101 -266q-25 -61 -24 -104q0 -41 30.5 -61.5t122.5 -20.5h32.5t33.5 4v-80 q-80 6 -148.5 9t-142.5 3q-41 0 -72.5 -1t-57.5 -2t-50.5 -4t-52.5 -5v80q14 -2 27 -2h30q33 0 55.5 7t38.5 27.5t32.5 54.5t37.5 87l477 1222h123zM438 594h420l-133 340q-23 53 -40 106.5t-28 94.5h-10zM1085 1765q-53 -102 -115.5 -144t-127.5 -42q-49 0 -83 17.5 t-61.5 39t-53.5 39t-56 17.5q-20 0 -56 -16.5t-67 -78.5l-72 43q53 102 115.5 144.5t128.5 42.5q43 0 79 -17.5t65.5 -39t56 -39t53.5 -17.5q23 0 57.5 15.5t65.5 78.5z" />
<glyph unicode="&#xc4;" horiz-adv-x="1484" d="M1315 201q23 -53 49.5 -92t83.5 -39q12 0 29.5 1t29.5 3v-80q-78 6 -173 9t-169 3q-76 0 -169 -3t-173 -9v80q23 -4 42.5 -4h41.5q55 0 84 16t29 61q0 16 -6 39t-15 45l-112 291h-477l-101 -266q-25 -61 -24 -104q0 -41 30.5 -61.5t122.5 -20.5h32.5t33.5 4v-80 q-80 6 -148.5 9t-142.5 3q-41 0 -72.5 -1t-57.5 -2t-50.5 -4t-52.5 -5v80q14 -2 27 -2h30q33 0 55.5 7t38.5 27.5t32.5 54.5t37.5 87l477 1222h123zM438 594h420l-133 340q-23 53 -40 106.5t-28 94.5h-10zM422 1700q0 55 39 93t94 38q53 0 93 -38t40 -93t-40 -92t-93 -37 q-55 0 -94 37t-39 92zM788 1700q0 55 39 93t95 38q53 0 93 -38t40 -93t-40 -92t-93 -37q-55 0 -94.5 37t-39.5 92z" />
<glyph unicode="&#xc5;" horiz-adv-x="1484" d="M1315 201q23 -53 49.5 -92t83.5 -39q12 0 29.5 1t29.5 3v-80q-78 6 -173 9t-169 3q-76 0 -169 -3t-173 -9v80q23 -4 42.5 -4h41.5q55 0 84 16t29 61q0 16 -6 39t-15 45l-112 291h-477l-101 -266q-25 -61 -24 -104q0 -41 30.5 -61.5t122.5 -20.5h32.5t33.5 4v-80 q-80 6 -148.5 9t-142.5 3q-41 0 -72.5 -1t-57.5 -2t-50.5 -4t-52.5 -5v80q14 -2 27 -2h30q33 0 55.5 7t38.5 27.5t32.5 54.5t37.5 87l477 1222h123zM438 594h420l-133 340q-23 53 -40 106.5t-28 94.5h-10zM553 1700q0 43 15.5 76.5t42 55t59 33t67.5 11.5t68 -11.5t59.5 -33 t42 -55t15.5 -76.5q0 -45 -15.5 -78t-42 -54.5t-59.5 -32.5t-68 -11t-67.5 11t-59 32.5t-42 54.5t-15.5 78zM637 1700q0 -53 31.5 -81t68.5 -28q39 0 71 28t32 81t-32 79.5t-71 26.5q-37 0 -68.5 -26.5t-31.5 -79.5z" />
<glyph unicode="&#xc6;" horiz-adv-x="2082" d="M909 68q35 0 59.5 6t39 27.5t20.5 64.5t6 115v389h-493l-195 -375q-16 -29 -30.5 -69t-14.5 -74q0 -35 20.5 -58.5t81.5 -23.5h45t46 4v-80q-80 6 -142.5 9t-136.5 3q-41 0 -72.5 -1t-57.5 -2t-51.5 -4t-53.5 -5v80q10 -2 30 -2q33 0 58.5 11t49 33.5t47 59.5t52.5 88 l471 871q23 43 40 90t17 75q0 35 -18 49.5t-63 14.5q-14 0 -31 -2t-35 -2v80q68 -4 147.5 -6t160.5 -4.5t157 -2.5h133q74 0 172 1.5t199.5 2.5t197 3t164.5 6q0 -55 3 -100.5t7.5 -89.5t11.5 -92t17 -109l-96 -11q-6 113 -29.5 177.5t-70 96t-116 39t-167.5 7.5 q-70 0 -108 -5t-56 -21.5t-21.5 -50.5t-3.5 -89v-442q31 -4 41.5 -4.5t36.5 -0.5q86 0 135.5 13.5t74 42t31.5 74t11 108.5l84 -4q-8 -70 -12 -140.5t-4 -127.5q0 -63 4 -124t12 -122l-84 -4q-2 51 -7 91t-28.5 67.5t-74 41t-142.5 13.5h-22h-15.5t-16.5 -1t-24 -3v-457 q0 -45 2.5 -72.5t17.5 -42t48 -18.5t94 -4q119 0 201 10t132 48t75.5 109.5t36.5 194.5l100 -10q-25 -123 -34 -222.5t-13 -211.5q-162 6 -322.5 9t-312.5 3q-119 0 -252 -2t-250 -10v80q45 -6 86 -6zM588 745h446v592q-10 0 -18 1t-17 1q-41 0 -74.5 -24.5t-82.5 -106.5z " />
<glyph unicode="&#xc7;" horiz-adv-x="1339" d="M563 -326q53 -33 101 -32q8 0 23 2t28.5 8t24 19.5t10.5 35.5q0 16 -17.5 34.5t-34.5 29.5q-27 16 -49 37.5t-22 50.5q0 37 24.5 61.5t69.5 44.5q-141 8 -258 60.5t-201 147.5t-130 231.5t-46 312.5q0 182 55.5 322.5t153.5 236.5t232.5 145t291.5 49q143 0 245.5 -18 t166.5 -35q0 -63 1 -110t4 -89t9 -82t15 -89l-103 -7q-6 106 -34.5 177t-75 111t-103.5 56.5t-119 16.5q-96 0 -176 -45t-137 -132t-89 -215t-32 -292q0 -147 27.5 -270t82 -212.5t133.5 -138.5t181 -49q66 0 126 21.5t111.5 58.5t91.5 87t64 110l92 -37 q-72 -156 -198.5 -234t-280.5 -88q-33 -14 -44 -30.5t-11 -49.5q0 -18 17.5 -33.5t37.5 -29.5q31 -20 61.5 -48t30.5 -69q0 -35 -16 -58.5t-43 -40t-61.5 -23.5t-69.5 -7q-18 0 -45 1t-54.5 6t-52 13.5t-39.5 20.5z" />
<glyph unicode="&#xc8;" horiz-adv-x="1335" d="M63 74q45 -6 89 -6q35 0 58 6t37.5 27.5t20.5 64.5t6 115v872q0 70 -6 112t-19 64.5t-34.5 29.5t-52.5 7q-49 0 -99 -6v80q135 -8 279.5 -10.5t261.5 -2.5q147 0 292.5 3.5t285.5 9.5q0 -55 3 -100.5t7 -89.5t11 -92t18 -109l-97 -11q-6 113 -31.5 177.5t-71.5 96 t-118 39t-170 7.5q-68 0 -106.5 -5t-58 -21.5t-23.5 -50.5t-4 -89v-408q29 -2 46 -2h44q92 0 141 13.5t71.5 41t29 67.5t10.5 93l84 -4q-6 -70 -10.5 -130t-4.5 -118q0 -63 4.5 -123.5t10.5 -121.5l-84 -4q-2 51 -7.5 92t-29 67.5t-73.5 41t-142 14.5h-44.5t-45.5 -2v-469 q0 -55 3 -87t19.5 -49.5t51 -22.5t100.5 -5q119 0 200.5 10t133 48t77 109.5t35.5 194.5l99 -10q-25 -123 -34 -222.5t-14 -211.5q-162 6 -328.5 9t-318.5 3q-119 0 -252 -2t-250 -10v80zM782 1526q-106 61 -175.5 103t-110.5 72t-57.5 51.5t-16.5 43.5q0 29 19.5 53.5 t74.5 24.5q27 0 55.5 -14.5t64.5 -49t84 -91t114 -138.5z" />
<glyph unicode="&#xc9;" horiz-adv-x="1335" d="M63 74q45 -6 89 -6q35 0 58 6t37.5 27.5t20.5 64.5t6 115v872q0 70 -6 112t-19 64.5t-34.5 29.5t-52.5 7q-49 0 -99 -6v80q135 -8 279.5 -10.5t261.5 -2.5q147 0 292.5 3.5t285.5 9.5q0 -55 3 -100.5t7 -89.5t11 -92t18 -109l-97 -11q-6 113 -31.5 177.5t-71.5 96 t-118 39t-170 7.5q-68 0 -106.5 -5t-58 -21.5t-23.5 -50.5t-4 -89v-408q29 -2 46 -2h44q92 0 141 13.5t71.5 41t29 67.5t10.5 93l84 -4q-6 -70 -10.5 -130t-4.5 -118q0 -63 4.5 -123.5t10.5 -121.5l-84 -4q-2 51 -7.5 92t-29 67.5t-73.5 41t-142 14.5h-44.5t-45.5 -2v-469 q0 -55 3 -87t19.5 -49.5t51 -22.5t100.5 -5q119 0 200.5 10t133 48t77 109.5t35.5 194.5l99 -10q-25 -123 -34 -222.5t-14 -211.5q-162 6 -328.5 9t-318.5 3q-119 0 -252 -2t-250 -10v80zM567 1581q66 80 114 136.5t84 91t63.5 50t56.5 15.5q55 0 74.5 -24.5t19.5 -53.5 q0 -23 -16.5 -42t-57.5 -48t-110.5 -71t-176.5 -109z" />
<glyph unicode="&#xca;" horiz-adv-x="1335" d="M63 74q45 -6 89 -6q35 0 58 6t37.5 27.5t20.5 64.5t6 115v872q0 70 -6 112t-19 64.5t-34.5 29.5t-52.5 7q-49 0 -99 -6v80q135 -8 279.5 -10.5t261.5 -2.5q147 0 292.5 3.5t285.5 9.5q0 -55 3 -100.5t7 -89.5t11 -92t18 -109l-97 -11q-6 113 -31.5 177.5t-71.5 96 t-118 39t-170 7.5q-68 0 -106.5 -5t-58 -21.5t-23.5 -50.5t-4 -89v-408q29 -2 46 -2h44q92 0 141 13.5t71.5 41t29 67.5t10.5 93l84 -4q-6 -70 -10.5 -130t-4.5 -118q0 -63 4.5 -123.5t10.5 -121.5l-84 -4q-2 51 -7.5 92t-29 67.5t-73.5 41t-142 14.5h-44.5t-45.5 -2v-469 q0 -55 3 -87t19.5 -49.5t51 -22.5t100.5 -5q119 0 200.5 10t133 48t77 109.5t35.5 194.5l99 -10q-25 -123 -34 -222.5t-14 -211.5q-162 6 -328.5 9t-318.5 3q-119 0 -252 -2t-250 -10v80zM709 1692l-213 -166l-62 55l101 123q37 45 61.5 76.5t43.5 52t34.5 31t34.5 10.5 q18 0 34.5 -9.5t36 -28.5t44 -52t61.5 -80l98 -123l-61 -55z" />
<glyph unicode="&#xcb;" horiz-adv-x="1335" d="M63 74q45 -6 89 -6q35 0 58 6t37.5 27.5t20.5 64.5t6 115v872q0 70 -6 112t-19 64.5t-34.5 29.5t-52.5 7q-49 0 -99 -6v80q135 -8 279.5 -10.5t261.5 -2.5q147 0 292.5 3.5t285.5 9.5q0 -55 3 -100.5t7 -89.5t11 -92t18 -109l-97 -11q-6 113 -31.5 177.5t-71.5 96 t-118 39t-170 7.5q-68 0 -106.5 -5t-58 -21.5t-23.5 -50.5t-4 -89v-408q29 -2 46 -2h44q92 0 141 13.5t71.5 41t29 67.5t10.5 93l84 -4q-6 -70 -10.5 -130t-4.5 -118q0 -63 4.5 -123.5t10.5 -121.5l-84 -4q-2 51 -7.5 92t-29 67.5t-73.5 41t-142 14.5h-44.5t-45.5 -2v-469 q0 -55 3 -87t19.5 -49.5t51 -22.5t100.5 -5q119 0 200.5 10t133 48t77 109.5t35.5 194.5l99 -10q-25 -123 -34 -222.5t-14 -211.5q-162 6 -328.5 9t-318.5 3q-119 0 -252 -2t-250 -10v80zM352 1700q0 55 39 93t94 38q53 0 93 -38t40 -93t-39.5 -92t-93.5 -37q-55 0 -94 37 t-39 92zM719 1700q0 55 39 93t94 38q53 0 93 -38t40 -93t-40 -92t-93 -37q-55 0 -94 37t-39 92z" />
<glyph unicode="&#xcc;" horiz-adv-x="815" d="M541 281q0 -70 6 -112t19.5 -64.5t35 -29.5t53.5 -7q43 0 97 6v-80q-66 4 -110 7t-81 4t-72.5 1h-80.5h-82t-72 -1t-82 -4t-109 -7v80q45 -6 87 -6q35 0 59 6t38.5 27.5t20.5 64.5t6 115v872q0 70 -6 112t-19 64.5t-34.5 29.5t-54.5 7q-47 0 -97 -6v80q63 -4 108.5 -7 t82.5 -4.5t71.5 -1.5h82.5h80.5t72.5 1.5t81 4.5t110 7v-80q-47 6 -86 6q-35 0 -59.5 -6t-39 -27.5t-20.5 -64.5t-6 -115v-872zM518 1526q-106 61 -176 103t-111 72t-57 51.5t-16 43.5q0 29 19.5 53.5t74.5 24.5q27 0 55.5 -14.5t64.5 -49t84 -91t113 -138.5z" />
<glyph unicode="&#xcd;" horiz-adv-x="815" d="M541 281q0 -70 6 -112t19.5 -64.5t35 -29.5t53.5 -7q43 0 97 6v-80q-66 4 -110 7t-81 4t-72.5 1h-80.5h-82t-72 -1t-82 -4t-109 -7v80q45 -6 87 -6q35 0 59 6t38.5 27.5t20.5 64.5t6 115v872q0 70 -6 112t-19 64.5t-34.5 29.5t-54.5 7q-47 0 -97 -6v80q63 -4 108.5 -7 t82.5 -4.5t71.5 -1.5h82.5h80.5t72.5 1.5t81 4.5t110 7v-80q-47 6 -86 6q-35 0 -59.5 -6t-39 -27.5t-20.5 -64.5t-6 -115v-872zM242 1581q66 80 113.5 136.5t83.5 91t63.5 50t56.5 15.5q55 0 74.5 -24.5t19.5 -53.5q0 -23 -16 -42t-57 -48t-111 -71t-176 -109z" />
<glyph unicode="&#xce;" horiz-adv-x="815" d="M541 281q0 -70 6 -112t19.5 -64.5t35 -29.5t53.5 -7q43 0 97 6v-80q-66 4 -110 7t-81 4t-72.5 1h-80.5h-82t-72 -1t-82 -4t-109 -7v80q45 -6 87 -6q35 0 59 6t38.5 27.5t20.5 64.5t6 115v872q0 70 -6 112t-19 64.5t-34.5 29.5t-54.5 7q-47 0 -97 -6v80q63 -4 108.5 -7 t82.5 -4.5t71.5 -1.5h82.5h80.5t72.5 1.5t81 4.5t110 7v-80q-47 6 -86 6q-35 0 -59.5 -6t-39 -27.5t-20.5 -64.5t-6 -115v-872zM403 1692l-213 -166l-61 55l100 123q37 45 61.5 76.5t44 52t35 31t33.5 10.5t35 -9.5t36.5 -28.5t44 -52t61.5 -80l98 -123l-62 -55z" />
<glyph unicode="&#xcf;" horiz-adv-x="815" d="M541 281q0 -70 6 -112t19.5 -64.5t35 -29.5t53.5 -7q43 0 97 6v-80q-66 4 -110 7t-81 4t-72.5 1h-80.5h-82t-72 -1t-82 -4t-109 -7v80q45 -6 87 -6q35 0 59 6t38.5 27.5t20.5 64.5t6 115v872q0 70 -6 112t-19 64.5t-34.5 29.5t-54.5 7q-47 0 -97 -6v80q63 -4 108.5 -7 t82.5 -4.5t71.5 -1.5h82.5h80.5t72.5 1.5t81 4.5t110 7v-80q-47 6 -86 6q-35 0 -59.5 -6t-39 -27.5t-20.5 -64.5t-6 -115v-872zM88 1700q0 55 39 93t94 38q53 0 93 -38t40 -93t-40 -92t-93 -37q-55 0 -94 37t-39 92zM455 1700q0 55 38.5 93t94.5 38q53 0 93 -38t40 -93 t-40 -92t-93 -37q-55 0 -94 37t-39 92z" />
<glyph unicode="&#xd0;" horiz-adv-x="1583" d="M68 74q43 -6 86 -6q35 0 58.5 6t37.5 27.5t20 64.5t6 115v438h-190v88h190v346q0 70 -5 112t-18 64.5t-34.5 29.5t-54.5 7q-51 0 -96 -6v80q27 -4 72.5 -6t95 -3t95.5 -2.5t75 -1.5q53 0 88.5 2.5t68.5 4.5t71 4t97 2q166 0 306.5 -40t241.5 -126t158.5 -223.5 t57.5 -333.5q0 -186 -58.5 -322.5t-160.5 -225.5t-241.5 -132t-299.5 -43q-90 0 -177 6t-181 6q-66 0 -141.5 -2t-167.5 -10v80zM1194 717q0 125 -21.5 242.5t-73.5 209t-142.5 146.5t-227.5 55q-66 0 -102.5 -6t-55 -23.5t-22.5 -49t-4 -81.5v-403h207v-88h-207v-496 q0 -51 6 -81.5t25.5 -48t55.5 -24t97 -6.5q131 0 220 53.5t143.5 143.5t78 209t23.5 248z" />
<glyph unicode="&#xd1;" horiz-adv-x="1634" d="M1276 1190q0 100 -26.5 138t-92.5 38q-43 0 -86 -6v80l74 -4q47 -4 84 -5t96 -1q66 0 133.5 3t134.5 7v-80q-43 6 -82 6q-74 0 -103.5 -37t-29.5 -139v-1227h-118l-746 1030q-12 14 -31.5 43t-40 59.5t-39 60.5t-26.5 48v-960q0 -102 29.5 -139t103.5 -37q39 0 82 6v-80 q-63 4 -129 7t-139 3q-59 0 -96.5 -1t-84.5 -5l-73 -4v80q45 -6 86 -6q66 0 92 37.5t26 138.5v966q0 90 -25.5 123t-94.5 33q-16 0 -39 -1t-45 -3v78q82 -6 141 -9.5t119 -3.5q47 0 109.5 2.5t111.5 10.5q6 -18 13 -31.5t26.5 -42.5t57.5 -82t106.5 -148.5t174 -243 t259.5 -364.5q33 -45 51 -75.5t37 -59.5v797zM1171 1765q-53 -102 -115.5 -144t-127.5 -42q-49 0 -83 17.5t-61.5 39t-53 39t-56.5 17.5q-20 0 -56 -16.5t-67 -78.5l-72 43q53 102 115.5 144.5t128.5 42.5q43 0 79 -17.5t65.5 -39t56 -39t53.5 -17.5q23 0 57.5 15.5 t65.5 78.5z" />
<glyph unicode="&#xd2;" horiz-adv-x="1548" d="M84 717q0 168 51 306t142.5 237.5t218.5 154.5t278 55q152 0 279 -55t218 -154.5t142 -237.5t51 -306t-51 -307.5t-142 -238.5t-218 -153.5t-279 -54.5t-278.5 54.5t-218 153.5t-142.5 238.5t-51 307.5zM391 717q0 -158 22.5 -284t70.5 -215t120 -137t170 -48t170 48 t120 137t70.5 215t22.5 284t-22.5 283.5t-70.5 215t-120 137.5t-170 48t-170 -48t-120 -137.5t-70.5 -215t-22.5 -283.5zM887 1526q-106 61 -176 103t-111 72t-57.5 51.5t-16.5 43.5q0 29 19.5 53.5t75.5 24.5q27 0 55.5 -14.5t64 -49t83.5 -91t114 -138.5z" />
<glyph unicode="&#xd3;" horiz-adv-x="1548" d="M84 717q0 168 51 306t142.5 237.5t218.5 154.5t278 55q152 0 279 -55t218 -154.5t142 -237.5t51 -306t-51 -307.5t-142 -238.5t-218 -153.5t-279 -54.5t-278.5 54.5t-218 153.5t-142.5 238.5t-51 307.5zM391 717q0 -158 22.5 -284t70.5 -215t120 -137t170 -48t170 48 t120 137t70.5 215t22.5 284t-22.5 283.5t-70.5 215t-120 137.5t-170 48t-170 -48t-120 -137.5t-70.5 -215t-22.5 -283.5zM651 1581q66 80 114 136.5t84 91t63.5 50t56.5 15.5q55 0 74.5 -24.5t19.5 -53.5q0 -23 -16.5 -42t-57.5 -48t-110.5 -71t-176.5 -109z" />
<glyph unicode="&#xd4;" horiz-adv-x="1548" d="M84 717q0 168 51 306t142.5 237.5t218.5 154.5t278 55q152 0 279 -55t218 -154.5t142 -237.5t51 -306t-51 -307.5t-142 -238.5t-218 -153.5t-279 -54.5t-278.5 54.5t-218 153.5t-142.5 238.5t-51 307.5zM391 717q0 -158 22.5 -284t70.5 -215t120 -137t170 -48t170 48 t120 137t70.5 215t22.5 284t-22.5 283.5t-70.5 215t-120 137.5t-170 48t-170 -48t-120 -137.5t-70.5 -215t-22.5 -283.5zM786 1692l-213 -166l-61 55l100 123q37 45 61.5 76.5t44 52t35 31t33.5 10.5t35 -9.5t36.5 -28.5t44 -52t61.5 -80l98 -123l-62 -55z" />
<glyph unicode="&#xd5;" horiz-adv-x="1548" d="M84 717q0 168 51 306t142.5 237.5t218.5 154.5t278 55q152 0 279 -55t218 -154.5t142 -237.5t51 -306t-51 -307.5t-142 -238.5t-218 -153.5t-279 -54.5t-278.5 54.5t-218 153.5t-142.5 238.5t-51 307.5zM391 717q0 -158 22.5 -284t70.5 -215t120 -137t170 -48t170 48 t120 137t70.5 215t22.5 284t-22.5 283.5t-70.5 215t-120 137.5t-170 48t-170 -48t-120 -137.5t-70.5 -215t-22.5 -283.5zM1118 1765q-53 -102 -115.5 -144t-128.5 -42q-49 0 -82.5 17.5t-61.5 39t-53.5 39t-55.5 17.5q-20 0 -56.5 -16.5t-66.5 -78.5l-72 43 q53 102 115.5 144.5t128.5 42.5q43 0 78.5 -17.5t65.5 -39t56.5 -39t53.5 -17.5q23 0 57.5 15.5t65.5 78.5z" />
<glyph unicode="&#xd6;" horiz-adv-x="1548" d="M84 717q0 168 51 306t142.5 237.5t218.5 154.5t278 55q152 0 279 -55t218 -154.5t142 -237.5t51 -306t-51 -307.5t-142 -238.5t-218 -153.5t-279 -54.5t-278.5 54.5t-218 153.5t-142.5 238.5t-51 307.5zM391 717q0 -158 22.5 -284t70.5 -215t120 -137t170 -48t170 48 t120 137t70.5 215t22.5 284t-22.5 283.5t-70.5 215t-120 137.5t-170 48t-170 -48t-120 -137.5t-70.5 -215t-22.5 -283.5zM457 1700q0 55 39 93t94 38q53 0 93 -38t40 -93t-40 -92t-93 -37q-55 0 -94 37t-39 92zM823 1700q0 55 39 93t94 38q53 0 93.5 -38t40.5 -93t-40 -92 t-94 -37q-55 0 -94 37t-39 92z" />
<glyph unicode="&#xd7;" d="M219 874l295 -301l293 299l63 -65l-290 -293l299 -301l-70 -66l-301 299l-297 -296l-64 61l297 297l-297 299z" />
<glyph unicode="&#xd8;" horiz-adv-x="1548" d="M84 717q0 168 51 306t142.5 237.5t218.5 154.5t278 55q94 0 178 -21.5t158 -62.5l115 203l80 -39l-121 -213q131 -98 205.5 -256.5t74.5 -363.5q0 -168 -51 -307.5t-142 -238.5t-218 -153.5t-279 -54.5q-180 0 -325 76l-130 -227l-77 41l131 233q-135 98 -212 259 t-77 372zM391 717q0 -143 18.5 -260t57.5 -205l571 1008q-47 68 -112.5 104.5t-151.5 36.5q-98 0 -170 -48t-120 -137.5t-70.5 -215t-22.5 -283.5zM1157 717q0 137 -17.5 250.5t-52.5 199.5l-569 -1003q94 -131 256 -131q98 0 170 48t120 137t70.5 215t22.5 284z" />
<glyph unicode="&#xd9;" horiz-adv-x="1581" d="M246 1153q0 70 -6.5 112t-19.5 64.5t-34.5 29.5t-54.5 7q-47 0 -96 -6v80q63 -4 108 -7t82 -4.5t72 -1.5h82h81t72.5 1.5t80.5 4.5t110 7v-80q-47 6 -86 6q-35 0 -59.5 -6t-39 -27.5t-20.5 -64.5t-6 -115v-559q0 -88 5 -158.5t18.5 -128t37 -103.5t60.5 -83 q35 -29 95 -56.5t126 -27.5q92 0 167 41t128 117q29 43 46 90t26.5 110.5t11.5 145.5t2 194v475q0 96 -26.5 126t-92.5 30q-18 0 -43.5 -1t-52.5 -3v78q66 0 131.5 -5t138.5 -5q57 0 94 1t84 5l74 4v-78q-55 6 -98 6q-59 0 -83 -31.5t-24 -126.5v-592q0 -82 -4 -145 t-13 -116.5t-25.5 -97.5t-41.5 -87q-27 -43 -69.5 -81t-98 -67.5t-124 -46t-144.5 -16.5q-195 0 -332 69.5t-196 209.5q-29 68 -36 149.5t-7 188.5v575zM874 1526q-106 61 -175.5 103t-110.5 72t-57.5 51.5t-16.5 43.5q0 29 19.5 53.5t74.5 24.5q27 0 55.5 -14.5t64.5 -49 t84 -91t114 -138.5z" />
<glyph unicode="&#xda;" horiz-adv-x="1581" d="M246 1153q0 70 -6.5 112t-19.5 64.5t-34.5 29.5t-54.5 7q-47 0 -96 -6v80q63 -4 108 -7t82 -4.5t72 -1.5h82h81t72.5 1.5t80.5 4.5t110 7v-80q-47 6 -86 6q-35 0 -59.5 -6t-39 -27.5t-20.5 -64.5t-6 -115v-559q0 -88 5 -158.5t18.5 -128t37 -103.5t60.5 -83 q35 -29 95 -56.5t126 -27.5q92 0 167 41t128 117q29 43 46 90t26.5 110.5t11.5 145.5t2 194v475q0 96 -26.5 126t-92.5 30q-18 0 -43.5 -1t-52.5 -3v78q66 0 131.5 -5t138.5 -5q57 0 94 1t84 5l74 4v-78q-55 6 -98 6q-59 0 -83 -31.5t-24 -126.5v-592q0 -82 -4 -145 t-13 -116.5t-25.5 -97.5t-41.5 -87q-27 -43 -69.5 -81t-98 -67.5t-124 -46t-144.5 -16.5q-195 0 -332 69.5t-196 209.5q-29 68 -36 149.5t-7 188.5v575zM727 1581q66 80 114 136.5t84 91t63.5 50t55.5 15.5q55 0 75 -24.5t20 -53.5q0 -23 -16.5 -42t-57.5 -48t-110.5 -71 t-176.5 -109z" />
<glyph unicode="&#xdb;" horiz-adv-x="1581" d="M246 1153q0 70 -6.5 112t-19.5 64.5t-34.5 29.5t-54.5 7q-47 0 -96 -6v80q63 -4 108 -7t82 -4.5t72 -1.5h82h81t72.5 1.5t80.5 4.5t110 7v-80q-47 6 -86 6q-35 0 -59.5 -6t-39 -27.5t-20.5 -64.5t-6 -115v-559q0 -88 5 -158.5t18.5 -128t37 -103.5t60.5 -83 q35 -29 95 -56.5t126 -27.5q92 0 167 41t128 117q29 43 46 90t26.5 110.5t11.5 145.5t2 194v475q0 96 -26.5 126t-92.5 30q-18 0 -43.5 -1t-52.5 -3v78q66 0 131.5 -5t138.5 -5q57 0 94 1t84 5l74 4v-78q-55 6 -98 6q-59 0 -83 -31.5t-24 -126.5v-592q0 -82 -4 -145 t-13 -116.5t-25.5 -97.5t-41.5 -87q-27 -43 -69.5 -81t-98 -67.5t-124 -46t-144.5 -16.5q-195 0 -332 69.5t-196 209.5q-29 68 -36 149.5t-7 188.5v575zM883 1692l-213 -166l-62 55l101 123q37 45 61.5 76.5t44 52t34.5 31t34 10.5q18 0 34.5 -9.5t36 -28.5t44 -52t61.5 -80 l98 -123l-61 -55z" />
<glyph unicode="&#xdc;" horiz-adv-x="1581" d="M246 1153q0 70 -6.5 112t-19.5 64.5t-34.5 29.5t-54.5 7q-47 0 -96 -6v80q63 -4 108 -7t82 -4.5t72 -1.5h82h81t72.5 1.5t80.5 4.5t110 7v-80q-47 6 -86 6q-35 0 -59.5 -6t-39 -27.5t-20.5 -64.5t-6 -115v-559q0 -88 5 -158.5t18.5 -128t37 -103.5t60.5 -83 q35 -29 95 -56.5t126 -27.5q92 0 167 41t128 117q29 43 46 90t26.5 110.5t11.5 145.5t2 194v475q0 96 -26.5 126t-92.5 30q-18 0 -43.5 -1t-52.5 -3v78q66 0 131.5 -5t138.5 -5q57 0 94 1t84 5l74 4v-78q-55 6 -98 6q-59 0 -83 -31.5t-24 -126.5v-592q0 -82 -4 -145 t-13 -116.5t-25.5 -97.5t-41.5 -87q-27 -43 -69.5 -81t-98 -67.5t-124 -46t-144.5 -16.5q-195 0 -332 69.5t-196 209.5q-29 68 -36 149.5t-7 188.5v575zM526 1700q0 55 39 93t94 38q53 0 93.5 -38t40.5 -93t-40 -92t-94 -37q-55 0 -94 37t-39 92zM893 1700q0 55 39 93t94 38 q53 0 93 -38t40 -93t-40 -92t-93 -37q-55 0 -94 37t-39 92z" />
<glyph unicode="&#xdd;" horiz-adv-x="1323" d="M504 1202q70 -129 111.5 -206.5t66.5 -127t37 -80t24 -61.5h11l247 447q18 35 30.5 66.5t12.5 53.5q0 37 -29.5 53.5t-94.5 16.5h-50.5t-62.5 -4v80q82 -6 149.5 -9.5t143.5 -3.5q41 0 69.5 1.5t53 2.5t48 3t52.5 6v-80q-23 2 -31 2h-18q-49 0 -76 -35t-70 -113 l-333 -608v-325q0 -70 6 -112t19.5 -64.5t35 -29.5t53.5 -7q43 0 97 6v-80q-66 4 -110 7t-81 4t-72.5 1h-80.5h-82t-72 -1t-82 -4t-109 -7v80q45 -6 86 -6q35 0 59.5 6t39 27.5t20.5 64.5t6 115v319l-338 635q-16 29 -28 52.5t-27.5 41t-37 26.5t-54.5 9q-10 0 -20.5 -1 t-22.5 -3v80q80 -6 170 -9.5t166 -3.5q74 0 162 3.5t170 9.5v-80q-14 0 -30.5 2t-43.5 2q-59 0 -93 -10.5t-34 -55.5q0 -18 8.5 -38.5t28.5 -57.5zM520 1581q66 80 114 136.5t84 91t63.5 50t56.5 15.5q55 0 74.5 -24.5t19.5 -53.5q0 -23 -16.5 -42t-57.5 -48t-110.5 -71 t-176.5 -109z" />
<glyph unicode="&#xde;" horiz-adv-x="1253" d="M541 1137q41 4 82 6t92 2q246 0 367.5 -96.5t121.5 -284.5q0 -72 -23.5 -145.5t-82 -132t-157.5 -95.5t-251 -37q-39 0 -73.5 1t-75.5 3v-92q0 -57 3 -95t14 -61.5t34.5 -32.5t64.5 -9q47 0 95 6v-80q-66 4 -110 7t-81 4t-72.5 1h-80.5h-82t-72 -1t-82 -4t-109 -7v80 q45 -6 87 -6q35 0 59 6t38.5 27.5t20.5 64.5t6 115v872q0 70 -6 112t-19 64.5t-34.5 29.5t-54.5 7q-47 0 -97 -6v80q63 -4 108.5 -7t82.5 -4.5t71.5 -1.5h82.5h80.5t72.5 1.5t81 4.5t110 7v-80q-43 6 -86 6q-35 0 -59.5 -6t-39 -27.5t-20.5 -64.5t-6 -115v-16zM541 434 q31 -4 40 -5t35 -1q154 0 234 89t80 249q0 78 -20.5 136.5t-54.5 96t-79 57t-96 19.5q-37 0 -63.5 -4t-43 -19.5t-24.5 -43t-8 -72.5v-502z" />
<glyph unicode="&#xdf;" horiz-adv-x="1249" d="M184 1026q0 98 21.5 180t75 140.5t144.5 91t230 32.5q109 0 179.5 -28.5t110.5 -67.5t55.5 -81t15.5 -68q0 -68 -23.5 -110t-58.5 -70.5t-75 -48t-74.5 -39t-58.5 -44t-24 -63.5q0 -45 36 -75t88.5 -58.5t115 -60t114.5 -79t88 -116t36 -168.5q0 -45 -19.5 -99.5 t-60.5 -100.5t-104.5 -76.5t-151.5 -30.5q-55 0 -99.5 7t-82.5 23l26 66q23 -6 37 -11t24.5 -8.5t20.5 -5.5t27 -2q49 0 80.5 22.5t49 53.5t24.5 64.5t7 58.5q0 59 -30.5 98t-75.5 70t-98.5 57.5t-98.5 61t-75.5 81t-30.5 115.5q0 51 18.5 90t45 71t59.5 61.5t59.5 64.5 t45 79t18.5 105q0 55 -15.5 91t-38 57.5t-51 31t-53.5 9.5q-102 0 -151.5 -79t-49.5 -255v-830q0 -33 2 -63.5t11.5 -54t31 -38t60.5 -14.5h25.5t29.5 3v-72q-78 8 -144.5 11t-127.5 3t-136 -4t-147 -14v71q10 0 17.5 -1t15.5 -1q41 0 63.5 8.5t32.5 29t12 53t2 79.5v797v0z " />
<glyph unicode="&#xe0;" horiz-adv-x="1099" d="M883 -31q-76 0 -126 45t-63 105q-14 -23 -35.5 -48.5t-54.5 -48t-80 -38t-110 -15.5q-104 0 -169 27t-102 66.5t-50 86t-13 84.5q0 53 18.5 107.5t80 97.5t176 71t307.5 30v129q0 45 -5.5 90t-23 80.5t-49 57.5t-82.5 22q-66 0 -99.5 -27t-33.5 -74q0 -23 6 -46t6 -48 q0 -55 -41 -88t-92 -33q-18 0 -41 7t-43.5 22.5t-33.5 42t-13 65.5q0 37 25.5 79t74.5 78t122 59.5t167 23.5q111 0 187.5 -23.5t124.5 -67.5t69.5 -106.5t21.5 -140.5v-418q0 -66 12.5 -104.5t36.5 -38.5q14 0 30 11t30 26q16 16 31 37l57 -52q-39 -57 -99.5 -95 t-123.5 -38zM662 471q-59 0 -117 -7t-103 -31.5t-72.5 -71t-27.5 -121.5q0 -25 6 -57.5t21.5 -62.5t41 -49.5t64.5 -19.5q61 0 97 31t56.5 77t27 99t6.5 100v113zM471 1229q-18 10 -44 25.5t-50.5 36t-41 44t-16.5 49.5q0 29 20.5 54.5t74.5 25.5q45 0 83 -27.5t74.5 -73.5 t74.5 -104.5t83 -119.5l-47 -54z" />
<glyph unicode="&#xe1;" horiz-adv-x="1099" d="M883 -31q-76 0 -126 45t-63 105q-14 -23 -35.5 -48.5t-54.5 -48t-80 -38t-110 -15.5q-104 0 -169 27t-102 66.5t-50 86t-13 84.5q0 53 18.5 107.5t80 97.5t176 71t307.5 30v129q0 45 -5.5 90t-23 80.5t-49 57.5t-82.5 22q-66 0 -99.5 -27t-33.5 -74q0 -23 6 -46t6 -48 q0 -55 -41 -88t-92 -33q-18 0 -41 7t-43.5 22.5t-33.5 42t-13 65.5q0 37 25.5 79t74.5 78t122 59.5t167 23.5q111 0 187.5 -23.5t124.5 -67.5t69.5 -106.5t21.5 -140.5v-418q0 -66 12.5 -104.5t36.5 -38.5q14 0 30 11t30 26q16 16 31 37l57 -52q-39 -57 -99.5 -95 t-123.5 -38zM662 471q-59 0 -117 -7t-103 -31.5t-72.5 -71t-27.5 -121.5q0 -25 6 -57.5t21.5 -62.5t41 -49.5t64.5 -19.5q61 0 97 31t56.5 77t27 99t6.5 100v113zM434 1085l-47 54q45 61 83 119.5t75 104.5t74.5 73.5t82.5 27.5q53 0 74 -25.5t21 -54.5q0 -23 -13.5 -42 t-35 -37.5t-49 -37t-54.5 -36.5z" />
<glyph unicode="&#xe2;" horiz-adv-x="1099" d="M883 -31q-76 0 -126 45t-63 105q-14 -23 -35.5 -48.5t-54.5 -48t-80 -38t-110 -15.5q-104 0 -169 27t-102 66.5t-50 86t-13 84.5q0 53 18.5 107.5t80 97.5t176 71t307.5 30v129q0 45 -5.5 90t-23 80.5t-49 57.5t-82.5 22q-66 0 -99.5 -27t-33.5 -74q0 -23 6 -46t6 -48 q0 -55 -41 -88t-92 -33q-18 0 -41 7t-43.5 22.5t-33.5 42t-13 65.5q0 37 25.5 79t74.5 78t122 59.5t167 23.5q111 0 187.5 -23.5t124.5 -67.5t69.5 -106.5t21.5 -140.5v-418q0 -66 12.5 -104.5t36.5 -38.5q14 0 30 11t30 26q16 16 31 37l57 -52q-39 -57 -99.5 -95 t-123.5 -38zM662 471q-59 0 -117 -7t-103 -31.5t-72.5 -71t-27.5 -121.5q0 -25 6 -57.5t21.5 -62.5t41 -49.5t64.5 -19.5q61 0 97 31t56.5 77t27 99t6.5 100v113zM317 1085l-55 56q76 96 123 158.5t77 99.5t50 51t43 14t45.5 -15t54 -52t76.5 -99.5t117 -156.5l-55 -56 l-238 189z" />
<glyph unicode="&#xe3;" horiz-adv-x="1099" d="M883 -31q-76 0 -126 45t-63 105q-14 -23 -35.5 -48.5t-54.5 -48t-80 -38t-110 -15.5q-104 0 -169 27t-102 66.5t-50 86t-13 84.5q0 53 18.5 107.5t80 97.5t176 71t307.5 30v129q0 45 -5.5 90t-23 80.5t-49 57.5t-82.5 22q-66 0 -99.5 -27t-33.5 -74q0 -23 6 -46t6 -48 q0 -55 -41 -88t-92 -33q-18 0 -41 7t-43.5 22.5t-33.5 42t-13 65.5q0 37 25.5 79t74.5 78t122 59.5t167 23.5q111 0 187.5 -23.5t124.5 -67.5t69.5 -106.5t21.5 -140.5v-418q0 -66 12.5 -104.5t36.5 -38.5q14 0 30 11t30 26q16 16 31 37l57 -52q-39 -57 -99.5 -95 t-123.5 -38zM662 471q-59 0 -117 -7t-103 -31.5t-72.5 -71t-27.5 -121.5q0 -25 6 -57.5t21.5 -62.5t41 -49.5t64.5 -19.5q61 0 97 31t56.5 77t27 99t6.5 100v113zM909 1313q-53 -102 -115.5 -144.5t-127.5 -42.5q-49 0 -86 17.5t-66 39t-53.5 39t-48.5 17.5 q-29 0 -56.5 -20.5t-58.5 -73.5l-80 43q53 102 115.5 144t128.5 42q43 0 78.5 -17.5t65.5 -39t56.5 -38.5t53.5 -17q29 0 56.5 19t57.5 75z" />
<glyph unicode="&#xe4;" horiz-adv-x="1099" d="M883 -31q-76 0 -126 45t-63 105q-14 -23 -35.5 -48.5t-54.5 -48t-80 -38t-110 -15.5q-104 0 -169 27t-102 66.5t-50 86t-13 84.5q0 53 18.5 107.5t80 97.5t176 71t307.5 30v129q0 45 -5.5 90t-23 80.5t-49 57.5t-82.5 22q-66 0 -99.5 -27t-33.5 -74q0 -23 6 -46t6 -48 q0 -55 -41 -88t-92 -33q-18 0 -41 7t-43.5 22.5t-33.5 42t-13 65.5q0 37 25.5 79t74.5 78t122 59.5t167 23.5q111 0 187.5 -23.5t124.5 -67.5t69.5 -106.5t21.5 -140.5v-418q0 -66 12.5 -104.5t36.5 -38.5q14 0 30 11t30 26q16 16 31 37l57 -52q-39 -57 -99.5 -95 t-123.5 -38zM662 471q-59 0 -117 -7t-103 -31.5t-72.5 -71t-27.5 -121.5q0 -25 6 -57.5t21.5 -62.5t41 -49.5t64.5 -19.5q61 0 97 31t56.5 77t27 99t6.5 100v113zM236 1249q0 55 38.5 93t94.5 38q53 0 93 -37.5t40 -93.5q0 -55 -40 -92t-93 -37q-55 0 -94 37t-39 92z M604 1249q0 55 39 93t94 38q53 0 93 -37.5t40 -93.5q0 -55 -39.5 -92t-93.5 -37q-55 0 -94 37t-39 92z" />
<glyph unicode="&#xe5;" horiz-adv-x="1099" d="M883 -31q-76 0 -126 45t-63 105q-14 -23 -35.5 -48.5t-54.5 -48t-80 -38t-110 -15.5q-104 0 -169 27t-102 66.5t-50 86t-13 84.5q0 53 18.5 107.5t80 97.5t176 71t307.5 30v129q0 45 -5.5 90t-23 80.5t-49 57.5t-82.5 22q-66 0 -99.5 -27t-33.5 -74q0 -23 6 -46t6 -48 q0 -55 -41 -88t-92 -33q-18 0 -41 7t-43.5 22.5t-33.5 42t-13 65.5q0 37 25.5 79t74.5 78t122 59.5t167 23.5q111 0 187.5 -23.5t124.5 -67.5t69.5 -106.5t21.5 -140.5v-418q0 -66 12.5 -104.5t36.5 -38.5q14 0 30 11t30 26q16 16 31 37l57 -52q-39 -57 -99.5 -95 t-123.5 -38zM662 471q-59 0 -117 -7t-103 -31.5t-72.5 -71t-27.5 -121.5q0 -25 6 -57.5t21.5 -62.5t41 -49.5t64.5 -19.5q61 0 97 31t56.5 77t27 99t6.5 100v113zM553 1448q86 0 137 -53.5t51 -126.5q0 -78 -51 -130.5t-137 -52.5q-82 0 -135 52.5t-53 130.5q0 74 53 127 t135 53zM455 1268q0 -47 30.5 -77t67.5 -30t67.5 30t30.5 77q0 45 -30.5 72.5t-67.5 27.5t-67.5 -27.5t-30.5 -72.5z" />
<glyph unicode="&#xe6;" horiz-adv-x="1646" d="M1155 -37q-154 0 -252 56.5t-145 134.5q-16 -31 -39 -65t-63 -61.5t-98 -46t-144 -18.5q-102 0 -167 27.5t-101.5 68.5t-50 87.5t-13.5 80.5q0 31 5 66t23.5 69.5t57.5 66.5t106.5 57.5t169 40t246.5 14.5v86q0 57 -9 109t-30.5 92t-57.5 65t-89 25q-66 0 -99.5 -27 t-33.5 -74q0 -23 5 -50.5t5 -47.5q0 -53 -40 -85t-105 -32q-45 0 -83 30t-38 107q0 39 24.5 81t74.5 78t125 58.5t175 22.5q113 0 202 -45t138 -105q47 76 128 113t175 37q125 0 206 -43t127 -105.5t64.5 -133t18.5 -124.5q0 -35 -7 -55t-32 -30.5t-70 -13.5t-121 -3h-409 q6 -205 77.5 -313.5t184.5 -108.5q31 0 70 8.5t79.5 32t78.5 65.5t63 107l86 -39q-53 -117 -154.5 -188.5t-263.5 -71.5zM1122 539q63 0 102.5 6t60 23.5t27.5 46t7 73.5q0 94 -45 162t-125 68q-53 0 -92 -36t-64.5 -91.5t-40 -122t-16.5 -129.5h186zM690 473 q-63 0 -125.5 -7t-112 -31.5t-79 -73t-29.5 -128.5q0 -12 4 -42.5t18.5 -61.5t42 -55.5t74.5 -24.5q115 0 161 78t46 217v129z" />
<glyph unicode="&#xe7;" horiz-adv-x="989" d="M319 -326q53 -33 101 -32q8 0 23.5 2t28.5 8t23.5 19.5t10.5 35.5q0 16 -17.5 34.5t-33.5 29.5q-27 16 -49.5 37.5t-22.5 50.5q0 39 26.5 63.5t73.5 44.5q-188 23 -295.5 157t-107.5 349q0 111 32.5 204t95 159.5t152 104.5t199.5 38q100 0 172 -24.5t118 -61.5t66.5 -82 t20.5 -86q0 -68 -43 -100.5t-94 -32.5t-92 29.5t-41 87.5q0 25 7 47t7 51q0 47 -24.5 79t-82.5 32q-104 0 -159.5 -114t-55.5 -331t67 -327.5t173 -110.5q31 0 66.5 12t71.5 39t69 71t59 105l80 -37q-51 -115 -137 -186.5t-234 -75.5q-31 -14 -41 -30.5t-10 -47.5 q0 -18 17.5 -33.5t38.5 -29.5q31 -20 61.5 -48t30.5 -69q0 -35 -16.5 -58.5t-43 -40t-61.5 -23.5t-70 -7q-18 0 -44.5 1t-54.5 6t-52.5 13.5t-38.5 20.5z" />
<glyph unicode="&#xe8;" horiz-adv-x="1048" d="M975 236q-53 -121 -158.5 -197t-265.5 -76q-111 0 -199 38t-148.5 104.5t-93 159.5t-32.5 204q2 113 35.5 206t94 160.5t146.5 105.5t195 38q125 0 208 -43t132 -105.5t68.5 -133t19.5 -124.5q0 -35 -10.5 -55t-36 -30.5t-71.5 -13.5t-118 -3h-403q6 -205 81 -313.5 t191 -108.5q31 0 69 11.5t75 37t71.5 68.5t61.5 108zM514 539q74 0 116 6t62.5 23.5t25.5 46t5 73.5t-12.5 86t-36 73t-55 51.5t-70.5 19.5q-51 0 -89 -36t-63.5 -91.5t-40 -122t-16.5 -129.5h174zM442 1229q-18 10 -43.5 25.5t-50 36t-41 44t-16.5 49.5q0 29 20.5 54.5 t73.5 25.5q45 0 83 -27.5t75 -73.5t74.5 -104.5t82.5 -119.5l-47 -54z" />
<glyph unicode="&#xe9;" horiz-adv-x="1048" d="M975 236q-53 -121 -158.5 -197t-265.5 -76q-111 0 -199 38t-148.5 104.5t-93 159.5t-32.5 204q2 113 35.5 206t94 160.5t146.5 105.5t195 38q125 0 208 -43t132 -105.5t68.5 -133t19.5 -124.5q0 -35 -10.5 -55t-36 -30.5t-71.5 -13.5t-118 -3h-403q6 -205 81 -313.5 t191 -108.5q31 0 69 11.5t75 37t71.5 68.5t61.5 108zM514 539q74 0 116 6t62.5 23.5t25.5 46t5 73.5t-12.5 86t-36 73t-55 51.5t-70.5 19.5q-51 0 -89 -36t-63.5 -91.5t-40 -122t-16.5 -129.5h174zM406 1085l-48 54q45 61 83 119.5t75 104.5t75 73.5t83 27.5 q53 0 73.5 -25.5t20.5 -54.5q0 -23 -13.5 -42t-35 -37.5t-49 -37t-54.5 -36.5z" />
<glyph unicode="&#xea;" horiz-adv-x="1048" d="M975 236q-53 -121 -158.5 -197t-265.5 -76q-111 0 -199 38t-148.5 104.5t-93 159.5t-32.5 204q2 113 35.5 206t94 160.5t146.5 105.5t195 38q125 0 208 -43t132 -105.5t68.5 -133t19.5 -124.5q0 -35 -10.5 -55t-36 -30.5t-71.5 -13.5t-118 -3h-403q6 -205 81 -313.5 t191 -108.5q31 0 69 11.5t75 37t71.5 68.5t61.5 108zM514 539q74 0 116 6t62.5 23.5t25.5 46t5 73.5t-12.5 86t-36 73t-55 51.5t-70.5 19.5q-51 0 -89 -36t-63.5 -91.5t-40 -122t-16.5 -129.5h174zM289 1085l-56 56q76 96 123 158.5t77 99.5t50.5 51t42.5 14q23 0 45.5 -15 t54 -52t77 -99.5t116.5 -156.5l-55 -56l-238 189z" />
<glyph unicode="&#xeb;" horiz-adv-x="1048" d="M975 236q-53 -121 -158.5 -197t-265.5 -76q-111 0 -199 38t-148.5 104.5t-93 159.5t-32.5 204q2 113 35.5 206t94 160.5t146.5 105.5t195 38q125 0 208 -43t132 -105.5t68.5 -133t19.5 -124.5q0 -35 -10.5 -55t-36 -30.5t-71.5 -13.5t-118 -3h-403q6 -205 81 -313.5 t191 -108.5q31 0 69 11.5t75 37t71.5 68.5t61.5 108zM514 539q74 0 116 6t62.5 23.5t25.5 46t5 73.5t-12.5 86t-36 73t-55 51.5t-70.5 19.5q-51 0 -89 -36t-63.5 -91.5t-40 -122t-16.5 -129.5h174zM215 1249q0 55 39 93t94 38q53 0 93 -37.5t40 -93.5q0 -55 -40 -92t-93 -37 q-55 0 -94 37t-39 92zM584 1249q0 55 39 93t94 38q53 0 93 -37.5t40 -93.5q0 -55 -40 -92t-93 -37q-55 0 -94 37t-39 92z" />
<glyph unicode="&#xec;" horiz-adv-x="661" d="M279 1229q-18 10 -44 25.5t-50.5 36t-41 44t-16.5 49.5q0 29 20.5 54.5t73.5 25.5q45 0 83 -27.5t75 -73.5t75 -104.5t83 -119.5l-48 -54zM217 705q0 47 -2 78.5t-11 52t-28.5 28.5t-54.5 8q-41 0 -90 -6v76q31 -2 64.5 -3t62.5 -1q78 0 154.5 8t156.5 27v-740 q0 -55 3 -89.5t19.5 -53t53.5 -24t104 -0.5v-72q-78 8 -154.5 11t-138.5 3q-61 0 -136 -4t-146 -14v71q53 -4 81.5 3.5t43 27t16.5 53t2 84.5v476z" />
<glyph unicode="&#xed;" horiz-adv-x="661" d="M184 1085l-47 54q45 61 83 119.5t75 104.5t75 73.5t83 27.5q53 0 73.5 -25.5t20.5 -54.5q0 -23 -13.5 -42t-35 -37.5t-49 -37t-54.5 -36.5zM217 705q0 47 -2 78.5t-11 52t-28.5 28.5t-54.5 8q-41 0 -90 -6v76q31 -2 64.5 -3t62.5 -1q78 0 154.5 8t156.5 27v-740 q0 -55 3 -89.5t19.5 -53t53.5 -24t104 -0.5v-72q-78 8 -154.5 11t-138.5 3q-61 0 -136 -4t-146 -14v71q53 -4 81.5 3.5t43 27t16.5 53t2 84.5v476z" />
<glyph unicode="&#xee;" horiz-adv-x="661" d="M104 1085l-55 56q72 96 115 158.5t70.5 99.5t46 51t41.5 14t43 -15t48.5 -52t70.5 -99.5t110 -156.5l-55 -56l-217 189zM217 705q0 47 -2 78.5t-11 52t-28.5 28.5t-54.5 8q-41 0 -90 -6v76q31 -2 64.5 -3t62.5 -1q78 0 154.5 8t156.5 27v-740q0 -55 3 -89.5t19.5 -53 t53.5 -24t104 -0.5v-72q-78 8 -154.5 11t-138.5 3q-61 0 -136 -4t-146 -14v71q53 -4 81.5 3.5t43 27t16.5 53t2 84.5v476z" />
<glyph unicode="&#xef;" horiz-adv-x="661" d="M51 1249q0 53 37 89t90 36t91 -35.5t38 -89.5q0 -53 -38 -88t-91 -35t-90 35t-37 88zM373 1249q0 53 38 89t91 36q51 0 89 -35.5t38 -89.5q0 -53 -38 -88t-89 -35q-53 0 -91 35t-38 88zM217 705q0 47 -2 78.5t-11 52t-28.5 28.5t-54.5 8q-41 0 -90 -6v76q31 -2 64.5 -3 t62.5 -1q78 0 154.5 8t156.5 27v-740q0 -55 3 -89.5t19.5 -53t53.5 -24t104 -0.5v-72q-78 8 -154.5 11t-138.5 3q-61 0 -136 -4t-146 -14v71q53 -4 81.5 3.5t43 27t16.5 53t2 84.5v476z" />
<glyph unicode="&#xf0;" horiz-adv-x="1095" d="M786 1460l48 -78q-23 -12 -48 -28q-23 -14 -50 -31.5t-60 -38.5q143 -184 232 -381.5t89 -431.5q0 -121 -39.5 -215t-104.5 -159.5t-146.5 -100.5t-165.5 -35q-113 0 -199 40t-144.5 108.5t-88 157.5t-29.5 188q0 125 35 218t90 155.5t123.5 93t138.5 30.5 q53 0 105.5 -10t99.5 -39l6 6q-53 70 -98 134.5t-91 132.5l-170 -103q0 -2 -7 11.5t-17 29.5q-10 18 -23 41l158 92q-39 47 -82 95.5t-90 91.5q68 0 143.5 6t128.5 18l86 -96zM539 29q68 0 110.5 44t65 108.5t31 138t8.5 131.5q0 70 -8.5 144.5t-32 136t-65.5 101t-109 39.5 q-70 0 -112 -46t-64.5 -113.5t-29.5 -147.5t-7 -147q0 -59 9 -128t32.5 -127.5t64.5 -96t107 -37.5z" />
<glyph unicode="&#xf1;" horiz-adv-x="1261" d="M459 815q41 74 106.5 115t182.5 41q113 0 178 -31t100 -82t45 -116.5t10 -135.5v-373q0 -49 2 -81.5t13.5 -52t36 -28t71.5 -8.5h26.5t31.5 3v-72q-78 8 -155 11t-138 3t-134 -4t-143 -14v71q10 0 17.5 -1t15.5 -1q39 0 60.5 8.5t30.5 27t11 48t2 72.5v350 q0 180 -31.5 252t-115.5 72q-35 0 -73 -15.5t-68.5 -59.5t-51 -123t-20.5 -208v-262q0 -35 2 -64.5t12.5 -50t33 -32t63.5 -11.5h25t30 3v-72q-78 8 -147.5 11t-131.5 3q-61 0 -136 -4t-146 -14v71q10 0 17 -1t15 -1q41 0 64 8.5t33 29t12 53t2 79.5v476q0 47 -2 78.5 t-11 52t-28.5 28.5t-54.5 8q-41 0 -90 -6v76q31 -2 62.5 -3t58.5 -1q70 0 135 8t145 27q10 -55 13.5 -86t5.5 -72h8zM987 1313q-53 -102 -115.5 -144.5t-128.5 -42.5q-49 0 -85.5 17.5t-65.5 39t-53.5 39t-49.5 17.5q-29 0 -56 -20.5t-58 -73.5l-80 43q53 102 115.5 144 t128.5 42q43 0 78.5 -17.5t65.5 -39t56.5 -38.5t53.5 -17q29 0 56.5 19t57.5 75z" />
<glyph unicode="&#xf2;" horiz-adv-x="1128" d="M78 471q0 115 36 209t100.5 160.5t153.5 102.5t195 36t196.5 -36t155 -102.5t100.5 -160.5t36 -209t-36 -208t-100.5 -159.5t-154.5 -103.5t-197 -37q-106 0 -195 37t-153.5 103.5t-100.5 159.5t-36 208zM367 471q0 -100 10 -182t32.5 -140.5t60.5 -91t93 -32.5t94 32.5 t61.5 91t33 140.5t10.5 182t-10.5 182t-33 140.5t-61.5 91.5t-94 33t-93 -33t-60.5 -91.5t-32.5 -140.5t-10 -182zM479 1229q-18 10 -43.5 25.5t-50.5 36t-41 44t-16 49.5q0 29 20.5 54.5t73.5 25.5q45 0 83 -27.5t74.5 -73.5t74.5 -104.5t83 -119.5l-47 -54z" />
<glyph unicode="&#xf3;" horiz-adv-x="1128" d="M78 471q0 115 36 209t100.5 160.5t153.5 102.5t195 36t196.5 -36t155 -102.5t100.5 -160.5t36 -209t-36 -208t-100.5 -159.5t-154.5 -103.5t-197 -37q-106 0 -195 37t-153.5 103.5t-100.5 159.5t-36 208zM367 471q0 -100 10 -182t32.5 -140.5t60.5 -91t93 -32.5t94 32.5 t61.5 91t33 140.5t10.5 182t-10.5 182t-33 140.5t-61.5 91.5t-94 33t-93 -33t-60.5 -91.5t-32.5 -140.5t-10 -182zM442 1085l-47 54q45 61 83 119.5t75 104.5t75 73.5t83 27.5q53 0 73.5 -25.5t20.5 -54.5q0 -23 -13.5 -42t-35 -37.5t-49 -37t-54.5 -36.5z" />
<glyph unicode="&#xf4;" horiz-adv-x="1128" d="M78 471q0 115 36 209t100.5 160.5t153.5 102.5t195 36t196.5 -36t155 -102.5t100.5 -160.5t36 -209t-36 -208t-100.5 -159.5t-154.5 -103.5t-197 -37q-106 0 -195 37t-153.5 103.5t-100.5 159.5t-36 208zM367 471q0 -100 10 -182t32.5 -140.5t60.5 -91t93 -32.5t94 32.5 t61.5 91t33 140.5t10.5 182t-10.5 182t-33 140.5t-61.5 91.5t-94 33t-93 -33t-60.5 -91.5t-32.5 -140.5t-10 -182zM326 1085l-56 56q76 96 123 158.5t77 99.5t50.5 51t42.5 14q23 0 45.5 -15t54 -52t76.5 -99.5t117 -156.5l-55 -56l-238 189z" />
<glyph unicode="&#xf5;" horiz-adv-x="1128" d="M78 471q0 115 36 209t100.5 160.5t153.5 102.5t195 36t196.5 -36t155 -102.5t100.5 -160.5t36 -209t-36 -208t-100.5 -159.5t-154.5 -103.5t-197 -37q-106 0 -195 37t-153.5 103.5t-100.5 159.5t-36 208zM367 471q0 -100 10 -182t32.5 -140.5t60.5 -91t93 -32.5t94 32.5 t61.5 91t33 140.5t10.5 182t-10.5 182t-33 140.5t-61.5 91.5t-94 33t-93 -33t-60.5 -91.5t-32.5 -140.5t-10 -182zM909 1313q-53 -102 -115.5 -144.5t-127.5 -42.5q-49 0 -86 17.5t-66 39t-53.5 39t-48.5 17.5q-29 0 -56.5 -20.5t-58.5 -73.5l-80 43q53 102 115.5 144 t128.5 42q43 0 78.5 -17.5t65.5 -39t56.5 -38.5t53.5 -17q29 0 56.5 19t57.5 75z" />
<glyph unicode="&#xf6;" horiz-adv-x="1128" d="M78 471q0 115 36 209t100.5 160.5t153.5 102.5t195 36t196.5 -36t155 -102.5t100.5 -160.5t36 -209t-36 -208t-100.5 -159.5t-154.5 -103.5t-197 -37q-106 0 -195 37t-153.5 103.5t-100.5 159.5t-36 208zM367 471q0 -100 10 -182t32.5 -140.5t60.5 -91t93 -32.5t94 32.5 t61.5 91t33 140.5t10.5 182t-10.5 182t-33 140.5t-61.5 91.5t-94 33t-93 -33t-60.5 -91.5t-32.5 -140.5t-10 -182zM246 1249q0 55 39 93t94 38q53 0 93 -37.5t40 -93.5q0 -55 -40 -92t-93 -37q-55 0 -94 37t-39 92zM614 1249q0 55 39 93t95 38q53 0 93 -37.5t40 -93.5 q0 -55 -40 -92t-93 -37q-55 0 -94.5 37t-39.5 92z" />
<glyph unicode="&#xf7;" d="M401 219q0 47 32 78t79 31t78 -31t31 -78t-31 -78.5t-78 -31.5t-79 31.5t-32 78.5zM401 795q0 47 32 77.5t79 30.5t78 -30.5t31 -77.5t-31 -79t-78 -32t-79 32t-32 79zM977 553v-90h-930v90h930z" />
<glyph unicode="&#xf8;" horiz-adv-x="1142" d="M84 471q0 115 36 209t100.5 160.5t153.5 102.5t195 36q88 0 164 -24.5t137 -71.5l109 129l63 -54l-110 -131q59 -66 92 -155.5t33 -200.5q0 -115 -36 -208t-100.5 -159.5t-154.5 -103.5t-197 -37q-86 0 -159.5 23.5t-133.5 66.5l-102 -121l-63 54l104 123 q-63 66 -97 157.5t-34 204.5zM373 471q0 -47 2 -88t6 -78l362 428q-23 86 -63.5 135.5t-110.5 49.5q-55 0 -93 -33t-60.5 -91.5t-32.5 -140.5t-10 -182zM768 471q0 41 -2 81t-6 75l-361 -428q23 -82 63 -128t107 -46q55 0 94 32.5t62 91t33 140.5t10 182z" />
<glyph unicode="&#xf9;" horiz-adv-x="1216" d="M1020 233q0 -47 2 -78.5t11 -52t28.5 -28.5t54.5 -8q37 0 86 6v-76q-31 2 -60.5 3t-56.5 1q-70 0 -134 -8t-144 -27q-10 55 -11 86t-3 72l-11 2q-35 -76 -103.5 -120t-170.5 -44q-113 0 -177.5 34t-98 87t-43 117.5t-9.5 126.5v381q0 47 -1 78.5t-9 52t-27.5 28.5 t-54.5 8q-39 0 -88 -6v74q31 -2 61.5 -3t59.5 -1q78 0 154.5 8t156.5 27v-606q0 -180 32 -252t101 -72q33 0 69 16.5t65.5 61.5t49 125t19.5 209v252q0 47 -2 78.5t-11.5 52t-28.5 28.5t-54 8q-41 0 -90 -6v74q31 -2 64.5 -3t62.5 -1q78 0 154.5 8t156.5 27v-740zM530 1229 q-18 10 -43.5 25.5t-50 36t-41 44t-16.5 49.5q0 29 20.5 54.5t73.5 25.5q45 0 83 -27.5t75 -73.5t74.5 -104.5t82.5 -119.5l-47 -54z" />
<glyph unicode="&#xfa;" horiz-adv-x="1216" d="M1020 233q0 -47 2 -78.5t11 -52t28.5 -28.5t54.5 -8q37 0 86 6v-76q-31 2 -60.5 3t-56.5 1q-70 0 -134 -8t-144 -27q-10 55 -11 86t-3 72l-11 2q-35 -76 -103.5 -120t-170.5 -44q-113 0 -177.5 34t-98 87t-43 117.5t-9.5 126.5v381q0 47 -1 78.5t-9 52t-27.5 28.5 t-54.5 8q-39 0 -88 -6v74q31 -2 61.5 -3t59.5 -1q78 0 154.5 8t156.5 27v-606q0 -180 32 -252t101 -72q33 0 69 16.5t65.5 61.5t49 125t19.5 209v252q0 47 -2 78.5t-11.5 52t-28.5 28.5t-54 8q-41 0 -90 -6v74q31 -2 64.5 -3t62.5 -1q78 0 154.5 8t156.5 27v-740zM494 1085 l-48 54q45 61 83 119.5t75 104.5t75 73.5t83 27.5q53 0 73.5 -25.5t20.5 -54.5q0 -23 -13.5 -42t-35 -37.5t-49 -37t-53.5 -36.5z" />
<glyph unicode="&#xfb;" horiz-adv-x="1216" d="M1020 233q0 -47 2 -78.5t11 -52t28.5 -28.5t54.5 -8q37 0 86 6v-76q-31 2 -60.5 3t-56.5 1q-70 0 -134 -8t-144 -27q-10 55 -11 86t-3 72l-11 2q-35 -76 -103.5 -120t-170.5 -44q-113 0 -177.5 34t-98 87t-43 117.5t-9.5 126.5v381q0 47 -1 78.5t-9 52t-27.5 28.5 t-54.5 8q-39 0 -88 -6v74q31 -2 61.5 -3t59.5 -1q78 0 154.5 8t156.5 27v-606q0 -180 32 -252t101 -72q33 0 69 16.5t65.5 61.5t49 125t19.5 209v252q0 47 -2 78.5t-11.5 52t-28.5 28.5t-54 8q-41 0 -90 -6v74q31 -2 64.5 -3t62.5 -1q78 0 154.5 8t156.5 27v-740zM379 1085 l-55 56q76 96 123 158.5t76.5 99.5t50 51t42.5 14q23 0 45.5 -15t54.5 -52t77 -99.5t116 -156.5l-55 -56l-238 189z" />
<glyph unicode="&#xfc;" horiz-adv-x="1216" d="M1020 233q0 -47 2 -78.5t11 -52t28.5 -28.5t54.5 -8q37 0 86 6v-76q-31 2 -60.5 3t-56.5 1q-70 0 -134 -8t-144 -27q-10 55 -11 86t-3 72l-11 2q-35 -76 -103.5 -120t-170.5 -44q-113 0 -177.5 34t-98 87t-43 117.5t-9.5 126.5v381q0 47 -1 78.5t-9 52t-27.5 28.5 t-54.5 8q-39 0 -88 -6v74q31 -2 61.5 -3t59.5 -1q78 0 154.5 8t156.5 27v-606q0 -180 32 -252t101 -72q33 0 69 16.5t65.5 61.5t49 125t19.5 209v252q0 47 -2 78.5t-11.5 52t-28.5 28.5t-54 8q-41 0 -90 -6v74q31 -2 64.5 -3t62.5 -1q78 0 154.5 8t156.5 27v-740zM307 1249 q0 55 39 93t94 38q53 0 93 -37.5t40 -93.5q0 -55 -39.5 -92t-93.5 -37q-55 0 -94 37t-39 92zM676 1249q0 55 39 93t94 38q53 0 93 -37.5t40 -93.5q0 -55 -40 -92t-93 -37q-55 0 -94 37t-39 92z" />
<glyph unicode="&#xfd;" horiz-adv-x="1073" d="M614 -96q-37 -102 -65.5 -174t-58 -117t-65.5 -64.5t-85 -19.5q-76 0 -111.5 36t-35.5 85q0 43 31.5 82t90.5 39q33 0 52.5 -8.5t38.5 -8.5q29 0 53 24.5t47 92.5l43 129q-35 2 -55.5 12.5t-36.5 46.5l-215 504q-41 92 -66.5 151.5t-46 95.5t-40 49t-48.5 13 q-4 0 -16.5 -1t-18.5 -1v76q57 -4 133 -7t140 -3q63 0 146 3t146 13v-75q-18 2 -26 3t-13.5 2t-10.5 1h-19q-29 0 -53.5 -10.5t-24.5 -41.5q0 -25 13.5 -62.5t37.5 -98.5l98 -248q6 -12 14.5 -36t16.5 -48.5t16.5 -48t12.5 -35.5h8l150 424q14 39 25 80t11 69 q0 31 -25.5 41.5t-58.5 10.5q-16 0 -32.5 -2.5t-30.5 -4.5v74q41 -4 85 -6t89 -2q55 0 108.5 3t106.5 11v-69q-10 2 -16 2h-15q-29 0 -48 -10.5t-36.5 -37t-36 -72.5t-43.5 -118zM453 1085l-47 54q45 61 82.5 119.5t74.5 104.5t75 73.5t83 27.5q53 0 73.5 -25.5t20.5 -54.5 q0 -23 -13.5 -42t-35 -37.5t-49 -37t-53.5 -36.5z" />
<glyph unicode="&#xfe;" horiz-adv-x="1150" d="M414 -221q0 -55 3 -90t19.5 -53.5t53 -23.5t104.5 -1v-72q-78 8 -155 11.5t-138 3.5t-136 -4.5t-147 -14.5v72q53 -4 82 3t43.5 26.5t16.5 53.5t2 85v1425q0 47 -2 80t-11.5 53.5t-30 29.5t-57.5 9q-43 0 -86 -6v72q31 -2 65 -3t62 -1q78 0 155 8t157 26v-387 q0 -27 -1 -59.5t-2 -67t-3 -68.5t-7 -65q35 68 109 109t166 41q84 0 155.5 -32t125 -93.5t84 -152.5t30.5 -210q0 -113 -36 -207t-96 -161.5t-141 -104.5t-169 -37q-68 0 -129.5 22.5t-98.5 59.5q10 -47 11.5 -92t1.5 -82v-102zM805 510q0 70 -9.5 139.5t-30 124.5t-54 90 t-82.5 35t-90 -35t-71 -96t-46 -144t-16 -178q0 -80 9 -151.5t31.5 -125.5t60.5 -87t95 -33q49 0 87 35t63.5 96.5t39 146.5t13.5 183z" />
<glyph unicode="&#xff;" horiz-adv-x="1073" d="M614 -96q-37 -102 -65.5 -174t-58 -117t-65.5 -64.5t-85 -19.5q-76 0 -111.5 36t-35.5 85q0 43 31.5 82t90.5 39q33 0 52.5 -8.5t38.5 -8.5q29 0 53 24.5t47 92.5l43 129q-35 2 -55.5 12.5t-36.5 46.5l-215 504q-41 92 -66.5 151.5t-46 95.5t-40 49t-48.5 13 q-4 0 -16.5 -1t-18.5 -1v76q57 -4 133 -7t140 -3q63 0 146 3t146 13v-75q-18 2 -26 3t-13.5 2t-10.5 1h-19q-29 0 -53.5 -10.5t-24.5 -41.5q0 -25 13.5 -62.5t37.5 -98.5l98 -248q6 -12 14.5 -36t16.5 -48.5t16.5 -48t12.5 -35.5h8l150 424q14 39 25 80t11 69 q0 31 -25.5 41.5t-58.5 10.5q-16 0 -32.5 -2.5t-30.5 -4.5v74q41 -4 85 -6t89 -2q55 0 108.5 3t106.5 11v-69q-10 2 -16 2h-15q-29 0 -48 -10.5t-36.5 -37t-36 -72.5t-43.5 -118zM258 1249q0 55 39 93t94 38q53 0 93 -37.5t40 -93.5q0 -55 -40 -92t-93 -37q-55 0 -94 37 t-39 92zM627 1249q0 55 39 93t94 38q53 0 93 -37.5t40 -93.5q0 -55 -40 -92t-93 -37q-55 0 -94 37t-39 92z" />
<glyph unicode="&#x104;" horiz-adv-x="1484" d="M1315 201q23 -53 49.5 -92t83.5 -39q12 0 29.5 1t29.5 3v-80q-53 6 -110 6q-41 -29 -62.5 -59.5t-31 -61.5t-11.5 -57.5t-2 -44.5q0 -53 26.5 -92t72.5 -39q23 0 44 5t52 21l16 -61q-31 -14 -81 -23.5t-85 -9.5q-51 0 -89 14.5t-62.5 38t-36.5 53t-12 60.5q0 88 51 152.5 t117 107.5q-37 0 -72 1t-66 1q-76 0 -169 -3t-173 -9v80q23 -4 42.5 -4h41.5q55 0 84 16t29 61q0 16 -6 39t-15 45l-112 291h-477l-101 -266q-25 -61 -24 -104q0 -41 30.5 -61.5t122.5 -20.5h32.5t33.5 4v-80q-80 6 -148.5 9t-142.5 3q-41 0 -72.5 -1t-57.5 -2t-50.5 -4 t-52.5 -5v80q14 -2 27 -2h30q33 0 55.5 7t38.5 27.5t32.5 54.5t37.5 87l477 1222h123zM438 594h420l-133 340q-23 53 -40 106.5t-28 94.5h-10z" />
<glyph unicode="&#x105;" horiz-adv-x="1099" d="M1040 31q-4 -2 -12 -11q-51 -29 -79.5 -62.5t-42 -67t-15.5 -63.5t-2 -50q0 -53 26.5 -92t71.5 -39q23 0 44.5 5t51.5 21l17 -61q-31 -14 -81 -23.5t-85 -9.5q-51 0 -89 14.5t-62.5 38t-37 53t-12.5 60.5q0 72 35 129t88 98q-66 10 -108.5 52.5t-53.5 95.5 q-14 -23 -35.5 -48.5t-54.5 -48t-80 -38t-110 -15.5q-104 0 -169 27t-102 66.5t-50 86t-13 84.5q0 53 18.5 107.5t80 97.5t176 71t307.5 30v129q0 45 -5.5 90t-23 80.5t-49 57.5t-82.5 22q-66 0 -99.5 -27t-33.5 -74q0 -23 6 -46t6 -48q0 -55 -41 -88t-92 -33q-18 0 -41 7 t-43.5 22.5t-33.5 42t-13 65.5q0 37 25.5 79t74.5 78t122 59.5t167 23.5q111 0 187.5 -23.5t124.5 -67.5t69.5 -106.5t21.5 -140.5v-418q0 -66 12.5 -104.5t36.5 -38.5q14 0 30 11t30 26q16 16 31 37l57 -52q-29 -41 -66 -71h4l-16 -11q-33 -23 -70.5 -37t-74.5 -14 q-8 0 -14.5 1t-12.5 1q33 27 66.5 46.5t68.5 35.5zM662 471q-59 0 -117 -7t-103 -31.5t-72.5 -71t-27.5 -121.5q0 -25 6 -57.5t21.5 -62.5t41 -49.5t64.5 -19.5q61 0 97 31t56.5 77t27 99t6.5 100v113z" />
<glyph unicode="&#x106;" horiz-adv-x="1339" d="M1231 1417q0 -63 1 -110t4 -89t9 -82t15 -89l-103 -7q-6 106 -34.5 177t-75 111t-103.5 56.5t-119 16.5q-96 0 -176 -45t-137 -132t-89 -215t-32 -292q0 -147 27.5 -270t82 -212.5t133.5 -138.5t181 -49q66 0 126 21.5t111.5 58.5t91.5 87t64 110l92 -37 q-76 -168 -217 -246t-309 -78q-152 0 -277.5 49t-217 144.5t-142.5 235.5t-51 325q0 182 55.5 322.5t153.5 236.5t232.5 145t291.5 49q143 0 246 -18.5t166 -34.5zM600 1581q66 80 114 136.5t84 91t63.5 50t56.5 15.5q55 0 74.5 -24.5t19.5 -53.5q0 -23 -16.5 -42t-57.5 -48 t-110.5 -71t-176.5 -109z" />
<glyph unicode="&#x107;" horiz-adv-x="989" d="M944 225q-27 -57 -60.5 -105t-79.5 -83t-106.5 -54.5t-138.5 -19.5q-111 0 -199 36t-150.5 101.5t-96 160.5t-33.5 212q0 111 32.5 204t95 159.5t152 104.5t199.5 38q100 0 172 -24.5t118 -61.5t66.5 -82t20.5 -86q0 -68 -43 -100.5t-94 -32.5t-92 29.5t-41 87.5 q0 25 7 47t7 51q0 47 -24.5 79t-82.5 32q-104 0 -159.5 -114t-55.5 -331t67 -327.5t173 -110.5q31 0 66.5 12t71.5 39t69 71t59 105zM459 1085l-47 54q45 61 82.5 119.5t74.5 104.5t75 73.5t83 27.5q53 0 73.5 -25.5t20.5 -54.5q0 -23 -13 -42t-34.5 -37.5t-49.5 -37 t-54 -36.5z" />
<glyph unicode="&#x10c;" horiz-adv-x="1339" d="M1231 1417q0 -63 1 -110t4 -89t9 -82t15 -89l-103 -7q-6 106 -34.5 177t-75 111t-103.5 56.5t-119 16.5q-96 0 -176 -45t-137 -132t-89 -215t-32 -292q0 -147 27.5 -270t82 -212.5t133.5 -138.5t181 -49q66 0 126 21.5t111.5 58.5t91.5 87t64 110l92 -37 q-76 -168 -217 -246t-309 -78q-152 0 -277.5 49t-217 144.5t-142.5 235.5t-51 325q0 182 55.5 322.5t153.5 236.5t232.5 145t291.5 49q143 0 246 -18.5t166 -34.5zM764 1708l213 166l61 -55l-100 -123q-37 -45 -61.5 -77t-44 -52.5t-35 -30.5t-33.5 -10t-34.5 9t-36 28.5 t-44 52.5t-61.5 80l-99 123l62 55z" />
<glyph unicode="&#x10d;" horiz-adv-x="989" d="M944 225q-27 -57 -60.5 -105t-79.5 -83t-106.5 -54.5t-138.5 -19.5q-111 0 -199 36t-150.5 101.5t-96 160.5t-33.5 212q0 111 32.5 204t95 159.5t152 104.5t199.5 38q100 0 172 -24.5t118 -61.5t66.5 -82t20.5 -86q0 -68 -43 -100.5t-94 -32.5t-92 29.5t-41 87.5 q0 25 7 47t7 51q0 47 -24.5 79t-82.5 32q-104 0 -159.5 -114t-55.5 -331t67 -327.5t173 -110.5q31 0 66.5 12t71.5 39t69 71t59 105zM561 1276l238 188l55 -61q-72 -94 -117 -155.5t-76.5 -97.5t-54 -50.5t-45.5 -14.5t-43 13.5t-50 48.5t-77 97.5t-123 158.5l56 61z" />
<glyph unicode="&#x10e;" horiz-adv-x="1581" d="M1192 717q0 125 -21.5 242.5t-74 209t-142.5 146.5t-227 55q-66 0 -102.5 -6t-55 -23.5t-22.5 -49t-4 -81.5v-987q0 -51 6 -81.5t25.5 -48t55.5 -24t97 -6.5q131 0 220 53.5t143.5 143.5t78 209t23.5 248zM66 74q43 -6 86 -6q35 0 58 6t37.5 27.5t20.5 64.5t6 115v872 q0 70 -5 112t-18 64.5t-34.5 29.5t-54.5 7q-51 0 -96 -6v80q27 -4 72.5 -6t95 -3t95.5 -2.5t74 -1.5q53 0 89 2.5t69 4.5t71 4t97 2q166 0 306.5 -40t241.5 -126t158.5 -223.5t57.5 -333.5q0 -186 -58.5 -322.5t-161 -225.5t-241.5 -132t-299 -43q-90 0 -177 6t-181 6 q-66 0 -141.5 -2t-167.5 -10v80zM797 1708l213 166l61 -55l-100 -123q-37 -45 -61.5 -77t-44 -52.5t-35 -30.5t-33.5 -10t-35 9t-36 28.5t-44 52.5t-61 80l-99 123l62 55z" />
<glyph unicode="&#x10f;" horiz-adv-x="1214" d="M346 424q0 -72 9.5 -140.5t30 -121.5t54 -87t82.5 -34t90 31.5t71 90t46 140.5t16 184q0 86 -9 160t-31.5 127t-59.5 83t-90 30t-92 -35t-64.5 -97.5t-39 -147.5t-13.5 -183zM522 963q66 0 124.5 -17.5t96.5 -77.5l7 2q-6 43 -8.5 75t-3.5 68t-1 80v109q0 47 -2 79 t-11 52.5t-28.5 28.5t-54.5 8q-41 0 -90 -6v74q31 -2 64.5 -3t62.5 -1q78 0 154.5 8t156.5 26v-1235q0 -47 2 -78.5t11.5 -52t29 -28.5t53.5 -8q41 0 91 6v-76q-31 2 -63 3t-58 1q-70 0 -135.5 -4t-145.5 -23q-6 39 -9 79t-5 87l-6 2q-45 -92 -119 -132t-160 -40 q-84 0 -155.5 31t-125 91.5t-84 150.5t-30.5 209q0 113 36 207t96 161.5t140 105.5t170 38zM1198 1196q0 25 -17.5 36t-38 24.5t-38 34t-17.5 61.5q0 45 35 75.5t95 30.5q63 0 100 -45t37 -135q0 -98 -65.5 -171t-172.5 -122l-47 72q45 23 87 57.5t42 81.5z" />
<glyph unicode="&#x118;" horiz-adv-x="1335" d="M63 74q45 -6 89 -6q35 0 58 6t37.5 27.5t20.5 64.5t6 115v872q0 70 -6 112t-19 64.5t-34.5 29.5t-52.5 7q-49 0 -99 -6v80q135 -8 279.5 -10.5t261.5 -2.5q147 0 292.5 3.5t285.5 9.5q0 -55 3 -100.5t7 -89.5t11 -92t18 -109l-97 -11q-6 113 -31.5 177.5t-71.5 96 t-118 39t-170 7.5q-68 0 -106.5 -5t-58 -21.5t-23.5 -50.5t-4 -89v-408q29 -2 46 -2h44q92 0 141 13.5t71.5 41t29 67.5t10.5 93l84 -4q-6 -70 -10.5 -130t-4.5 -118q0 -63 4.5 -123.5t10.5 -121.5l-84 -4q-2 51 -7.5 92t-29 67.5t-73.5 41t-142 14.5h-44.5t-45.5 -2v-469 q0 -55 3 -87t19.5 -49.5t51 -22.5t100.5 -5q119 0 200.5 10t133 48t77 109.5t35.5 194.5l99 -10q-25 -123 -34 -222.5t-14 -211.5q-29 2 -58.5 3t-57.5 1q-39 -29 -59.5 -59.5t-30 -60.5t-11.5 -56.5t-2 -44.5q0 -53 27 -92t72 -39q23 0 44 5t52 21l16 -61 q-31 -14 -81 -23.5t-85 -9.5q-51 0 -89 14.5t-62.5 38t-36.5 53t-12 60.5q0 86 49 150.5t114 105.5q-113 4 -223 5t-213 1q-119 0 -252 -2t-250 -10v80z" />
<glyph unicode="&#x119;" horiz-adv-x="1048" d="M975 236q-35 -76 -89.5 -135.5t-127.5 -94.5q-43 -29 -66.5 -60.5t-34 -63.5t-12.5 -59.5t-2 -45.5q0 -53 26.5 -92t71.5 -39q23 0 44.5 5t52.5 21l16 -61q-31 -14 -81 -23.5t-85 -9.5q-51 0 -89 14.5t-62.5 38t-37 53t-12.5 60.5q0 70 34 125t83 96q-14 -2 -26.5 -2 h-26.5q-111 0 -199 38t-148.5 104.5t-93 159.5t-32.5 204q2 113 35.5 206t94 160.5t146.5 105.5t195 38q125 0 208 -43t132 -105.5t68.5 -133t19.5 -124.5q0 -35 -10.5 -55t-36 -30.5t-71.5 -13.5t-118 -3h-403q6 -205 81 -313.5t191 -108.5q31 0 69 11.5t75 37t71.5 68.5 t61.5 108zM514 539q74 0 116 6t62.5 23.5t25.5 46t5 73.5t-12.5 86t-36 73t-55 51.5t-70.5 19.5q-51 0 -89 -36t-63.5 -91.5t-40 -122t-16.5 -129.5h174z" />
<glyph unicode="&#x11a;" horiz-adv-x="1335" d="M63 74q45 -6 89 -6q35 0 58 6t37.5 27.5t20.5 64.5t6 115v872q0 70 -6 112t-19 64.5t-34.5 29.5t-52.5 7q-49 0 -99 -6v80q135 -8 279.5 -10.5t261.5 -2.5q147 0 292.5 3.5t285.5 9.5q0 -55 3 -100.5t7 -89.5t11 -92t18 -109l-97 -11q-6 113 -31.5 177.5t-71.5 96 t-118 39t-170 7.5q-68 0 -106.5 -5t-58 -21.5t-23.5 -50.5t-4 -89v-408q29 -2 46 -2h44q92 0 141 13.5t71.5 41t29 67.5t10.5 93l84 -4q-6 -70 -10.5 -130t-4.5 -118q0 -63 4.5 -123.5t10.5 -121.5l-84 -4q-2 51 -7.5 92t-29 67.5t-73.5 41t-142 14.5h-44.5t-45.5 -2v-469 q0 -55 3 -87t19.5 -49.5t51 -22.5t100.5 -5q119 0 200.5 10t133 48t77 109.5t35.5 194.5l99 -10q-25 -123 -34 -222.5t-14 -211.5q-162 6 -328.5 9t-318.5 3q-119 0 -252 -2t-250 -10v80zM709 1708l213 166l61 -55l-100 -123q-37 -45 -61.5 -77t-44 -52.5t-35 -30.5 t-33.5 -10t-35 9t-36.5 28.5t-44 52.5t-61.5 80l-98 123l62 55z" />
<glyph unicode="&#x11b;" horiz-adv-x="1048" d="M975 236q-53 -121 -158.5 -197t-265.5 -76q-111 0 -199 38t-148.5 104.5t-93 159.5t-32.5 204q2 113 35.5 206t94 160.5t146.5 105.5t195 38q125 0 208 -43t132 -105.5t68.5 -133t19.5 -124.5q0 -35 -10.5 -55t-36 -30.5t-71.5 -13.5t-118 -3h-403q6 -205 81 -313.5 t191 -108.5q31 0 69 11.5t75 37t71.5 68.5t61.5 108zM514 539q74 0 116 6t62.5 23.5t25.5 46t5 73.5t-12.5 86t-36 73t-55 51.5t-70.5 19.5q-51 0 -89 -36t-63.5 -91.5t-40 -122t-16.5 -129.5h174zM547 1276l237 188l56 -61q-72 -94 -117 -155.5t-77 -97.5t-54.5 -50.5 t-44.5 -14.5q-23 0 -43.5 13.5t-50 48.5t-76.5 97.5t-123 158.5l55 61z" />
<glyph unicode="&#x141;" horiz-adv-x="1230" d="M543 840l213 100l39 -86l-252 -117v-475q0 -55 3 -91t19.5 -57.5t51 -29.5t100.5 -8q119 0 192.5 10t114.5 48t59.5 109.5t28.5 194.5l98 -10q-25 -123 -34 -222.5t-13 -211.5q-162 6 -303 9t-293 3q-119 0 -252 -2t-249 -10v80q45 -6 86 -6q35 0 59.5 6t38.5 27.5 t20 64.5t6 115v331l-182 -84l-37 86l219 103v436q0 70 -6 112t-19 64.5t-34.5 29.5t-54.5 7q-47 0 -96 -6v80q63 -4 108 -7t82 -4.5t71.5 -1.5h82.5h80.5t72.5 1.5t81 4.5t110 7v-80q-43 6 -86 6q-35 0 -59.5 -6t-39 -27.5t-20.5 -64.5t-6 -115v-313z" />
<glyph unicode="&#x142;" horiz-adv-x="684" d="M199 1202q0 47 -2 79t-11.5 52.5t-29 28.5t-54.5 8q-41 0 -90 -6v74q31 -2 65 -3t62 -1q78 0 155 8t157 26v-663l208 94l29 -86l-237 -108v-472q0 -49 2 -81.5t13 -52t35.5 -28t71.5 -8.5h26.5t31.5 3v-72q-78 8 -155 11t-138 3t-136 -4t-147 -14v71q10 0 17.5 -1 t15.5 -1q41 0 63.5 8.5t33 29t12.5 53t2 79.5v363l-140 -64l-28 86l168 76v512v0z" />
<glyph unicode="&#x143;" horiz-adv-x="1634" d="M1276 1190q0 100 -26.5 138t-92.5 38q-43 0 -86 -6v80l74 -4q47 -4 84 -5t96 -1q66 0 133.5 3t134.5 7v-80q-43 6 -82 6q-74 0 -103.5 -37t-29.5 -139v-1227h-118l-746 1030q-12 14 -31.5 43t-40 59.5t-39 60.5t-26.5 48v-960q0 -102 29.5 -139t103.5 -37q39 0 82 6v-80 q-63 4 -129 7t-139 3q-59 0 -96.5 -1t-84.5 -5l-73 -4v80q45 -6 86 -6q66 0 92 37.5t26 138.5v966q0 90 -25.5 123t-94.5 33q-16 0 -39 -1t-45 -3v78q82 -6 141 -9.5t119 -3.5q47 0 109.5 2.5t111.5 10.5q6 -18 13 -31.5t26.5 -42.5t57.5 -82t106.5 -148.5t174 -243 t259.5 -364.5q33 -45 51 -75.5t37 -59.5v797zM664 1581q66 80 113.5 136.5t83.5 91t63.5 50t56.5 15.5q55 0 74.5 -24.5t19.5 -53.5q0 -23 -16.5 -42t-57 -48t-110.5 -71t-176 -109z" />
<glyph unicode="&#x144;" horiz-adv-x="1261" d="M459 815q41 74 106.5 115t182.5 41q113 0 178 -31t100 -82t45 -116.5t10 -135.5v-373q0 -49 2 -81.5t13.5 -52t36 -28t71.5 -8.5h26.5t31.5 3v-72q-78 8 -155 11t-138 3t-134 -4t-143 -14v71q10 0 17.5 -1t15.5 -1q39 0 60.5 8.5t30.5 27t11 48t2 72.5v350 q0 180 -31.5 252t-115.5 72q-35 0 -73 -15.5t-68.5 -59.5t-51 -123t-20.5 -208v-262q0 -35 2 -64.5t12.5 -50t33 -32t63.5 -11.5h25t30 3v-72q-78 8 -147.5 11t-131.5 3q-61 0 -136 -4t-146 -14v71q10 0 17 -1t15 -1q41 0 64 8.5t33 29t12 53t2 79.5v476q0 47 -2 78.5 t-11 52t-28.5 28.5t-54.5 8q-41 0 -90 -6v76q31 -2 62.5 -3t58.5 -1q70 0 135 8t145 27q10 -55 13.5 -86t5.5 -72h8zM477 1085l-47 54q45 61 83 119.5t75 104.5t74.5 73.5t82.5 27.5q53 0 74 -25.5t21 -54.5q0 -23 -13.5 -42t-35 -37.5t-49 -37t-54.5 -36.5z" />
<glyph unicode="&#x147;" horiz-adv-x="1634" d="M1276 1190q0 100 -26.5 138t-92.5 38q-43 0 -86 -6v80l74 -4q47 -4 84 -5t96 -1q66 0 133.5 3t134.5 7v-80q-43 6 -82 6q-74 0 -103.5 -37t-29.5 -139v-1227h-118l-746 1030q-12 14 -31.5 43t-40 59.5t-39 60.5t-26.5 48v-960q0 -102 29.5 -139t103.5 -37q39 0 82 6v-80 q-63 4 -129 7t-139 3q-59 0 -96.5 -1t-84.5 -5l-73 -4v80q45 -6 86 -6q66 0 92 37.5t26 138.5v966q0 90 -25.5 123t-94.5 33q-16 0 -39 -1t-45 -3v78q82 -6 141 -9.5t119 -3.5q47 0 109.5 2.5t111.5 10.5q6 -18 13 -31.5t26.5 -42.5t57.5 -82t106.5 -148.5t174 -243 t259.5 -364.5q33 -45 51 -75.5t37 -59.5v797zM844 1708l213 166l61 -55l-100 -123q-37 -45 -61.5 -77t-44 -52.5t-35 -30.5t-33.5 -10t-34.5 9t-36 28.5t-44 52.5t-61.5 80l-99 123l62 55z" />
<glyph unicode="&#x148;" horiz-adv-x="1261" d="M459 815q41 74 106.5 115t182.5 41q113 0 178 -31t100 -82t45 -116.5t10 -135.5v-373q0 -49 2 -81.5t13.5 -52t36 -28t71.5 -8.5h26.5t31.5 3v-72q-78 8 -155 11t-138 3t-134 -4t-143 -14v71q10 0 17.5 -1t15.5 -1q39 0 60.5 8.5t30.5 27t11 48t2 72.5v350 q0 180 -31.5 252t-115.5 72q-35 0 -73 -15.5t-68.5 -59.5t-51 -123t-20.5 -208v-262q0 -35 2 -64.5t12.5 -50t33 -32t63.5 -11.5h25t30 3v-72q-78 8 -147.5 11t-131.5 3q-61 0 -136 -4t-146 -14v71q10 0 17 -1t15 -1q41 0 64 8.5t33 29t12 53t2 79.5v476q0 47 -2 78.5 t-11 52t-28.5 28.5t-54.5 8q-41 0 -90 -6v76q31 -2 62.5 -3t58.5 -1q70 0 135 8t145 27q10 -55 13.5 -86t5.5 -72h8zM641 1276l238 188l55 -61q-72 -94 -117 -155.5t-76.5 -97.5t-54 -50.5t-45.5 -14.5t-43 13.5t-50 48.5t-77 97.5t-123 158.5l55 61z" />
<glyph unicode="&#x152;" horiz-adv-x="2076" d="M838 1364q-92 0 -174 -41t-141.5 -123t-94.5 -201.5t-35 -277.5t34 -278.5t94.5 -203.5t144.5 -126t182 -43q61 0 95 6t49.5 23.5t18.5 46t3 73.5v973q0 57 -5 91t-23.5 52.5t-53.5 23.5t-94 5zM1309 6q-92 0 -158 -2t-122 -4t-113.5 -4t-131.5 -2q-147 0 -274 50 t-221 144.5t-148.5 229.5t-54.5 303t54.5 301t148.5 226t221 142.5t274 49.5q68 0 141.5 -2t148.5 -4t144.5 -4.5t127.5 -2.5q147 0 292.5 3.5t284.5 9.5q0 -55 3 -100.5t7 -89.5t10.5 -92t16.5 -109l-96 -11q-6 113 -31 177.5t-72 96t-117.5 39t-170.5 7.5q-68 0 -107 -5 t-57.5 -21.5t-22.5 -50.5t-4 -89v-408q31 -4 57.5 -4h53.5q84 0 130 13.5t67.5 40t25.5 67.5t6 96l86 -4q-8 -70 -12 -130t-4 -118q0 -63 4 -123.5t12 -121.5l-86 -4q-2 51 -6 92t-26.5 68.5t-68.5 42t-130 14.5h-54.5t-54.5 -4v-469q0 -55 3 -87t18.5 -49.5t50.5 -22.5 t100 -5q119 0 201 10t133 48t76.5 109.5t36.5 194.5l98 -10q-25 -123 -34 -222.5t-11 -211.5q-162 6 -327.5 9t-317.5 3z" />
<glyph unicode="&#x153;" horiz-adv-x="1734" d="M1661 236q-53 -121 -158.5 -197t-265.5 -76q-106 0 -190 40t-144 128q-63 -90 -149 -129t-191 -39q-106 0 -195 37t-153.5 103.5t-100.5 159.5t-36 208t36 209t100.5 160.5t153.5 102.5t195 36q104 0 191.5 -40t150.5 -130q59 90 139 130t191 40q125 0 208 -43 t132 -105.5t68.5 -133t19.5 -124.5q0 -35 -10.5 -55t-36 -30.5t-71.5 -13.5t-118 -3h-399q2 -76 21.5 -150.5t53.5 -135t83 -98.5t110 -38q31 0 69 11.5t75 37t71.5 68.5t61.5 108zM367 471q0 -100 10 -182t32.5 -140.5t60.5 -91t93 -32.5t94 32.5t61.5 91t33 140.5 t10.5 182t-10.5 182t-33 140.5t-61.5 91.5t-94 33t-93 -33t-60.5 -91.5t-32.5 -140.5t-10 -182zM1235 918q-49 0 -87 -38t-64.5 -94.5t-42 -123t-17.5 -123.5h176q74 0 116 6t62.5 23.5t25.5 46t5 73.5t-12.5 86t-36 73t-55 51.5t-70.5 19.5z" />
<glyph unicode="&#x158;" horiz-adv-x="1437" d="M543 281q0 -70 6 -112t19.5 -64.5t35 -29.5t51.5 -7q45 0 99 6v-80q-66 4 -110 7t-81 4t-72.5 1h-80.5h-83t-73 -1t-81 -4t-110 -7v80q45 -6 89 -6q35 0 58 6t37.5 27.5t20.5 64.5t6 115v872q0 70 -5 112t-18 64.5t-34.5 29.5t-54.5 7q-49 0 -99 -6v80q92 -8 171 -10.5 t145 -2.5q80 0 161 7.5t167 7.5q268 0 393 -89t125 -259q0 -66 -24.5 -124.5t-72 -104.5t-117 -78.5t-157.5 -45.5v-10q82 0 135 -18.5t87 -51t52.5 -77.5t34.5 -99l86 -303q20 -72 52 -92t77 -20q25 0 48.5 2t31.5 2v-80q-49 2 -101 6t-108 4q-33 0 -60.5 -1t-56 -3 t-61.5 -6t-72 -12q-10 84 -34.5 178t-51.5 184l-28 98q-16 51 -29.5 97.5t-41.5 82t-75 56t-129 20.5q-10 0 -28.5 -1t-38.5 -3v-413zM543 768q16 -2 34.5 -3t34.5 -1q154 0 240 77t86 253q0 135 -70.5 205.5t-187.5 70.5q-39 0 -64.5 -4t-42 -20.5t-23.5 -48t-7 -87.5v-442 zM721 1708l213 166l61 -55l-100 -123q-37 -45 -61.5 -77t-44 -52.5t-35 -30.5t-33.5 -10t-34.5 9t-36 28.5t-44 52.5t-61.5 80l-99 123l62 55z" />
<glyph unicode="&#x159;" horiz-adv-x="946" d="M709 977q61 0 104 -17.5t68.5 -45t38 -61.5t12.5 -67q0 -53 -36 -95t-95 -42q-49 0 -76 16.5t-40 42t-17 55.5t-7.5 56.5t-10.5 44t-27 19.5q-70 0 -112 -112t-42 -308v-230q0 -49 2 -81.5t13.5 -52t36 -28t71.5 -8.5h26.5t30.5 3v-72q-78 8 -154.5 11t-138.5 3 q-61 0 -136 -4t-146 -14v71q10 0 17 -1t15 -1q41 0 64 8.5t33 29t12 53t2 79.5v476q0 47 -2 78.5t-11 52t-28.5 28.5t-54.5 8q-37 0 -86 -6v76q29 -2 59.5 -3t55.5 -1q68 0 132 8t144 27q12 -55 13 -88t3 -74h9q31 68 93.5 117t164.5 49zM477 1276l238 188l55 -61 q-72 -94 -117 -155.5t-76.5 -97.5t-54 -50.5t-45.5 -14.5t-43 13.5t-50 48.5t-77 97.5t-123 158.5l56 61z" />
<glyph unicode="&#x15a;" horiz-adv-x="1191" d="M846 305q0 100 -53.5 160.5t-134 103.5t-174 80t-174.5 90.5t-134 134t-53 211.5q0 86 35 158t100.5 122t156.5 79t206 29q180 0 380 -50q0 -72 1.5 -117.5t4.5 -84.5t9 -78t16 -96l-108 -11q-2 61 -14.5 126t-44 118t-88 88t-146.5 35q-78 0 -129 -24.5t-83 -62.5 t-45.5 -85t-13.5 -90q0 -80 54.5 -129t137.5 -89t178 -78t178 -96.5t137.5 -145.5t54.5 -222q0 -102 -43 -180t-116 -130.5t-170 -80t-208 -27.5q-117 0 -225.5 18.5t-202.5 43.5v65q0 47 -1 84t-5 75t-10 82t-17 109l111 11q2 -61 16.5 -134t53.5 -134.5t105.5 -103.5 t172.5 -42q63 0 116.5 22.5t90.5 59.5t57.5 85t20.5 101zM487 1581q66 80 114 136.5t84 91t63.5 50t56.5 15.5q55 0 74.5 -24.5t19.5 -53.5q0 -23 -16.5 -42t-57.5 -48t-110.5 -71t-175.5 -109z" />
<glyph unicode="&#x15b;" horiz-adv-x="948" d="M803 887q0 -59 4 -108.5t16 -104.5l-98 -10q0 37 -5 82t-24.5 82.5t-61.5 63.5t-116 26q-98 0 -147 -51.5t-49 -116.5q0 -35 13 -59.5t38.5 -42t62.5 -32t86 -30.5q70 -25 133.5 -49.5t111.5 -60.5t76.5 -87t28.5 -127q0 -84 -37.5 -140t-99 -92t-137.5 -51.5t-152 -15.5 q-94 0 -179 13.5t-156 35.5q0 66 -6.5 130.5t-16.5 138.5l98 10q2 -53 16.5 -101.5t43 -85t72.5 -58t104 -21.5q102 0 153.5 52t51.5 120q0 37 -16.5 63.5t-43 47t-63.5 35.5t-76 30q-74 27 -136.5 52.5t-107.5 61t-69.5 86t-24.5 125.5q0 51 23.5 102.5t71.5 90.5t122 63.5 t172 24.5q123 0 198 -16.5t122 -32.5zM350 1085l-47 54q45 61 83 119.5t75 104.5t74.5 73.5t82.5 27.5q53 0 74 -25.5t21 -54.5q0 -23 -13.5 -42t-35 -37.5t-49 -37t-54.5 -36.5z" />
<glyph unicode="&#x160;" horiz-adv-x="1191" d="M846 305q0 100 -53.5 160.5t-134 103.5t-174 80t-174.5 90.5t-134 134t-53 211.5q0 86 35 158t100.5 122t156.5 79t206 29q180 0 380 -50q0 -72 1.5 -117.5t4.5 -84.5t9 -78t16 -96l-108 -11q-2 61 -14.5 126t-44 118t-88 88t-146.5 35q-78 0 -129 -24.5t-83 -62.5 t-45.5 -85t-13.5 -90q0 -80 54.5 -129t137.5 -89t178 -78t178 -96.5t137.5 -145.5t54.5 -222q0 -102 -43 -180t-116 -130.5t-170 -80t-208 -27.5q-117 0 -225.5 18.5t-202.5 43.5v65q0 47 -1 84t-5 75t-10 82t-17 109l111 11q2 -61 16.5 -134t53.5 -134.5t105.5 -103.5 t172.5 -42q63 0 116.5 22.5t90.5 59.5t57.5 85t20.5 101zM614 1708l213 166l62 -55l-101 -123q-37 -45 -61.5 -77t-43.5 -52.5t-34.5 -30.5t-34.5 -10q-18 0 -34.5 9t-36 28.5t-44 52.5t-61.5 80l-98 123l61 55z" />
<glyph unicode="&#x161;" horiz-adv-x="948" d="M803 887q0 -59 4 -108.5t16 -104.5l-98 -10q0 37 -5 82t-24.5 82.5t-61.5 63.5t-116 26q-98 0 -147 -51.5t-49 -116.5q0 -35 13 -59.5t38.5 -42t62.5 -32t86 -30.5q70 -25 133.5 -49.5t111.5 -60.5t76.5 -87t28.5 -127q0 -84 -37.5 -140t-99 -92t-137.5 -51.5t-152 -15.5 q-94 0 -179 13.5t-156 35.5q0 66 -6.5 130.5t-16.5 138.5l98 10q2 -53 16.5 -101.5t43 -85t72.5 -58t104 -21.5q102 0 153.5 52t51.5 120q0 37 -16.5 63.5t-43 47t-63.5 35.5t-76 30q-74 27 -136.5 52.5t-107.5 61t-69.5 86t-24.5 125.5q0 51 23.5 102.5t71.5 90.5t122 63.5 t172 24.5q123 0 198 -16.5t122 -32.5zM494 1276l237 188l55 -61q-72 -94 -116.5 -155.5t-76.5 -97.5t-54.5 -50.5t-44.5 -14.5q-23 0 -43.5 13.5t-50 48.5t-77 97.5t-122.5 158.5l55 61z" />
<glyph unicode="&#x164;" horiz-adv-x="1249" d="M758 281q0 -70 6 -112t19.5 -64.5t35 -29.5t53.5 -7q43 0 97 6v-80q-66 4 -110 7t-81 4t-72.5 1h-80.5h-82t-72 -1t-82 -4t-108 -7v80q45 -6 86 -6q35 0 59.5 6t38.5 27.5t20.5 64.5t6.5 115v876q0 70 -4.5 111t-18.5 60.5t-44 24.5t-81 5q-70 0 -110.5 -22.5t-62 -59.5 t-29 -84t-13.5 -98l-6 -56l-98 13q23 109 27.5 196.5t6.5 192.5q39 -4 114 -6t158 -3t162.5 -2.5t131.5 -1.5q51 0 131 1.5t162.5 2.5t156.5 3t115 6q2 -104 7 -192.5t28 -196.5l-99 -13l-6 56q-6 51 -14 98t-29.5 84t-61.5 59.5t-110 22.5q-51 0 -80.5 -5t-44 -24.5 t-18.5 -60.5t-4 -111v-876zM629 1708l213 166l61 -55l-100 -123q-37 -45 -61.5 -77t-44 -52.5t-35 -30.5t-33.5 -10t-34.5 9t-36 28.5t-44.5 52.5t-61 80l-99 123l62 55z" />
<glyph unicode="&#x165;" horiz-adv-x="710" d="M16 866v76q172 0 249 79t77 239h98v-318h248v-76h-248v-628q0 -72 10.5 -117t51.5 -47q31 0 63.5 30.5t71.5 108.5l72 -45q-35 -82 -104.5 -140.5t-168.5 -58.5q-119 0 -183.5 67.5t-64.5 215.5v614h-172zM772 1196q0 25 -17.5 36t-38 24.5t-37.5 34t-17 61.5 q0 45 34.5 75.5t94.5 30.5q63 0 100 -45t37 -135q0 -98 -65.5 -171t-172.5 -122l-47 72q45 23 87 57.5t42 81.5z" />
<glyph unicode="&#x16e;" horiz-adv-x="1581" d="M246 1153q0 70 -6.5 112t-19.5 64.5t-34.5 29.5t-54.5 7q-47 0 -96 -6v80q63 -4 108 -7t82 -4.5t72 -1.5h82h81t72.5 1.5t80.5 4.5t110 7v-80q-47 6 -86 6q-35 0 -59.5 -6t-39 -27.5t-20.5 -64.5t-6 -115v-559q0 -88 5 -158.5t18.5 -128t37 -103.5t60.5 -83 q35 -29 95 -56.5t126 -27.5q92 0 167 41t128 117q29 43 46 90t26.5 110.5t11.5 145.5t2 194v475q0 96 -26.5 126t-92.5 30q-18 0 -43.5 -1t-52.5 -3v78q66 0 131.5 -5t138.5 -5q57 0 94 1t84 5l74 4v-78q-55 6 -98 6q-59 0 -83 -31.5t-24 -126.5v-592q0 -82 -4 -145 t-13 -116.5t-25.5 -97.5t-41.5 -87q-27 -43 -69.5 -81t-98 -67.5t-124 -46t-144.5 -16.5q-195 0 -332 69.5t-196 209.5q-29 68 -36 149.5t-7 188.5v575zM680 1700q0 43 15.5 76.5t42 55t59 33t67.5 11.5t68 -11.5t59.5 -33t42 -55t15.5 -76.5q0 -45 -15.5 -78t-42 -54.5 t-59.5 -32.5t-68 -11t-67.5 11t-59 32.5t-42 54.5t-15.5 78zM764 1700q0 -53 31.5 -81t68.5 -28q39 0 71 28t32 81t-32 79.5t-71 26.5q-37 0 -68.5 -26.5t-31.5 -79.5z" />
<glyph unicode="&#x16f;" horiz-adv-x="1216" d="M1020 233q0 -47 2 -78.5t11 -52t28.5 -28.5t54.5 -8q37 0 86 6v-76q-31 2 -60.5 3t-56.5 1q-70 0 -134 -8t-144 -27q-10 55 -11 86t-3 72l-11 2q-35 -76 -103.5 -120t-170.5 -44q-113 0 -177.5 34t-98 87t-43 117.5t-9.5 126.5v381q0 47 -1 78.5t-9 52t-27.5 28.5 t-54.5 8q-39 0 -88 -6v74q31 -2 61.5 -3t59.5 -1q78 0 154.5 8t156.5 27v-606q0 -180 32 -252t101 -72q33 0 69 16.5t65.5 61.5t49 125t19.5 209v252q0 47 -2 78.5t-11.5 52t-28.5 28.5t-54 8q-41 0 -90 -6v74q31 -2 64.5 -3t62.5 -1q78 0 154.5 8t156.5 27v-740zM612 1448 q86 0 137.5 -53.5t51.5 -126.5q0 -78 -51.5 -130.5t-137.5 -52.5q-82 0 -135 52.5t-53 130.5q0 74 53 127t135 53zM514 1268q0 -47 30.5 -77t67.5 -30t68 30t31 77q0 45 -31 72.5t-68 27.5t-67.5 -27.5t-30.5 -72.5z" />
<glyph unicode="&#x178;" horiz-adv-x="1323" d="M504 1202q70 -129 111.5 -206.5t66.5 -127t37 -80t24 -61.5h11l247 447q18 35 30.5 66.5t12.5 53.5q0 37 -29.5 53.5t-94.5 16.5h-50.5t-62.5 -4v80q82 -6 149.5 -9.5t143.5 -3.5q41 0 69.5 1.5t53 2.5t48 3t52.5 6v-80q-23 2 -31 2h-18q-49 0 -76 -35t-70 -113 l-333 -608v-325q0 -70 6 -112t19.5 -64.5t35 -29.5t53.5 -7q43 0 97 6v-80q-66 4 -110 7t-81 4t-72.5 1h-80.5h-82t-72 -1t-82 -4t-109 -7v80q45 -6 86 -6q35 0 59.5 6t39 27.5t20.5 64.5t6 115v319l-338 635q-16 29 -28 52.5t-27.5 41t-37 26.5t-54.5 9q-10 0 -20.5 -1 t-22.5 -3v80q80 -6 170 -9.5t166 -3.5q74 0 162 3.5t170 9.5v-80q-14 0 -30.5 2t-43.5 2q-59 0 -93 -10.5t-34 -55.5q0 -18 8.5 -38.5t28.5 -57.5zM381 1700q0 55 39 93t94 38q53 0 93 -38t40 -93t-40 -92t-93 -37q-55 0 -94 37t-39 92zM748 1700q0 55 38.5 93t94.5 38 q53 0 93 -38t40 -93t-40 -92t-93 -37q-55 0 -94 37t-39 92z" />
<glyph unicode="&#x179;" horiz-adv-x="1232" d="M721 1176q29 49 51.5 82.5t63.5 89.5q-16 2 -34 4t-46.5 3t-73.5 1h-117q-92 0 -157.5 -9.5t-108.5 -42t-65.5 -98t-28.5 -176.5l-107 8q20 111 25.5 216.5t5.5 191.5q66 -4 126 -7t118.5 -5t119 -4.5t128.5 -2.5q121 0 237.5 5.5t245.5 13.5l47 -64l-651 -1081 q-18 -29 -33.5 -53.5t-32 -49t-36 -51t-44.5 -61.5q33 -4 61.5 -5t60.5 -3t75 -2h108q109 0 182.5 13t120 51t68 108.5t25.5 187.5l106 -10q-14 -70 -21 -122t-10.5 -101t-4.5 -100.5t-3 -114.5q-139 4 -265 10t-259 6q-119 0 -240.5 -4t-257.5 -12l-49 63zM535 1581 q66 80 113.5 136.5t83.5 91t63.5 50t56.5 15.5q55 0 74.5 -24.5t19.5 -53.5q0 -23 -16.5 -42t-57.5 -48t-110.5 -71t-175.5 -109z" />
<glyph unicode="&#x17a;" horiz-adv-x="964" d="M475 860q-72 0 -125 -6t-90 -30.5t-59.5 -73t-28.5 -132.5l-86 9q2 10 8 54t12.5 95t11.5 99.5t5 66.5q49 -6 144 -9t210 -3q106 0 205.5 3t165.5 9l20 -57l-383 -637q-18 -31 -32.5 -53.5t-27.5 -42t-26.5 -38t-31.5 -40.5q68 -6 127 -6q100 0 160.5 15t92 49t43 87 t15.5 129l94 -8q0 -4 -1 -6t-1 -6q-14 -70 -25.5 -149t-15.5 -189q-49 6 -150.5 9t-224.5 3q-117 0 -223 -3t-172 -9l-20 53l397 662q23 39 46 76.5t58 76.5q-23 0 -46 1t-46 1zM401 1085l-47 54q45 61 83 119.5t75 104.5t75 73.5t83 27.5q53 0 73.5 -25.5t20.5 -54.5 q0 -23 -13.5 -42t-35 -37.5t-49 -37t-54.5 -36.5z" />
<glyph unicode="&#x17b;" horiz-adv-x="1232" d="M721 1176q29 49 51.5 82.5t63.5 89.5q-16 2 -34 4t-46.5 3t-73.5 1h-117q-92 0 -157.5 -9.5t-108.5 -42t-65.5 -98t-28.5 -176.5l-107 8q20 111 25.5 216.5t5.5 191.5q66 -4 126 -7t118.5 -5t119 -4.5t128.5 -2.5q121 0 237.5 5.5t245.5 13.5l47 -64l-651 -1081 q-18 -29 -33.5 -53.5t-32 -49t-36 -51t-44.5 -61.5q33 -4 61.5 -5t60.5 -3t75 -2h108q109 0 182.5 13t120 51t68 108.5t25.5 187.5l106 -10q-14 -70 -21 -122t-10.5 -101t-4.5 -100.5t-3 -114.5q-139 4 -265 10t-259 6q-119 0 -240.5 -4t-257.5 -12l-49 63zM477 1700 q0 59 38 98t101 39q61 0 100.5 -39t39.5 -98t-37 -96t-103 -37q-61 0 -99 38t-40 95z" />
<glyph unicode="&#x17c;" horiz-adv-x="964" d="M475 860q-72 0 -125 -6t-90 -30.5t-59.5 -73t-28.5 -132.5l-86 9q2 10 8 54t12.5 95t11.5 99.5t5 66.5q49 -6 144 -9t210 -3q106 0 205.5 3t165.5 9l20 -57l-383 -637q-18 -31 -32.5 -53.5t-27.5 -42t-26.5 -38t-31.5 -40.5q68 -6 127 -6q100 0 160.5 15t92 49t43 87 t15.5 129l94 -8q0 -4 -1 -6t-1 -6q-14 -70 -25.5 -149t-15.5 -189q-49 6 -150.5 9t-224.5 3q-117 0 -223 -3t-172 -9l-20 53l397 662q23 39 46 76.5t58 76.5q-23 0 -46 1t-46 1zM365 1251q0 57 36.5 98.5t102.5 41.5t102.5 -42t36.5 -98q0 -53 -37 -94t-102 -41 q-66 0 -102.5 40t-36.5 95z" />
<glyph unicode="&#x17d;" horiz-adv-x="1232" d="M721 1176q29 49 51.5 82.5t63.5 89.5q-16 2 -34 4t-46.5 3t-73.5 1h-117q-92 0 -157.5 -9.5t-108.5 -42t-65.5 -98t-28.5 -176.5l-107 8q20 111 25.5 216.5t5.5 191.5q66 -4 126 -7t118.5 -5t119 -4.5t128.5 -2.5q121 0 237.5 5.5t245.5 13.5l47 -64l-651 -1081 q-18 -29 -33.5 -53.5t-32 -49t-36 -51t-44.5 -61.5q33 -4 61.5 -5t60.5 -3t75 -2h108q109 0 182.5 13t120 51t68 108.5t25.5 187.5l106 -10q-14 -70 -21 -122t-10.5 -101t-4.5 -100.5t-3 -114.5q-139 4 -265 10t-259 6q-119 0 -240.5 -4t-257.5 -12l-49 63zM629 1708 l213 166l61 -55l-100 -123q-37 -45 -61.5 -77t-44 -52.5t-35 -30.5t-33.5 -10t-34.5 9t-36 28.5t-44.5 52.5t-61 80l-99 123l62 55z" />
<glyph unicode="&#x17e;" horiz-adv-x="964" d="M475 860q-72 0 -125 -6t-90 -30.5t-59.5 -73t-28.5 -132.5l-86 9q2 10 8 54t12.5 95t11.5 99.5t5 66.5q49 -6 144 -9t210 -3q106 0 205.5 3t165.5 9l20 -57l-383 -637q-18 -31 -32.5 -53.5t-27.5 -42t-26.5 -38t-31.5 -40.5q68 -6 127 -6q100 0 160.5 15t92 49t43 87 t15.5 129l94 -8q0 -4 -1 -6t-1 -6q-14 -70 -25.5 -149t-15.5 -189q-49 6 -150.5 9t-224.5 3q-117 0 -223 -3t-172 -9l-20 53l397 662q23 39 46 76.5t58 76.5q-23 0 -46 1t-46 1zM504 1276l237 188l56 -61q-72 -94 -117 -155.5t-77 -97.5t-54.5 -50.5t-44.5 -14.5 q-23 0 -43.5 13.5t-50 48.5t-76.5 97.5t-123 158.5l55 61z" />
<glyph unicode="&#x2c6;" horiz-adv-x="819" d="M172 1085l-55 56q76 96 123 158.5t76.5 99.5t50 51t43.5 14t45 -15t54 -52t77 -99.5t116 -156.5l-55 -56l-237 189z" />
<glyph unicode="&#x2da;" horiz-adv-x="819" d="M408 1448q86 0 137 -53.5t51 -126.5q0 -78 -51 -130.5t-137 -52.5q-82 0 -135.5 52.5t-53.5 130.5q0 74 53.5 127t135.5 53zM309 1268q0 -47 31 -77t68 -30t67.5 30t30.5 77q0 45 -31 72.5t-67 27.5q-37 0 -68 -27.5t-31 -72.5z" />
<glyph unicode="&#x2dc;" horiz-adv-x="819" d="M756 1313q-53 -102 -115.5 -144.5t-128.5 -42.5q-49 0 -86 17.5t-65.5 39t-53 39t-49.5 17.5q-29 0 -56.5 -20.5t-58.5 -73.5l-80 43q53 102 116 144t128 42q43 0 79 -17.5t65.5 -39t56.5 -38.5t53 -17q29 0 56.5 19t58.5 75z" />
<glyph unicode="&#x2013;" horiz-adv-x="1093" d="M993 518v-88h-893v88h893z" />
<glyph unicode="&#x2014;" horiz-adv-x="1605" d="M1505 518v-88h-1405v88h1405z" />
<glyph unicode="&#x2018;" horiz-adv-x="530" d="M256 1241q0 -27 26.5 -40t58.5 -28.5t58.5 -42t26.5 -79.5q0 -80 -47 -119t-117 -39q-78 0 -121 49t-43 119q0 78 24.5 144.5t63.5 120.5t84 94t86 65l47 -66q-16 -6 -40.5 -26.5t-48 -46t-41 -54t-17.5 -51.5z" />
<glyph unicode="&#x2019;" horiz-adv-x="528" d="M283 1122q0 27 -27 39.5t-58.5 28.5t-58 43t-26.5 80q0 80 47 118.5t116 38.5q78 0 121 -49t43 -118q0 -78 -24.5 -145.5t-63.5 -121t-84 -93.5t-86 -64l-47 65q14 6 40 26.5t49.5 46t41 54t17.5 51.5z" />
<glyph unicode="&#x201a;" horiz-adv-x="557" d="M283 -63q0 27 -27 39t-58.5 28t-58 43t-26.5 80q0 80 47 119t116 39q78 0 121 -49.5t43 -118.5q0 -78 -24.5 -145.5t-63.5 -121t-84 -93.5t-86 -64l-47 65q14 6 40 26.5t49.5 46.5t41 54.5t17.5 51.5z" />
<glyph unicode="&#x201c;" horiz-adv-x="929" d="M655 1237q0 -27 27 -40t58.5 -28.5t58 -42t26.5 -79.5q0 -80 -47 -119t-116 -39q-78 0 -121 49t-43 119q0 78 24.5 144.5t63.5 120.5t84 94t86 65l47 -66q-16 -6 -41 -26.5t-48.5 -46t-41 -54t-17.5 -51.5zM256 1237q0 -27 26.5 -40t58.5 -28.5t58.5 -42t26.5 -79.5 q0 -80 -47 -119t-117 -39q-78 0 -121 49t-43 119q0 78 24.5 144.5t63.5 120.5t84 94t86 65l47 -66q-16 -6 -40.5 -26.5t-48 -46t-41 -54t-17.5 -51.5z" />
<glyph unicode="&#x201d;" horiz-adv-x="927" d="M283 1122q0 27 -27 39.5t-58.5 28.5t-58 43t-26.5 80q0 80 47 118.5t116 38.5q78 0 121 -49t43 -118q0 -78 -24.5 -145.5t-63.5 -121t-84 -93.5t-86 -64l-47 65q14 6 40 26.5t49.5 46t41 54t17.5 51.5zM682 1122q0 27 -26.5 39.5t-58.5 28.5t-58.5 43t-26.5 80 q0 80 47 118.5t117 38.5q78 0 121 -49t43 -118q0 -78 -24.5 -145.5t-63.5 -121t-84 -93.5t-86 -64l-47 65q14 6 39.5 26.5t49 46t41 54t17.5 51.5z" />
<glyph unicode="&#x201e;" horiz-adv-x="956" d="M283 -63q0 27 -27 39t-58.5 28t-58 43t-26.5 80q0 80 47 119t116 39q78 0 121 -49.5t43 -118.5q0 -78 -24.5 -145.5t-63.5 -121t-84 -93.5t-86 -64l-47 65q14 6 40 26.5t49.5 46.5t41 54.5t17.5 51.5zM682 -63q0 27 -26.5 39t-58.5 28t-58.5 43t-26.5 80q0 80 47 119 t117 39q78 0 121 -49.5t43 -118.5q0 -78 -24.5 -145.5t-63.5 -121t-84 -93.5t-86 -64l-47 65q14 6 39.5 26.5t49 46.5t41 54.5t17.5 51.5z" />
<glyph unicode="&#x2022;" horiz-adv-x="802" d="M401 961q55 0 104.5 -20.5t85.5 -57.5t56.5 -87.5t20.5 -107.5t-20.5 -106.5t-56.5 -86t-85 -57t-105 -20.5q-55 0 -104 20.5t-85 57t-56.5 86t-20.5 106.5t20.5 107.5t56.5 87.5t85 57.5t104 20.5z" />
<glyph unicode="&#x2026;" horiz-adv-x="1609" d="M111 135q0 68 49 115t121 47t121 -47t49 -115t-49.5 -115t-120.5 -47q-72 0 -121 47t-49 115zM635 135q0 68 49 115t121 47t121 -47t49 -115t-49 -115t-121 -47t-121 47t-49 115zM1159 135q0 68 49 115t121 47t121 -47t49 -115t-49 -115t-121 -47t-121 47t-49 115z" />
<glyph unicode="&#x2039;" horiz-adv-x="591" d="M502 123l-51 -39l-312 315q-33 35 -46 56.5t-13 48.5q0 33 13 53.5t50 56.5l308 310l51 -39l-209 -381z" />
<glyph unicode="&#x203a;" horiz-adv-x="591" d="M299 504l-209 381l51 39l308 -310q35 -37 49 -58t14 -52q0 -27 -13.5 -49.5t-45.5 -55.5l-312 -315l-51 39z" />
<glyph unicode="&#x20ac;" horiz-adv-x="1374" d="M213 891q25 141 85 248.5t147 181.5t195 111.5t226 37.5q125 0 210 -18t151 -35q0 -94 4 -191.5t16 -178.5l-102 -7q-4 106 -29.5 177t-66.5 111t-92.5 56.5t-104.5 16.5q-154 0 -241 -124t-107 -386h536l-20 -86h-520q-2 -23 -2 -43.5v-42.5v-62h479l-19 -86h-456 q16 -276 104 -407t246 -131q53 0 107.5 16.5t99.5 56t73.5 109.5t32.5 178l103 -6q-12 -70 -16.5 -144.5t-4.5 -162.5v-64q-57 -16 -154.5 -34.5t-226.5 -18.5q-127 0 -237.5 38t-197.5 115t-144.5 190.5t-77.5 264.5h-146l25 86h115q-2 16 -2 30.5v31.5v43t2 43h-140l25 86 h125z" />
<glyph unicode="&#x2122;" horiz-adv-x="1648" d="M442 899q0 -35 3.5 -54.5t9.5 -28.5t17 -11t28 -2h15t26 4v-47q-59 4 -93 5t-77 1t-77 -1t-93 -5v47q23 -4 32 -4h17q29 0 39 15.5t10 80.5v408q0 63 -14.5 76.5t-48.5 13.5q-29 0 -46.5 -10.5t-26.5 -30t-14.5 -47t-7.5 -60.5l-57 4q10 51 13 93.5t3 93.5q18 -2 54 -3 t76 -2t78 -1h63h63.5t78.5 1t76 2t54 3q0 -51 2 -93t12 -94l-55 -4q-6 68 -21.5 108t-74.5 40q-35 0 -49.5 -13.5t-14.5 -76.5v-408zM1104 973l139 373q10 31 16.5 49t16.5 47q31 -6 65.5 -7t55.5 -1q53 0 131 6v-47q-18 4 -29.5 4h-17.5q-29 0 -39 -14.5t-10 -55.5v-428 q0 -66 11 -81t40 -15h17t32 4v-47q-61 4 -94 5t-76 1h-41t-36.5 -1t-40 -2t-52.5 -3v47q16 -4 24.5 -4h14.5q16 0 28.5 2t19.5 11t11 28.5t4 54.5v408h-8l-196 -523h-66l-190 521h-9v-422q0 -47 13.5 -63.5t42.5 -16.5h18t29 4v-47q-63 4 -88 5t-47 1q-20 0 -43 -1t-84 -5 v47q23 -4 32 -4h17q27 0 38 17.5t11 62.5v444q0 41 -10.5 55.5t-38.5 14.5h-16.5t-32.5 -4v47q76 -6 131 -6q23 0 61.5 1t69.5 7q4 -18 11 -43t17 -47l93 -246q2 -6 9 -24.5t14 -40t14.5 -41t9.5 -27.5h8z" />
<glyph unicode="&#x25fc;" horiz-adv-x="952" d="M0 952h952v-952h-952v952z" />
<glyph unicode="&#x2715;" d="M219 1085l295 -301l293 299l63 -65l-290 -293l299 -301l-70 -66l-301 299l-297 -297l-64 62l297 297l-297 299z" />
<glyph horiz-adv-x="776" d="M125 768h526v-102h-526v102z" />
<glyph horiz-adv-x="1130" d="M1012 760v-88h-893v88h893z" />
<glyph horiz-adv-x="1642" d="M1524 760v-88h-1405v88h1405z" />
<glyph horiz-adv-x="776" d="M125 768h526v-102h-526v102z" />
<glyph horiz-adv-x="974" d="M520 338l-51 -39l-311 315q-33 35 -46.5 56.5t-13.5 48.5q0 33 13.5 53.5t50.5 56.5l307 310l51 -39l-209 -381zM852 338l-51 -39l-312 315q-33 35 -46 56.5t-13 48.5q0 33 13.5 53.5t50.5 56.5l307 310l51 -39l-209 -381z" />
<glyph horiz-adv-x="974" d="M664 719l-209 381l51 39l307 -310q35 -37 49.5 -58t14.5 -52q0 -27 -13.5 -49.5t-46.5 -55.5l-311 -315l-51 39zM332 719l-209 381l51 39l307 -310q35 -37 49.5 -58t14.5 -52q0 -27 -13.5 -49.5t-46.5 -55.5l-311 -315l-51 39z" />
<glyph horiz-adv-x="643" d="M520 338l-51 -39l-311 315q-33 35 -46.5 56.5t-13.5 48.5q0 33 13.5 53.5t50.5 56.5l307 310l51 -39l-209 -381z" />
<glyph horiz-adv-x="643" d="M332 719l-209 381l51 39l307 -310q35 -37 49.5 -58t14.5 -52q0 -27 -13.5 -49.5t-46.5 -55.5l-311 -315l-51 39z" />
<glyph horiz-adv-x="641" d="M342 702q0 -334 64.5 -562t181.5 -376l-78 -51q-205 252 -318.5 489.5t-113.5 499.5q0 131 29.5 253t85 242t135.5 238.5t182 245.5l78 -51q-117 -145 -181.5 -370.5t-64.5 -557.5z" />
<glyph horiz-adv-x="641" d="M299 702q0 332 -64.5 557.5t-181.5 370.5l78 51q102 -127 182 -245.5t135.5 -238.5t85 -241.5t29.5 -253.5q0 -262 -113.5 -499.5t-318.5 -489.5l-78 51q117 147 181.5 375.5t64.5 562.5z" />
<glyph horiz-adv-x="667" d="M621 -117v-78h-431v1819h431v-78h-201v-1663h201z" />
<glyph horiz-adv-x="669" d="M250 -115v1663h-201v78h430v-1819h-430v78h201z" />
<glyph horiz-adv-x="653" d="M422 936q-6 -86 -38 -139.5t-112 -75.5v-8q84 -20 117 -73.5t33 -141.5v-437q0 -31 5 -62.5t22.5 -59t51.5 -49t91 -29.5v-58q-39 0 -105.5 10.5t-130 40t-110.5 84t-47 144.5v467q0 72 -32 103.5t-110 41.5q-12 12 -12 25q0 8 8 20q49 4 78 15.5t44 34t19.5 57.5t4.5 84 v413q0 90 46 144.5t109.5 84.5t130 40t105.5 10v-57q-57 -10 -90 -31t-50.5 -48.5t-22.5 -59t-5 -62.5v-428v0z" />
<glyph horiz-adv-x="651" d="M231 1366q0 31 -5 62.5t-22.5 59.5t-50 48t-90.5 31v57q39 0 106 -10t130 -40t109.5 -84t46.5 -144v-414q0 -49 4 -84t19.5 -57.5t44 -34t77.5 -15.5q6 -10 6 -20q0 -14 -10 -25q-59 -4 -100 -33.5t-41 -111.5v-467q0 -90 -47.5 -144.5t-111 -84t-130 -40t-105.5 -10.5 v58q57 8 91 29.5t51.5 49t22.5 59.5t5 62v437q0 176 150 217v8q-84 23 -113.5 75t-36.5 138v428z" />
<glyph horiz-adv-x="503" d="M313 -307h-123v2048h123v-2048z" />
<glyph horiz-adv-x="499" d="M311 -172h-123v752h123v-752zM311 858h-123v752h123v-752z" />
<glyph d="M563 1190v-424h416v-90h-416v-422h-98v422h-418v90h418v424h98z" />
<glyph d="M977 918v-91h-930v91h930zM977 602v-90h-930v90h930z" />
<glyph horiz-adv-x="1816" d="M1286 279q-104 0 -161.5 31.5t-75.5 129.5h-11q-14 -23 -35.5 -51.5t-51 -53t-68.5 -40.5t-84 -16q-35 0 -85 11t-98.5 50t-82 110.5t-33.5 192.5q0 92 31.5 179t87 156t133 109.5t170.5 40.5q51 0 85.5 -9t59.5 -20.5t42 -20.5t34 -9q14 0 47 8t53 45l78 -30l-16 -58 q-12 -63 -30 -142t-32 -158t-24.5 -146.5t-10.5 -110.5q0 -25 3 -47t14.5 -39.5t31 -29t52.5 -11.5q61 0 107 47t78 124t47 174.5t15 197.5q0 150 -40.5 253t-112.5 168.5t-169 95.5t-208 30q-141 0 -275.5 -46t-238.5 -140.5t-167.5 -238t-63.5 -339.5q0 -178 45 -309 t127 -216t195.5 -126t248.5 -41q57 0 103.5 7t117.5 25l12 -73q-41 -8 -72.5 -14.5t-61 -10.5t-59.5 -6t-65 -2q-184 0 -329.5 58.5t-246.5 159.5t-154.5 237.5t-53.5 289.5q0 162 58.5 316.5t174 275.5t288.5 193.5t403 72.5q197 0 337 -54t229 -143t131 -204t42 -235 q0 -131 -37 -241t-100.5 -189.5t-148.5 -123.5t-179 -44zM707 586q0 -29 4 -69t14 -77t32.5 -62.5t59.5 -25.5q55 0 100.5 54.5t77 134.5t49 174t17.5 174q0 82 -20.5 129t-77.5 47q-49 0 -95.5 -39t-82 -104.5t-57 -152.5t-21.5 -183z" />
<glyph d="M565 1210v-360h353v-90h-353v-363h-102v363h-354v90h354v360h102zM109 229v90h809v-90h-809z" />
<glyph d="M840 813h-791v90h889v-479h-98v389z" />
<glyph d="M401 430q0 47 32 78t79 31t78 -31t31 -78t-31 -79t-78 -32t-79 32t-32 79zM401 1006q0 47 32 77.5t79 30.5t78 -30.5t31 -77.5t-31 -79t-78 -32t-79 32t-32 79zM977 764v-90h-930v90h930z" />
<glyph horiz-adv-x="1251" d="M96 717q0 373 140.5 563t390.5 190q248 0 388 -190t140 -563t-140.5 -563.5t-387.5 -190.5q-250 0 -390.5 190.5t-140.5 563.5zM391 717q0 -164 10.5 -290t37 -211t72.5 -129t116 -44t114.5 44t71.5 129t37 211t10 290t-10 290t-37 211t-72 129t-114 44q-70 0 -116 -44 t-72.5 -129t-37 -211t-10.5 -290z" />
<glyph horiz-adv-x="935" d="M694 281q2 -123 31 -169t106 -46q25 0 46.5 2t50.5 6v-80q-66 4 -114 7t-88 4t-79 1h-84h-89t-87 -1t-96 -4t-117 -7v80q49 -6 94 -6q88 0 124 46t36 167v784q0 82 -18.5 111.5t-53.5 29.5q-25 0 -67.5 -14t-88.5 -34.5t-86 -40t-59 -32.5l-32 95q119 45 201.5 80.5 t146 69.5t117 68t112.5 75l107 -35q-2 -25 -4.5 -73t-4.5 -101.5t-3 -104.5t-1 -84v-794v0z" />
<glyph horiz-adv-x="1157" d="M743 1118q0 119 -51 198t-164 79q-63 0 -107 -29t-44 -82q0 -41 15.5 -74.5t15.5 -74.5q0 -66 -45.5 -108t-116.5 -42q-70 0 -116 47t-46 119q0 61 33 118.5t94 102.5t148 71.5t196 26.5q119 0 209 -30.5t150.5 -81.5t91 -117.5t30.5 -136.5q0 -88 -35.5 -159t-91 -128 t-124 -102t-132.5 -82q-78 -43 -143.5 -86t-114.5 -92t-80.5 -109.5t-40.5 -138.5q12 4 44 7t68 5t68.5 3t45.5 1h266q68 0 106.5 23.5t59 59.5t27 76t6.5 71l110 -9q-23 -111 -34 -224.5t-21 -227.5q-125 10 -206 12t-152 2h-242q-66 0 -152 -3t-178 -13q0 10 -1 20t-1 21 q0 150 48 252t122 179t158 139.5t157.5 134t121.5 161.5t48 221z" />
<glyph horiz-adv-x="1159" d="M426 1145q0 -68 -49 -108t-107 -40q-76 0 -121 45t-45 115q0 61 32 117.5t92.5 100.5t147.5 69.5t195 25.5q127 0 215 -32.5t143.5 -83.5t80 -114.5t24.5 -125.5q0 -109 -35.5 -178.5t-85 -109.5t-100.5 -56t-84 -18v-11q37 -2 94.5 -21.5t110.5 -62.5t92 -112.5 t39 -173.5q0 -121 -50 -200t-127 -125t-166 -64.5t-169 -18.5q-113 0 -202 25.5t-150.5 69.5t-94 102.5t-32.5 126.5q0 23 7 51.5t25.5 53t51 42t86.5 17.5q78 0 113.5 -44.5t35.5 -97.5q0 -37 -12 -73.5t-12 -75.5t16 -62.5t41 -36t53.5 -15.5t52.5 -3q104 0 168 85t64 251 q0 94 -28.5 156.5t-74 99.5t-100.5 51t-110 14h-24.5t-25.5 -2v90q10 -2 22.5 -2h22.5q57 0 110.5 13.5t95.5 50.5t67.5 100.5t25.5 163.5q0 49 -12 99.5t-36.5 90t-62.5 65.5t-91 26q-66 0 -108 -28t-42 -79q0 -37 16.5 -69.5t16.5 -73.5z" />
<glyph horiz-adv-x="1181" d="M150 528q16 2 51 3t73.5 2.5t73.5 1.5h51h215v311q0 51 1 113.5t12 154.5l-9 2zM614 397h-399q-41 0 -78 -1t-94 -5l-29 152q330 389 511.5 624.5t213.5 300.5l156 -49q-6 -61 -8 -106t-4 -85t-2 -84v-102v-507h69q39 0 84 1t92 5v-150q-47 4 -92 5t-84 1h-69v-116 q0 -123 25.5 -169t97.5 -46q23 0 46 2t48 6v-80q-66 4 -111 7t-83 4t-73.5 1h-80.5h-89.5t-87.5 -1t-96 -4t-117 -7v80q49 -6 95 -6q88 0 123.5 46t35.5 167v116z" />
<glyph horiz-adv-x="1148" d="M936 1038q-4 57 -13.5 92t-31 53.5t-61 24.5t-105.5 6h-301q-37 0 -61.5 -2t-41 -14t-25.5 -38.5t-13 -76.5q-6 -68 -9.5 -114.5t-6.5 -82.5t-5 -62.5t-2 -51.5q45 47 120 82t191 35q100 0 189.5 -30t154 -87t102.5 -138t38 -183q0 -139 -53.5 -232.5t-131 -151t-169 -81 t-166.5 -23.5q-109 0 -194 23.5t-143.5 66.5t-90 101.5t-31.5 130.5q0 61 41 112.5t127 51.5q41 0 69.5 -13.5t47 -35t26.5 -48t8 -53.5q0 -37 -14 -69.5t-14 -71.5q0 -61 41 -88t106 -27q49 0 93 22.5t77 71.5t52.5 126t19.5 186q0 160 -55.5 254t-165.5 94q-98 0 -157 -40 t-106 -122l-141 20q29 188 43 379t14 406q53 -4 132 -8.5t151 -4.5h268q49 0 109.5 1.5t146.5 11.5q2 -59 4 -107.5t7.5 -93.5t11.5 -91t16 -99z" />
<glyph horiz-adv-x="1206" d="M662 1391q-80 0 -134.5 -48.5t-86 -137.5t-46 -216t-14.5 -287q37 84 120 135.5t181 51.5q92 0 171 -29t137.5 -87t92 -144t33.5 -201q0 -109 -39 -195t-105.5 -146t-156.5 -92t-190 -32q-141 0 -242.5 56.5t-165 151.5t-93.5 222t-30 269q0 182 26.5 313t72 221 t102.5 143.5t118.5 83t122 38.5t109.5 9q131 0 214 -31.5t130 -76.5t63.5 -94t16.5 -84q0 -25 -6 -54.5t-23.5 -55t-47 -42t-79.5 -16.5q-72 0 -112.5 45t-40.5 106q0 23 9 50.5t9 70.5q1 103 -116 103zM823 401q0 170 -50 272.5t-155 102.5q-100 0 -152 -104.5t-52 -274.5 q0 -78 12 -142.5t37.5 -111.5t64.5 -73.5t90 -26.5q49 0 87 27.5t65 75t40 112.5t13 143z" />
<glyph horiz-adv-x="1011" d="M799 1217l-8 6q-47 -6 -87 -7.5t-96 -1.5h-254q-66 0 -104.5 -12t-61 -39.5t-30.5 -69.5t-13 -100l-106 11q10 51 17 110.5t12.5 117.5t8.5 111.5t3 96.5q86 -10 143.5 -11.5t106.5 -1.5h243q37 0 93.5 1.5t116 3.5t110.5 4t78 4l41 -70q-152 -256 -258.5 -455.5 t-151.5 -377.5q-10 -39 -14 -67t-4 -56q0 -33 7 -64t16 -62.5t16.5 -64.5t7.5 -67q0 -53 -14.5 -90t-38 -60.5t-52 -34t-57.5 -10.5q-182 0 -182 164q0 111 67.5 269.5t190.5 381.5z" />
<glyph horiz-adv-x="1191" d="M401 719q-74 35 -125 71.5t-83.5 79.5t-48 97.5t-15.5 124.5q0 66 28.5 133t88 121.5t150.5 89t216 34.5q213 0 328 -93t115 -242q0 -66 -22.5 -121.5t-62.5 -99.5t-92.5 -77.5t-111.5 -54.5q61 -25 121.5 -60.5t108.5 -85.5t79 -116.5t31 -148.5q0 -84 -35 -159 t-102.5 -130t-163.5 -87t-219 -32q-109 0 -200 26.5t-156.5 76t-102.5 120t-37 158.5q0 78 24.5 138.5t67.5 105.5t99.5 76.5t119.5 54.5zM387 1141q0 -61 26.5 -106.5t66.5 -79t89 -62.5t95 -55q31 16 61.5 36.5t57 53.5t43 83t16.5 124q0 49 -14.5 97t-42 86t-71.5 61.5 t-102 23.5q-63 0 -106 -24.5t-69.5 -62.5t-38 -85t-11.5 -90zM836 313q0 82 -38 138.5t-91.5 95.5t-114 65.5t-103.5 49.5q-31 -14 -61.5 -42t-55 -69t-40 -95.5t-15.5 -119.5q0 -59 16.5 -114.5t48.5 -97.5t81 -67.5t115 -25.5q70 0 118.5 25.5t79.5 65.5t45.5 91t14.5 100 z" />
<glyph horiz-adv-x="1212" d="M545 41q80 0 134 50t88 142.5t48 221.5t14 286q-33 -80 -112.5 -126t-177.5 -46q-92 0 -173 26t-140.5 79t-94.5 135t-35 197q0 109 38 194.5t103.5 146t153.5 92t191 31.5q137 0 238.5 -56t168 -150.5t98 -219t31.5 -262.5q0 -182 -27.5 -314t-72.5 -223t-103.5 -146.5 t-121 -86t-123 -41t-109.5 -10.5q-133 0 -218 29.5t-136 74t-70.5 95.5t-19.5 94q0 88 46 136t118 48q59 0 107 -35.5t48 -107.5q0 -41 -12 -74t-12 -63q0 -51 36 -84t97 -33zM389 1036q0 -162 50 -257t149 -95q100 0 155.5 91t55.5 261q0 76 -13.5 141.5t-40 113.5 t-66.5 75t-91 27q-49 0 -86 -27t-62.5 -75t-38 -113.5t-12.5 -141.5z" />
</font>
</defs>
</svg>
