<?xml version="1.0" standalone="no"?>
<!DOCTYPE svg PUBLIC "-//W3C//DTD SVG 1.1//EN" "http://www.w3.org/Graphics/SVG/1.1/DTD/svg11.dtd" >
<svg xmlns="http://www.w3.org/2000/svg">
<metadata></metadata>
<defs>
<font id="media77medium_italic" horiz-adv-x="1024" >
<font-face units-per-em="2048" ascent="1536" descent="-512" />
<missing-glyph horiz-adv-x="479" />
<glyph unicode="&#xfb00;" horiz-adv-x="1261" d="M922 0h-240q16 66 28.5 132.5t24.5 131.5l107 604h-340l-152 -868h-239q33 131 55 264l102 604h-180l12 74h181l28 148q10 53 35 114.5t75 114.5t132 88t207 35q70 0 131 -16.5t96 -53.5q41 45 102.5 71.5t155.5 26.5q115 0 179.5 -51t64.5 -119q0 -51 -32 -91t-85 -40 q-47 0 -70.5 17.5t-34 42t-12.5 55.5t-6 55.5t-14 42t-39 17.5q-43 0 -68.5 -40t-25.5 -106q0 -35 3 -66.5t3 -74.5v-19.5t-2 -27.5t-7 -47t-14 -76h236l-12 -74h-236zM516 942h338l23 117q8 37 17 84t9 90q0 53 -25.5 92t-99.5 39q-59 0 -100 -25.5t-68.5 -66.5t-45 -93.5 t-25.5 -105.5z" />
<glyph unicode="&#xfb01;" horiz-adv-x="1204" d="M104 942h177l22 123q16 88 50 163t93.5 129t146.5 85t210 31q94 0 155.5 -17.5t98.5 -45.5t52 -63.5t15 -72.5q0 -82 -46 -128t-111 -46q-72 0 -96.5 35.5t-24.5 78.5q0 29 12 59t12 56q0 31 -21.5 53.5t-68.5 22.5q-68 0 -110.5 -36t-69.5 -89t-41 -117.5t-24 -122.5 l-19 -98h275q72 0 146.5 2t149.5 19q-33 -178 -54 -307.5t-35.5 -218.5t-22.5 -144t-11 -88t-4.5 -47.5t-1.5 -20.5q0 -47 28 -59t69 -12q18 0 38.5 1t39.5 3l-15 -74q-18 2 -43.5 4t-52.5 3t-50.5 1h-41.5q-35 0 -64.5 -1t-57.5 -3t-56.5 -5t-65.5 -7q10 45 22.5 111.5 t26 136t24.5 132t17 101.5l37 215q4 25 7 55.5t3 46.5q0 31 -16 47.5t-43 24.5t-58.5 9t-64.5 1h-137l-152 -868h-237l155 868h-180z" />
<glyph unicode="&#xfb02;" horiz-adv-x="1204" d="M903 1145q6 35 12.5 67.5t6.5 61.5q0 47 -29 74.5t-115 27.5q-70 0 -111.5 -21.5t-66.5 -61.5t-37 -97t-24 -127l-23 -127h246l-14 -74h-246l-152 -868h-239q12 66 26.5 132.5t26.5 131.5l104 604h-180l14 74h179l34 176q10 51 25.5 109.5t52.5 107.5t101.5 82t173.5 33 q86 0 166.5 -8t162.5 -8q53 0 98.5 2t90.5 14l-207 -1186q-6 -37 -10 -64.5t-4 -47.5q0 -47 22.5 -64.5t89.5 -17.5h28.5t31.5 2l-15 -72q-41 4 -78.5 6t-76.5 2q-70 0 -136.5 -5t-138.5 -15q18 92 31.5 160.5t21.5 115.5z" />
<glyph unicode="&#xfb03;" horiz-adv-x="1775" d="M350 0h-239q10 66 25.5 132.5t27.5 131.5l104 604h-180l12 74h181l30 154q39 193 149.5 275.5t319.5 82.5q96 0 157.5 -23.5t100.5 -58.5q59 47 140.5 74t195.5 27q94 0 155.5 -17.5t98.5 -45.5t52.5 -63.5t15.5 -72.5q0 -82 -46 -128t-112 -46q-72 0 -96.5 35.5 t-24.5 78.5q0 29 12.5 59t12.5 56q0 31 -21.5 53.5t-68.5 22.5q-63 0 -105.5 -32t-70 -81t-42 -108.5t-22.5 -114.5l-25 -127h275q72 0 146.5 2t150.5 19q-33 -178 -54.5 -307.5t-36 -218.5t-22.5 -144t-11 -88t-4 -47.5t-1 -20.5q0 -47 27.5 -59t68.5 -12q18 0 39 1t39 3 l-14 -74q-18 2 -44 4t-52.5 3t-50 1h-42.5q-35 0 -64.5 -1t-57 -3t-56.5 -5t-66 -7q10 45 22.5 111.5t26 136t24.5 132t18 101.5l36 215q4 25 7.5 55.5t3.5 46.5q0 31 -15.5 47.5t-38 23.5t-51 9t-53.5 2h-162l-151 -868h-238l156 868h-340zM516 942h336l20 111 q14 80 19.5 117.5t5.5 66.5q0 57 -25.5 99t-101.5 42q-59 0 -99 -26.5t-65.5 -69.5t-41 -96t-23.5 -107z" />
<glyph unicode="&#xfb04;" horiz-adv-x="1761" d="M1460 1145q6 35 12.5 67.5t6.5 61.5q0 47 -29 74.5t-115 27.5q-70 0 -111.5 -21.5t-66 -61.5t-37 -97t-24.5 -127l-23 -127h246l-14 -74h-246l-152 -868h-239q14 72 28.5 136.5t24.5 127.5l104 604h-323l-152 -868h-239q12 66 26.5 132.5t26.5 131.5l104 604h-180l12 74 h181l30 154q10 51 29.5 112.5t62.5 114.5t117 88t191 35q27 0 63.5 -2t75.5 -10.5t73.5 -22.5t59.5 -39q39 35 97.5 56.5t144.5 21.5q66 0 127 -9t127 -9q57 0 126.5 5t137.5 17l-207 -1190q-6 -37 -10 -64.5t-4 -47.5q0 -47 22.5 -64.5t89.5 -17.5h28.5t31.5 2l-15 -72 q-41 4 -78.5 6t-76.5 2q-70 0 -136.5 -5t-138.5 -15q18 92 31.5 160.5t22.5 115.5zM516 942h322l45 238q2 16 3 30.5t1 30.5q0 57 -24.5 97t-96.5 40q-59 0 -97 -22.5t-62.5 -62.5t-39 -94t-26.5 -120z" />
<glyph unicode="fb" horiz-adv-x="1724" d="M891 1085q12 80 19.5 120t7.5 69q0 47 -27 72.5t-113 25.5q-70 0 -111.5 -20.5t-66.5 -60.5t-37 -96t-24 -126l-23 -127h246l-14 -74h-246l-152 -868h-239q12 66 26.5 132.5t26.5 131.5l104 604h-180l14 74h179l34 176q10 51 25.5 109.5t52.5 106.5t101.5 80t173.5 32 q66 0 127 -7t127 -7q57 0 125.5 5t136.5 17l-60 -369q-10 -53 -22 -122.5t-39 -159.5l12 -2q49 74 117 120t166 46q131 0 213 -89.5t82 -265.5q0 -150 -42 -267.5t-114 -199.5t-165 -126t-193 -44q-39 0 -71 11.5t-60.5 25t-54 24.5t-50.5 11q-51 0 -81.5 -17.5t-47.5 -49.5 l-76 34q16 66 26.5 124.5t23.5 121.5l1 5t5 27.5t12 73t24.5 142.5t41 232t59.5 345zM1411 680q0 96 -22.5 150.5t-88.5 54.5q-61 0 -117.5 -54.5t-100.5 -143.5t-69.5 -201.5t-25.5 -229.5q0 -104 30 -156.5t105 -52.5q63 0 115.5 65.5t90.5 163t59.5 207t23.5 197.5z" />
<glyph unicode="ffb" horiz-adv-x="2281" d="M1460 1145q6 35 12.5 67.5t6.5 61.5q0 47 -29 74.5t-115 27.5q-70 0 -111.5 -21.5t-66 -61.5t-37 -97t-24.5 -127l-23 -127h246l-14 -74h-246l-152 -868h-239q10 68 26.5 137.5t26.5 126.5l104 604h-323l-152 -868h-239q12 66 26.5 132.5t26.5 131.5l104 604h-180l12 74 h181l30 154q10 51 29.5 112.5t62.5 114.5t117 88t191 35q27 0 63.5 -2t75.5 -10.5t73.5 -22.5t59.5 -39q39 35 97.5 56.5t144.5 21.5q66 0 127 -9t127 -9q57 0 126.5 5t137.5 17l-88 -512q-8 -33 -16.5 -68.5t-18.5 -70.5l12 -2q49 74 117 120t166 46q131 0 213 -89.5 t82 -265.5q0 -150 -42 -267.5t-114 -199.5t-165 -126t-193 -44q-39 0 -73 11.5t-63.5 25t-56 24.5t-51.5 11q-51 0 -82 -17.5t-47 -49.5l-76 34q20 66 33.5 127.5t26.5 126.5zM1968 680q0 27 -2 62.5t-12 67.5t-33 53.5t-63 21.5q-61 0 -118 -54.5t-101 -143.5t-69.5 -201.5 t-25.5 -229.5q0 -104 30 -156.5t105 -52.5q63 0 115.5 65.5t90.5 163t59.5 207t23.5 197.5zM516 942h322l45 238q2 16 3 30.5t1 30.5q0 57 -24.5 97t-96.5 40q-59 0 -97 -22.5t-62.5 -62.5t-39 -94t-26.5 -120z" />
<glyph unicode="ffh" horiz-adv-x="2299" d="M1460 1145q6 35 12.5 67.5t6.5 61.5q0 47 -29 74.5t-115 27.5q-70 0 -111.5 -21.5t-66 -61.5t-37 -97t-24.5 -127l-23 -127h246l-14 -74h-246l-152 -868h-239q10 68 26.5 137.5t26.5 126.5l104 604h-323l-152 -868h-239q12 66 26.5 132.5t26.5 131.5l104 604h-180l12 74 h181l30 154q10 51 29.5 112.5t62.5 114.5t117 88t191 35q27 0 63.5 -2t75.5 -10.5t73.5 -22.5t59.5 -39q39 35 97.5 56.5t144.5 21.5q66 0 127 -9t127 -9q57 0 126.5 5t137.5 17l-88 -506q-2 -14 -4 -23.5t-4 -21.5t-6.5 -29.5t-10.5 -50.5l8 -4q12 23 38 49.5t63 50t84 39 t102 15.5q70 0 115 -18.5t70.5 -51.5t36 -75t10.5 -87q0 -41 -6.5 -84t-12.5 -84l-51 -309q-8 -43 -14.5 -74.5t-6.5 -54.5q0 -41 22.5 -55t88.5 -14q10 0 23.5 1t29.5 3l-14 -74q-35 4 -82 5t-82 1q-68 0 -125 -4t-129 -10q16 66 28.5 138.5t22.5 137.5l52 309 q12 72 23 135.5t11 104.5q0 76 -73 76q-25 0 -64 -15.5t-81 -59.5t-81 -124t-61 -207l-84 -483h-244q12 45 25.5 110.5t27 133t24.5 128t17 95.5zM516 942h322l45 238q2 16 3 30.5t1 30.5q0 57 -24.5 97t-96.5 40q-59 0 -97 -22.5t-62.5 -62.5t-39 -94t-26.5 -120z" />
<glyph unicode="fh" horiz-adv-x="1738" d="M1186 1454q-31 -168 -48.5 -271.5t-29.5 -168t-20.5 -103.5t-18.5 -77l8 -5q12 23 38 48.5t62.5 47t84 35t102.5 13.5q70 0 115 -18.5t70.5 -51.5t35.5 -75t10 -87q0 -41 -6 -84t-12 -84l-51 -309q-8 -43 -14.5 -74.5t-6.5 -54.5q0 -41 22.5 -55t88.5 -14q10 0 23.5 1 t29.5 3l-14 -74q-35 4 -82 5t-82 1q-68 0 -125 -4t-129 -10q16 66 27.5 138.5t23.5 137.5l55 309q12 72 21.5 135.5t9.5 104.5q0 76 -74 76q-25 0 -61.5 -9.5t-77.5 -49t-80 -120.5t-65 -227l-86 -483h-244q12 45 25.5 110.5t28 133t25.5 128t17 95.5l121 678 q6 35 12.5 67.5t6.5 61.5q0 47 -29 74.5t-115 27.5q-70 0 -111.5 -21.5t-66.5 -61.5t-37 -97t-24 -127l-23 -127h246l-14 -74h-246l-152 -868h-239q10 66 25.5 132.5t27.5 131.5l104 604h-180l14 74h179l28 158q10 51 26.5 112.5t54.5 114.5t105.5 88t182.5 35q66 0 127 -8 t127 -8q57 0 121.5 4t132.5 16z" />
<glyph unicode="fj" horiz-adv-x="1169" d="M952 137q-31 -170 -47 -283.5t-57 -183.5q-37 -59 -104.5 -96t-172.5 -37q-59 0 -114.5 17.5t-83.5 39.5l39 72q33 -23 67.5 -33t61.5 -10q43 0 67.5 30t37.5 73t19.5 91t12.5 87l141 794q10 57 10 88q0 20 -7 37t-27.5 26t-57.5 14t-96 5h-137l-152 -868h-237l155 868 h-180l14 74h177l22 123q16 88 50 163t93.5 129t146.5 85t210 31q94 0 155.5 -17.5t98.5 -45.5t52 -63.5t15 -72.5q0 -82 -46 -128t-111 -46q-72 0 -96.5 35.5t-24.5 78.5q0 29 12 59t12 56q0 31 -21.5 53.5t-68.5 22.5q-68 0 -109.5 -35t-67 -88t-40 -117.5t-26.5 -124.5 l-21 -98h285q78 0 146.5 2t150.5 19z" />
<glyph unicode="fk" horiz-adv-x="1687" d="M903 1145q6 35 12.5 67.5t6.5 61.5q0 47 -29 70.5t-115 23.5q-70 0 -111.5 -20.5t-66.5 -58.5t-37 -94t-24 -126l-23 -127h246l-14 -74h-246l-152 -868h-239q12 66 26.5 132.5t26.5 131.5l104 604h-180l14 74h179l34 172q10 51 26.5 109.5t52.5 106.5t100.5 80t173.5 32 q66 0 127 -5t127 -5q57 0 126.5 5t137.5 17l-152 -872h27q31 0 64.5 14t66.5 35.5t64.5 47.5t62.5 46q49 35 77.5 60.5t28.5 54.5q0 33 -73 32q-27 0 -70 -6l12 76q27 -4 50.5 -4h46.5h67q66 0 123 6t119 19q0 -29 -23.5 -59t-69.5 -66.5t-113 -81.5t-153 -107l-104 -74 q55 0 78.5 -41.5t44.5 -97.5l104 -280q18 -49 51 -71t87 -22h20t20 3l-10 -72q-31 4 -62.5 7t-72.5 3q-57 0 -122.5 -6t-112.5 -16q-6 27 -14.5 57.5t-25 78.5t-43 119.5t-67.5 180.5q-12 33 -20.5 52t-17.5 29.5t-20.5 14.5t-29.5 4l-90 -518h-244q10 45 23.5 112.5l27 135 t23.5 127t16 90.5z" />
<glyph unicode="ft" horiz-adv-x="1302" d="M502 868l-152 -868h-239q10 66 25.5 132.5t27.5 131.5l104 604h-180l14 74h179l28 143q12 63 38 129t78 120.5t136 89t211 34.5q106 0 213 -21.5t186 -58.5l-75 -436h254l-13 -74h-254l-100 -587q-4 -16 -9 -51t-5 -72t10 -66t39 -29q33 0 77 32t91 126l61 -41 q-49 -102 -136 -160.5t-179 -58.5q-96 0 -145.5 46t-49.5 147q0 20 2 42.5t6 47.5l109 624h-352zM866 942l37 203q6 35 12.5 66.5t6.5 60.5q0 49 -29 77.5t-115 28.5q-70 0 -111.5 -21.5t-66.5 -62.5t-37 -98t-24 -127l-23 -127h350z" />
<glyph unicode="tt" horiz-adv-x="1286" d="M485 866l-100 -585q-6 -31 -10 -64t-4 -61q0 -39 10 -66t39 -27q33 0 77 32t91 126l61 -41q-49 -102 -136 -160.5t-179 -58.5q-96 0 -145.5 46t-49.5 147q0 20 2 42.5t6 47.5l109 622h-170l14 76h29q166 0 243 82t99 236h82l-55 -318h213q166 0 242.5 82t99.5 236h82 l-56 -318h254l-12 -76h-254l-100 -585q-6 -31 -10.5 -64t-4.5 -61q0 -39 10.5 -66t38.5 -27q33 0 77 32t91 126l62 -41q-49 -102 -136 -160.5t-180 -58.5q-96 0 -145 46t-49 147q0 20 2 42.5t6 47.5l109 622h-353z" />
<glyph horiz-adv-x="0" />
<glyph unicode="&#xd;" />
<glyph horiz-adv-x="0" />
<glyph horiz-adv-x="0" />
<glyph unicode=" "  horiz-adv-x="479" />
<glyph unicode="&#x09;" horiz-adv-x="479" />
<glyph unicode="&#xa0;" horiz-adv-x="479" />
<glyph unicode="!" horiz-adv-x="544" d="M446 1470q66 0 96.5 -39.5t30.5 -105.5q0 -78 -37.5 -174t-83.5 -210t-87 -243t-48 -270h-100q23 94 36 180t13 174q0 123 -11 219.5t-11 174.5q0 61 12 115.5t36.5 94t62.5 62t91 22.5zM188 -27q-61 0 -99 42t-38 104q0 39 15.5 72.5t40 59t57.5 40t69 14.5 q61 0 99.5 -42t38.5 -103q0 -39 -15.5 -73t-40 -59.5t-57.5 -40t-70 -14.5z" />
<glyph unicode="&#x22;" horiz-adv-x="679" d="M385 1470q41 0 58.5 -21.5t17.5 -59.5q0 -37 -13.5 -85.5t-34 -102.5t-45 -111.5t-46.5 -112.5h-68q2 82 3 169t11.5 159.5t37 118.5t79.5 46zM647 1470q41 0 57.5 -21.5t16.5 -57.5q0 -37 -13.5 -86.5t-34 -103.5t-45 -111.5t-46.5 -112.5h-68q2 82 3 169t11.5 159.5 t38 118.5t80.5 46z" />
<glyph unicode="#" horiz-adv-x="1148" d="M313 1079h211l150 391h121l-150 -391h236l149 391h119l-150 -391h191l-62 -184h-198l-117 -307h184l-59 -185h-195l-165 -440h-121l168 440h-236l-168 -440h-119l166 440h-209l62 185h217l117 307h-205zM459 588h235l117 307h-236z" />
<glyph unicode="$" horiz-adv-x="1058" d="M741 1432q92 -6 154.5 -32t102.5 -63t57.5 -80t17.5 -79q0 -33 -8 -64t-26.5 -55.5t-49.5 -39.5t-76 -15q-66 0 -89 33.5t-23 72.5q0 37 6 58.5t12 37t12.5 30.5t6.5 42q0 33 -35 54.5t-76 25.5l-92 -524q72 -41 132 -80t103 -85t68 -103.5t25 -131.5q0 -117 -34 -196.5 t-96.5 -130t-150.5 -75t-195 -32.5l-43 -246h-79l43 246q-102 6 -172 33.5t-112 67.5t-59.5 86t-17.5 92q0 25 6 57.5t22.5 62t45.5 49t76 19.5q66 0 97.5 -39t31.5 -92q0 -35 -6.5 -55.5t-14.5 -37t-14 -35t-6 -48.5q0 -41 36.5 -64.5t98.5 -27.5l96 540q-70 41 -126 81 t-95 86t-60.5 101.5t-21.5 127.5q0 90 25.5 165.5t80 133t139.5 91t204 38.5l34 198h80zM588 565l-88 -497q125 10 178 81.5t53 180.5q0 74 -36 131t-105 104h-2zM432 1096q0 -59 30 -120t101 -102l84 482q-111 -16 -163 -88t-52 -172z" />
<glyph unicode="%" horiz-adv-x="1634" d="M1272 1548l96 -53l-997 -1720l-92 57zM582 1473q129 0 205.5 -81t76.5 -237q0 -113 -32.5 -200t-90 -145t-132 -88t-158.5 -30q-129 0 -206 81t-77 237q0 113 32.5 199.5t89 145t132.5 88.5t160 30zM573 1413q-49 0 -90 -44t-70.5 -110.5t-45 -146.5t-15.5 -154 q0 -88 20.5 -148t88.5 -60q49 0 90 44t69.5 111.5t44 147.5t15.5 153q0 88 -20.5 147.5t-86.5 59.5zM1272 743q129 0 204.5 -80.5t75.5 -236.5q0 -113 -32.5 -200t-89 -145t-131 -88t-158.5 -30q-129 0 -206 81t-77 237q0 113 33 199.5t89 145t132 88t160 29.5zM1264 684 q-51 0 -92.5 -44t-70 -110.5t-44 -146.5t-15.5 -154q0 -88 20.5 -148.5t88.5 -60.5q49 0 90 44.5t69.5 112t44 147t15.5 153.5q0 88 -20 147.5t-86 59.5z" />
<glyph unicode="&#x26;" horiz-adv-x="1449" d="M993 309q70 90 101.5 165t31.5 126q0 35 -27.5 45t-99.5 12q-16 0 -32.5 -1t-30.5 -3l12 78q29 -4 55.5 -6t51.5 -2q47 0 95 8t110 27q0 -51 -16.5 -120t-45.5 -141.5t-70 -142t-92 -125.5q55 -72 93 -103.5t79 -31.5q55 0 123 80l64 -45q-59 -86 -139 -125t-154 -39 q-63 0 -122.5 27.5t-98.5 93.5q-59 -47 -109.5 -71.5t-95.5 -37t-89 -14.5t-89 -2q-98 0 -178 25.5t-135.5 72.5t-86 114t-30.5 149q0 150 85 264t293 196q-53 76 -78.5 154t-25.5 151q0 80 27.5 150t82 122t133.5 81.5t181 29.5q72 0 131 -19t102 -56t68 -89.5t25 -115.5 q0 -96 -42 -162.5t-101.5 -114t-127 -77t-116.5 -50.5zM881 1225q0 96 -39 133t-90 37q-35 0 -68 -13.5t-58.5 -43t-42 -77t-16.5 -116.5q0 -35 4 -64.5t15.5 -62.5t29 -71t43.5 -87q115 55 167.5 148.5t54.5 216.5zM485 700q-49 -39 -79.5 -82t-48 -89t-23.5 -91t-6 -86 q0 -66 11 -123t39 -100t73 -67.5t110 -24.5q66 0 136.5 26.5t129.5 79.5z" />
<glyph unicode="'" horiz-adv-x="421" d="M387 1470q41 0 58.5 -21.5t17.5 -59.5q0 -37 -13.5 -85.5t-34 -102.5t-45 -111.5t-46.5 -112.5h-70q2 82 3 169t12.5 159.5t38 118.5t79.5 46z" />
<glyph unicode="(" horiz-adv-x="608" d="M94 475q2 176 50.5 316.5t131 267.5t191 252t231.5 272l56 -45q-68 -90 -120 -169t-92 -151.5t-70 -141t-52 -138.5q-59 -178 -91 -351t-32 -376q0 -139 24.5 -286.5t88.5 -276.5l-60 -35q-129 238 -192.5 450.5t-63.5 411.5z" />
<glyph unicode=")" horiz-adv-x="608" d="M563 731q-2 -176 -51 -318.5t-131 -271.5t-191.5 -255t-230.5 -273l-55 45q131 180 210 325.5t124 284.5q57 176 89.5 348t32.5 375q0 137 -25.5 282.5t-88.5 274.5l59 35q129 -240 193.5 -446.5t64.5 -405.5z" />
<glyph unicode="*" horiz-adv-x="829" d="M504 1174q0 31 -10.5 57t-23.5 50t-23.5 47.5t-10.5 49.5q0 45 29 68.5t65 23.5q37 0 66 -22.5t29 -69.5q0 -27 -11.5 -50t-25 -47t-24.5 -50.5t-11 -56.5l6 -5q33 10 56.5 33t45 45.5t45 40t58.5 17.5q41 0 65.5 -29t24.5 -70q0 -35 -23.5 -63.5t-76.5 -28.5 q-31 0 -61.5 7t-65.5 7q-27 0 -52 -6l-2 -6q20 -31 54.5 -48t65 -33.5t53 -38t22.5 -60.5q0 -37 -30.5 -65.5t-67.5 -28.5q-45 0 -63.5 25.5t-27 63.5t-16.5 81t-31 75h-8q-23 -33 -31 -75.5t-17 -80.5t-27.5 -63.5t-63.5 -25.5q-37 0 -66.5 28.5t-29.5 65.5q0 39 22.5 60.5 t53 38t63.5 33.5t55 48l-2 6q-29 6 -51 6q-35 0 -65.5 -7t-59.5 -7q-53 0 -77.5 28.5t-24.5 63.5q0 41 25.5 70t66.5 29q33 0 56.5 -17.5t44 -40t44 -45t58.5 -33.5z" />
<glyph unicode="+" d="M569 979v-424h416v-90h-416v-422h-98v422h-418v90h418v424h98z" />
<glyph unicode="," horiz-adv-x="561" d="M178 -18q-45 6 -77.5 40.5t-32.5 106.5q0 37 14 70.5t37.5 58.5t55.5 40t69 15q61 0 100 -40t39 -113q0 -92 -36 -174t-86 -146.5t-103.5 -111.5t-89.5 -72l-54 70q23 18 55.5 43.5t63.5 55.5t53.5 62.5t22.5 65.5q0 23 -31 29z" />
<glyph unicode="-" horiz-adv-x="811" d="M176 633h514l-20 -121h-514z" />
<glyph unicode="." horiz-adv-x="548" d="M201 -27q-61 0 -100.5 40t-39.5 102q0 39 14.5 71.5t39 57t57.5 39t70 14.5q61 0 100 -40t39 -101q0 -39 -14.5 -72t-39 -57.5t-57 -39t-69.5 -14.5z" />
<glyph unicode="/" horiz-adv-x="890" d="M932 1548l80 -41h-4l-979 -1716l-78 39z" />
<glyph unicode="0" horiz-adv-x="1122" d="M473 -35q-170 0 -257 129t-87 344q0 96 12.5 201.5t39 207t71.5 195t109.5 163t152.5 110.5t201 41q170 0 259 -130t89 -347q0 -96 -12.5 -202t-41 -207t-73.5 -192.5t-110.5 -161t-152.5 -110.5t-200 -41zM481 39q57 0 106.5 50t89.5 133t69.5 189.5t51 220t32 225.5 t10.5 204q0 102 -33 161.5t-102 59.5q-59 0 -108.5 -50t-89.5 -133t-68.5 -189.5t-48 -220.5t-30 -225.5t-10.5 -203.5q0 -102 30.5 -161.5t100.5 -59.5z" />
<glyph unicode="1" horiz-adv-x="884" d="M596 262q-4 -29 -7 -52.5t-3 -41.5q0 -57 22.5 -78.5t75.5 -21.5q43 0 86 6l-16 -78q-59 4 -101.5 6t-77 3t-68.5 1h-75h-76.5t-68.5 -1t-77 -3t-101 -6l16 78q18 -2 35.5 -4t36.5 -2q72 0 110.5 44t57.5 150l124 717q6 33 7 59q0 41 -15.5 58.5t-42.5 17.5t-63.5 -11 t-75.5 -26.5t-71.5 -32t-49.5 -24.5l-31 90q102 31 183.5 57.5t149 54t125 60.5t114.5 76l90 -31q-12 -31 -23.5 -69.5t-20.5 -80.5t-17.5 -83t-14.5 -76l-137 -756v0z" />
<glyph unicode="2" horiz-adv-x="1050" d="M479 635q63 47 115.5 93t90.5 98.5t59.5 116t21.5 144.5q0 80 -36 140.5t-118 60.5q-72 0 -105.5 -37t-33.5 -102q0 -18 4 -35.5t4 -36.5q0 -70 -40 -116t-105 -46q-59 0 -95 38t-36 91q0 59 26.5 116t81 101t137 70.5t195.5 26.5q90 0 159.5 -24.5t117 -65.5t72 -92.5 t24.5 -104.5q0 -86 -31 -152.5t-83 -118.5t-121.5 -96.5t-149.5 -87.5q-70 -37 -137.5 -84t-124 -101t-95 -114.5t-51.5 -126.5q51 10 95.5 12.5t70.5 2.5h254q57 0 95 16.5t59.5 44t33 63.5t17.5 77l88 -17q-35 -98 -55.5 -191.5t-36.5 -203.5q-90 8 -180.5 11t-182.5 3 q-109 0 -219 -4t-229 -12q10 123 53 219t105.5 173t137 137.5t148.5 113.5z" />
<glyph unicode="3" horiz-adv-x="1050" d="M492 1147q-2 -92 -33 -150.5t-123 -58.5q-55 0 -86 33t-29 90q2 70 40 125t99.5 93t137 57.5t153.5 19.5q70 0 136.5 -17.5t117.5 -52.5t82 -90t29 -129q-2 -119 -52.5 -191.5t-113 -113.5t-121.5 -55.5t-80 -16.5l23 -10q33 -2 78 -17.5t83.5 -48t65.5 -86t25 -129.5 q-2 -131 -52.5 -216t-122 -134t-154.5 -67.5t-153 -18.5q-182 0 -283.5 76t-99.5 192q0 16 3.5 47t18.5 61t47 52.5t87 22.5q59 0 90 -36t29 -79q0 -43 -18.5 -85t-18.5 -89q0 -31 13.5 -48.5t32.5 -26.5t43 -11t42 -2q45 0 89 24.5t78 72.5t55.5 118t23.5 162 q2 80 -15.5 126t-48 68.5t-69.5 28.5t-80 6h-22.5t-22.5 -2l16 82h19q68 0 127 21.5t103 66.5t69.5 114.5t27.5 164.5q0 37 -5 72.5t-20.5 63t-42 45t-67.5 17.5q-88 0 -119.5 -39t-31.5 -102z" />
<glyph unicode="4" horiz-adv-x="1081" d="M543 358h-373h-62.5t-78.5 -4l24 160q115 123 214.5 228.5t191.5 205t180 197.5t182 209l127 -45q-10 -49 -18 -88t-15.5 -74t-13.5 -67.5t-12 -69.5l-94 -514h67h74t84 4l-25 -146q-41 4 -83 4h-72h-70l-18 -100q-6 -35 -10.5 -62.5t-4.5 -48.5q0 -45 20.5 -61t73.5 -16 q16 0 37 1t50 3l-15 -78q-57 4 -97 6t-74 3t-65.5 1h-72.5h-73t-64.5 -1t-72.5 -3t-99 -6l14 78q23 -2 42 -3t36 -1q37 0 61.5 8t40 29.5t25.5 58.5t20 92zM567 496l51 280q12 68 32 144.5t44 150.5q-2 0 -4 2q-2 0 -2 2l-545 -579h424z" />
<glyph unicode="5" horiz-adv-x="1062" d="M895 940q4 23 5 39t1 39q0 66 -30.5 85t-125.5 19h-247q-31 0 -55.5 -3t-45 -15t-35 -37t-24.5 -68q-23 -96 -38 -161.5t-32 -106.5l6 -6q47 43 118 73.5t175 30.5q80 0 149.5 -26.5t123 -74.5t84 -114.5t30.5 -146.5q0 -125 -36.5 -219t-102 -157.5t-156 -95.5 t-196.5 -32q-100 0 -173 25.5t-121 65.5t-71.5 91.5t-23.5 102.5q0 66 41 116t116 50q59 0 93 -36t34 -77q0 -25 -7 -46.5l-14 -43t-14.5 -44t-7.5 -46.5q0 -45 42 -67.5t96 -22.5q43 0 89 27.5t83 87t60.5 149.5t23.5 217q0 111 -51.5 175.5t-143.5 64.5q-100 0 -160.5 -43 t-105.5 -134l-92 27l24 98q23 88 45.5 182.5t41 179.5t30.5 154.5t12 108.5q23 -2 54.5 -4t66.5 -3t71 -2t66 -1h230q43 0 90 1t123 9q-20 -78 -27.5 -183.5t-7.5 -201.5h-80z" />
<glyph unicode="6" horiz-adv-x="1114" d="M731 1286q-111 0 -180.5 -109.5t-120.5 -342.5l-43 -154q0 -2 2 -2q2 -2 4 -2q47 76 117 106.5t158 30.5q66 0 126 -24.5t106 -69.5t72.5 -110.5t26.5 -145.5q0 -139 -43 -234.5t-113.5 -154t-160.5 -85t-184 -26.5q-102 0 -173 36t-115 98.5t-64.5 148.5t-20.5 186 q0 86 12.5 188.5t39 205t72.5 198.5t111.5 170t155.5 118t207 44q102 0 170 -25.5t107.5 -62.5t56 -80t16.5 -80q0 -23 -6 -54.5t-22.5 -60t-45 -49t-71.5 -20.5q-55 0 -92 30.5t-37 79.5q0 43 18.5 81t18.5 85q0 37 -23 60.5t-82 25.5zM510 37q66 0 111 47t73.5 114.5 t42 143.5t13.5 133q0 53 -4.5 101.5t-18.5 84t-43 57t-78 21.5q-53 0 -97 -37.5t-76 -102t-49 -149.5t-17 -182q0 -104 33.5 -167.5t109.5 -63.5z" />
<glyph unicode="7" horiz-adv-x="952" d="M852 1116q-33 -4 -61.5 -5t-71.5 -1h-264q-55 0 -91 -3t-60.5 -21.5t-41 -59.5t-33.5 -115l-86 9q14 49 28.5 104t26 111.5t20.5 107.5t13 90q76 -10 143.5 -14t110.5 -4h220q66 0 135 6t121 12l47 4l55 -80q-117 -156 -215 -295t-168 -260.5t-110 -226t-40 -190.5 q0 -14 1 -33t1 -66q0 -63 -13 -106t-34.5 -69.5t-50 -38t-59.5 -11.5q-66 0 -100.5 36t-34.5 97q0 55 18 111.5t54 120t86.5 136.5t111.5 161l61 88z" />
<glyph unicode="8" horiz-adv-x="1077" d="M410 672q-98 43 -144.5 118.5t-46.5 170.5q0 63 24.5 132.5t79 128t142.5 96.5t215 38q174 0 259 -81t85 -198q0 -70 -22.5 -125t-61.5 -98t-91 -74.5t-110 -52.5q92 -41 155.5 -125t63.5 -207q0 -86 -33.5 -164.5t-98 -138t-155.5 -94.5t-208 -35q-86 0 -155.5 23.5 t-120 65.5t-78 100.5t-27.5 128.5q0 82 27.5 146.5t73.5 111.5t105 80t122 53zM674 1290q-49 0 -88 -21.5t-66.5 -58t-42 -84t-14.5 -98.5q0 -55 19.5 -94t49 -67.5t64.5 -50t66 -44.5q27 16 56.5 40t54 60.5t40.5 88t16 122.5q0 37 -7 74t-25.5 66.5t-48 48t-74.5 18.5z M483 616q-31 -14 -66.5 -41.5t-66.5 -69.5t-51 -99.5t-20 -126.5q0 -47 10 -92.5t32.5 -80t58.5 -56t87 -21.5q66 0 111 29.5t73.5 75.5t42 100.5t13.5 101.5q0 57 -22.5 102t-53.5 77t-66 54.5t-59 34.5z" />
<glyph unicode="9" horiz-adv-x="1093" d="M442 37q61 0 107.5 36t82.5 100.5t62.5 153.5t50.5 197q8 35 15.5 66t17.5 72h-10q-41 -72 -106.5 -103t-137.5 -31t-132 22.5t-106 65.5t-72 106.5t-26 145.5q0 119 35 210t96.5 152.5t144.5 93.5t177 32q203 0 298 -127t95 -365q0 -88 -12 -189.5t-40 -201.5 t-72 -192.5t-108.5 -163t-151.5 -112.5t-197 -42q-104 0 -173 27.5t-110 68.5t-57.5 87.5t-16.5 82.5q0 27 6.5 58.5t22.5 59.5t46 47.5t77 19.5q55 0 92 -39t37 -88q0 -41 -18.5 -80t-18.5 -82q0 -88 102 -88zM655 1284q-61 0 -105 -45t-71.5 -110.5t-40 -139.5t-12.5 -129 q0 -109 38 -177.5t109 -68.5q47 0 88 32t72 89.5t49.5 137t18.5 178.5q0 104 -36 168.5t-110 64.5z" />
<glyph unicode=":" horiz-adv-x="610" d="M344 633q-63 0 -102 42t-39 103q0 39 14 73t39 59.5t57.5 40t69.5 14.5q61 0 101 -42t40 -104q0 -39 -14 -72.5t-39 -59t-57.5 -40t-69.5 -14.5zM229 -27q-61 0 -101 42t-40 104q0 39 14.5 72.5t39 59t57 40t69.5 14.5q63 0 102.5 -42t39.5 -103q0 -39 -14.5 -73 t-39 -59.5t-57.5 -40t-70 -14.5z" />
<glyph unicode=";" horiz-adv-x="608" d="M201 -18q-47 6 -79 40.5t-32 106.5q0 37 13.5 70.5t37 58.5t55 40t68.5 15q61 0 101.5 -40t40.5 -113q0 -92 -36 -174t-86.5 -146.5t-103.5 -111.5t-90 -72l-55 70q25 18 57.5 43.5t63 56.5t52 63.5t21.5 65.5q1 21 -28 27zM338 633q-61 0 -100 42t-39 103q0 39 14 73 t38.5 59.5t57.5 40t70 14.5q61 0 101 -42t40 -104q0 -39 -15.5 -72.5t-40 -59t-57 -40t-69.5 -14.5z" />
<glyph unicode="&#x3c;" d="M74 541l790 436l39 -82l-731 -397l731 -412l-39 -86l-790 449v92z" />
<glyph unicode="=" d="M963 707v-91h-889v91h889zM963 391v-90h-889v90h889z" />
<glyph unicode="&#x3e;" d="M961 449l-791 -449l-39 86l731 412l-731 397l39 82l791 -436v-92z" />
<glyph unicode="?" horiz-adv-x="966" d="M236 109q0 35 13 68.5t37.5 60t58.5 43t73 16.5q55 0 90 -38t35 -95q0 -39 -14.5 -74t-39 -60.5t-57.5 -41t-72 -15.5q-59 0 -91.5 38.5t-32.5 97.5zM375 426q4 66 17.5 120t35 102t51 91t64.5 88q16 20 52 57.5t71.5 88.5t63.5 114.5t28 135.5q0 33 -6.5 64.5t-21.5 56 t-45 40t-75 15.5q-88 0 -118.5 -46t-30.5 -114q0 -18 3 -34.5t3 -33.5q0 -86 -41 -131t-109 -45q-53 0 -92 42t-39 100q0 66 29 126t85 106t142 73.5t201 27.5q92 0 161.5 -21.5t118 -59t73 -90t24.5 -111.5q0 -102 -38 -169t-97.5 -116t-128 -90t-132 -92t-109.5 -120 t-58 -175h-82z" />
<glyph unicode="@" horiz-adv-x="2060" d="M1130 834q-61 0 -128.5 -55.5t-124 -143.5t-93 -198.5t-36.5 -221.5q0 -66 21.5 -106.5t61.5 -40.5q72 0 142.5 59t127 148.5t91.5 193.5t35 195q0 68 -20 119t-77 51zM1098 158q-18 -25 -49 -55.5t-69 -56.5t-84 -43t-97 -17q-33 0 -79 10t-88 41t-72 86t-30 147 q0 117 47.5 230.5t127 205t185 147.5t222.5 56q61 0 97 -11t58.5 -25.5t38 -25.5t37.5 -11q18 0 34 14t44 45l99 -27l-23 -63q-39 -109 -76 -212.5t-69 -211.5q-16 -59 -36 -119.5t-20 -107.5q0 -41 18.5 -67t65.5 -26q92 0 168 57.5t130.5 153t83 218t28.5 251.5 q0 135 -48 234.5t-129 163t-186.5 94.5t-222.5 31q-106 0 -215.5 -27t-213 -81t-193.5 -136t-157 -192.5t-106.5 -249t-39.5 -306.5q0 -152 43 -270.5t119.5 -199.5t180 -122.5t226.5 -41.5q59 0 127.5 7t152.5 27l-6 -82q-180 -35 -317 -34q-182 0 -319.5 59t-229.5 158.5 t-139 230.5t-47 277q0 121 32.5 247.5t96 244.5t160 222.5t222.5 182t283.5 123t343.5 45.5q195 0 342.5 -52.5t245.5 -141.5t148.5 -205t50.5 -242q0 -162 -57.5 -295.5t-149.5 -229.5t-210 -149.5t-239 -53.5q-43 0 -84 8.5t-74.5 29t-54 55t-20.5 88.5h-8z" />
<glyph unicode="A" horiz-adv-x="1413" d="M1192 240q16 -78 44 -124t77 -46q10 0 24.5 1t26.5 3l-16 -80q-78 6 -157 9t-153 3q-152 0 -313 -12l16 80q23 -4 40.5 -4h43.5q20 0 42 1t39.5 9t28.5 23.5t11 43.5q0 23 -5 42.5t-9 41.5l-58 291h-495l-150 -266q-23 -41 -35 -72.5t-12 -54.5q0 -29 27 -44t94 -15h35.5 t42.5 4l-16 -80q-4 0 -7.5 1t-7.5 1q-35 2 -63.5 4t-54 4t-54 2h-63.5q-37 0 -64.5 -1t-52.5 -2t-48.5 -4t-51.5 -5l16 80q10 -2 19.5 -2h19.5q31 0 53.5 8t41 27.5t38.5 53.5t49 87l674 1222h111zM418 594h440l-80 389q-4 27 -12 79t-12 128h-11z" />
<glyph unicode="B" horiz-adv-x="1292" d="M20 74q39 -6 72 -6q35 0 59.5 6t43 27.5t33 64.5t26.5 115l154 872q4 29 10 58.5t6 56.5q0 41 -22.5 69.5t-88.5 28.5q-35 0 -90 -6l17 80q76 -6 130 -9.5t124 -3.5q47 0 90 2.5t86 4.5t89 4t99 2q127 0 205 -33t121 -81t57 -102.5t14 -99.5q0 -86 -33.5 -153.5 t-90 -113.5t-128 -70.5t-147.5 -26.5l-4 -12q61 0 120.5 -24t106.5 -66t76 -99t29 -127q0 -123 -43 -206t-120 -135t-184.5 -74.5t-234.5 -22.5q-66 0 -132.5 6t-145.5 6q-70 0 -134.5 -3t-140.5 -7l-45 -2zM592 788q10 -2 32.5 -2t32.5 -2q76 0 138.5 22.5t107.5 68 t69.5 113t24.5 159.5q0 35 -7 75t-25.5 73.5t-52 55t-87.5 21.5q-47 0 -73.5 -7t-42 -27.5t-24.5 -54.5t-17 -89zM492 244q-4 -27 -7.5 -47.5t-3.5 -38.5q0 -55 23.5 -76t87.5 -21q68 0 128 26t104 76t70 123.5t26 170.5q0 121 -58.5 192.5t-193.5 71.5h-44.5t-45.5 -4z" />
<glyph unicode="C" horiz-adv-x="1253" d="M1298 1417q-16 -86 -26 -183t-12 -204h-82q4 20 4 40v38q0 82 -23.5 138.5t-62.5 91t-89.5 49t-101.5 14.5q-102 0 -192 -54.5t-158 -161t-106.5 -261t-38.5 -357.5q0 -115 20.5 -211t61 -165.5t102 -107.5t145.5 -38q129 0 222.5 68.5t148.5 185.5l78 -33 q-92 -168 -206 -235.5t-267 -67.5q-129 0 -235.5 42t-182.5 123t-118 201t-42 273q0 211 61.5 374t167 272.5t246 165.5t297.5 56q129 0 230.5 -18.5t158.5 -34.5z" />
<glyph unicode="D" horiz-adv-x="1517" d="M633 66q162 0 271.5 77.5t177 196.5t97 262t29.5 272q0 74 -12 160t-49 160t-103.5 123t-175.5 49q-53 0 -88 -6t-56.5 -23.5t-34.5 -49.5t-21 -81l-172 -927q-6 -33 -10.5 -58.5t-4.5 -48.5q0 -53 32 -79.5t120 -26.5zM23 74q39 -6 71 -6q35 0 59.5 6t43 27.5t32 64.5 t25.5 115l154 872q4 23 8 48.5t4 51.5q0 45 -18.5 79t-73.5 34q-16 0 -45 -1t-58 -5l17 80q70 -8 120 -10.5t99 -2.5q43 0 85 2.5t91 4.5t108.5 4t139.5 2q141 0 249.5 -46t183.5 -126t112.5 -190.5t37.5 -239.5q0 -219 -65.5 -378t-179 -262.5t-267 -153.5t-331.5 -50 q-59 0 -99.5 2t-75 4t-71.5 4t-88 2q-61 0 -128 -2t-157 -10z" />
<glyph unicode="E" horiz-adv-x="1267" d="M25 74q43 -6 73 -6q37 0 60.5 6t40 27.5t30 64.5t25.5 115l154 872q8 41 12 72.5t4 54.5q0 53 -24.5 69.5t-80.5 16.5q-35 0 -92 -6l17 80q131 -8 249.5 -10.5t233.5 -2.5q147 0 279.5 3.5t271.5 9.5q-10 -55 -16.5 -100.5t-11.5 -88.5t-7 -90t-4 -108h-78q4 35 6 63.5 t2 54.5q0 68 -15 106t-47 55.5t-80 21.5t-112 4q-74 0 -117.5 -5t-69.5 -21.5t-37 -50.5t-21 -89l-72 -404q35 -2 63.5 -2h53.5q59 0 98 13.5t63.5 41t39 67.5t26.5 93l72 -14q-35 -117 -56.5 -238.5t-31.5 -250.5h-80q16 70 16 112q0 33 -10 53.5t-37 32t-73 15.5t-115 4 h-41l-76 -434q-6 -39 -10 -68t-4 -51q0 -29 8 -46.5t28.5 -26.5t53 -11t82.5 -2q98 0 165.5 5t115.5 37t80 98.5t61 189.5l79 -11q-25 -61 -38 -110t-22 -95.5t-17.5 -92.5t-20.5 -103q-160 6 -325.5 9t-315.5 3q-117 0 -212 -2t-208 -10z" />
<glyph unicode="F" horiz-adv-x="1181" d="M504 281q-14 -72 -15 -119q0 -59 26 -76.5t79 -17.5q37 0 92 6l-14 -80q-63 4 -108.5 7t-82.5 4t-72.5 1h-80.5h-80t-68 -1t-78 -4t-106 -7l16 80q39 -6 72 -6q37 0 62.5 6t46 27.5t36 64.5t27.5 115l154 872q6 39 10 67.5t4 51.5q0 59 -26.5 76.5t-80.5 17.5 q-20 0 -40.5 -1t-49.5 -5l17 80q66 -4 136.5 -6t141 -4.5t137 -2.5h123.5q74 0 133.5 1.5t114.5 2.5t112.5 3t127.5 6q-10 -55 -17.5 -106.5t-11.5 -102.5t-6 -105.5t-2 -115.5h-76q6 74 6 127q0 78 -15 122t-48 66.5t-84 27.5t-123 5q-70 0 -110 -5t-62.5 -21.5 t-32.5 -50.5t-20 -89l-78 -430q35 -4 53.5 -4h42.5q88 0 134 15t68.5 44t33 70t26.5 92l70 -12q-35 -123 -60.5 -248t-35.5 -256h-74q6 41 11 72.5t5 58.5q0 49 -36.5 72.5t-153.5 23.5h-45.5t-50.5 -4z" />
<glyph unicode="G" horiz-adv-x="1411" d="M930 295q8 49 14 83t9 56.5t4 36.5t4 27q0 57 -29 73.5t-101 16.5q-35 0 -92 -6l15 88q59 -4 106 -7.5t87 -4.5t79 -1h82h73.5t62.5 1t72 4.5t101 7.5l-12 -88q-23 4 -31 5t-24 1q-33 0 -57.5 -3t-42 -19.5t-31 -52.5t-23.5 -99l-33 -189q-6 -37 -12 -88t-12 -114 q-82 -29 -205 -44.5t-262 -15.5q-156 0 -259.5 56.5t-165 146.5t-87 202.5t-25.5 227.5q0 84 14.5 182.5t51.5 194.5t98 186t155.5 160t224.5 110.5t304 40.5q43 0 82 -3t78 -10t82 -18.5t96 -27.5q-14 -68 -22.5 -117t-13.5 -92t-8 -84t-5 -88h-80q4 23 6 46.5t2 45.5 q0 57 -12 108.5t-43 89.5t-81 59.5t-126 21.5q-113 0 -197 -50.5t-143 -129t-97 -175t-60.5 -188.5t-31 -170t-8.5 -119q0 -84 8.5 -178t41 -174t95 -132t171.5 -52q70 0 107.5 14t56 46t28 82t21.5 120z" />
<glyph unicode="H" horiz-adv-x="1593" d="M1274 281q-6 -35 -11.5 -61.5t-5.5 -55.5q0 -61 26 -77.5t81 -16.5h39.5t50.5 4l-16 -80q-63 4 -105.5 7t-78 4t-69.5 1h-79h-79t-68.5 -1t-78.5 -4t-108 -7l16 80q23 -4 41.5 -4h34.5q39 0 63.5 6t42 27.5t30 63.5t24.5 114l76 430h-520l-78 -430q-6 -35 -11.5 -61.5 t-5.5 -55.5q0 -61 27 -77.5t80 -16.5h40.5t51.5 4l-16 -80q-63 4 -106.5 7t-78 4t-68.5 1h-79h-80t-67.5 -1t-77.5 -4t-107 -7l16 80q20 -4 39 -4h33q39 0 63.5 6t42 27.5t31 63.5t25.5 114l154 872q6 37 10 64.5t4 50.5q0 61 -25.5 79.5t-79.5 18.5q-33 0 -90 -6l17 80 q63 -4 105 -7t77 -4.5t68.5 -1.5h80.5h79t69 1.5t78 4.5t108 7l-14 -80q-43 6 -78 6q-39 0 -63.5 -6t-42 -27.5t-29.5 -64.5t-25 -115l-63 -365h522l64 365q6 33 10 58.5t4 45.5q0 68 -24.5 88.5t-79.5 20.5q-35 0 -93 -6l17 80q63 -4 106 -7t78 -4.5t67.5 -1.5h80.5h78.5 t68.5 1.5t79 4.5t109 7l-16 -80q-43 6 -76 6q-39 0 -64.5 -6t-43 -27.5t-29.5 -64.5t-25 -115z" />
<glyph unicode="I" horiz-adv-x="823" d="M504 281q-6 -35 -10.5 -61.5t-4.5 -47.5q0 -68 25 -86t78 -18q33 0 92 6l-16 -80q-63 4 -105.5 7t-78 4t-69.5 1h-79h-80t-67.5 -1t-77.5 -4t-107 -7l16 80q39 -6 74 -6q39 0 63.5 6t42 27.5t30 64.5t24.5 115l154 872q6 37 10 66.5t4 52.5q0 59 -25.5 76.5t-77.5 17.5 q-35 0 -92 -6l17 80q63 -4 105 -7t77 -4.5t68.5 -1.5h80.5h79t69 1.5t79 4.5t109 7l-16 -80q-43 6 -78 6q-39 0 -63.5 -6t-42 -27.5t-28.5 -64.5t-26 -115z" />
<glyph unicode="J" horiz-adv-x="837" d="M457 1153q6 37 10 66.5t4 52.5q0 59 -25.5 76.5t-80.5 17.5q-39 0 -91 -6l17 80q63 -4 107 -7t81 -4.5t72 -1.5h82h76.5t65.5 1.5t75 4.5t106 7l-16 -80q-18 2 -32.5 3t-28.5 1q-43 0 -72 -10.5t-48.5 -35t-31.5 -64.5t-22 -101l-154 -858q-18 -102 -54 -165.5 t-80 -100.5t-94.5 -50.5t-99.5 -13.5q-104 0 -167.5 24.5t-110.5 55.5l49 74q41 -29 70.5 -41t76.5 -12q61 0 98 44t60 169z" />
<glyph unicode="K" horiz-adv-x="1411" d="M504 281q-6 -35 -10.5 -61.5t-4.5 -49.5q0 -66 24 -84t71 -18q12 0 42.5 1t59.5 5l-16 -80q-63 4 -108.5 7t-82.5 4t-72.5 1h-80.5h-79t-63.5 -1t-72.5 -4t-105 -7l17 80q20 -4 32.5 -5t28.5 -1q39 0 66.5 6t46 27.5t32 64.5t25.5 115l156 872q6 39 10 67.5t4 51.5 q0 59 -24.5 76.5t-71.5 17.5q-12 0 -43 -1t-60 -5l17 80q63 -4 108 -7t82 -4.5t72 -1.5h82h76.5t64.5 1.5t75 4.5t107 7l-16 -80q-23 4 -36 5t-30 1q-39 0 -64.5 -6t-44 -27.5t-32.5 -64.5t-27 -115l-65 -367q25 0 42 3.5t36.5 16.5t48.5 38.5t74 73.5l229 233 q35 37 61.5 62.5t45 46t27.5 37t9 32.5q0 23 -17 30t-52 7q-33 0 -76 -6l16 80q59 -6 120 -9.5t130 -3.5h56.5t51 2.5t53.5 4.5t62 6l-16 -80q-16 2 -28.5 3t-24.5 1q-47 -2 -94 -25q-23 -12 -50.5 -31.5t-86 -72.5t-157 -152.5t-261.5 -271.5q31 0 56 -3t45.5 -16.5t40 -44 t38.5 -85.5l106 -306q35 -86 57.5 -141t43 -89t45 -47t63.5 -13q16 0 35.5 2t42.5 6l-16 -80q-84 12 -170 12q-61 0 -125 -7t-123 -24q-8 43 -16.5 77t-17.5 66t-20.5 65.5t-25.5 76.5l-121 358q-23 66 -50.5 83.5t-62.5 17.5q-10 0 -19 -1t-19 -1z" />
<glyph unicode="L" horiz-adv-x="1167" d="M500 262q-4 -29 -8.5 -50.5t-4.5 -39.5q0 -55 37 -75.5t140 -20.5q76 0 137 13t107 53t81 112t60 190l77 -16q-20 -61 -34.5 -115.5t-26.5 -106.5t-22.5 -103.5t-20.5 -108.5q-78 2 -144.5 5t-129 4t-127 2t-138.5 1q-119 0 -240.5 -2t-234.5 -10l15 80q39 -6 73 -6 q37 0 60.5 6t41 27.5t31 64.5t25.5 115l156 872q12 70 12 115q0 61 -24.5 79.5t-73.5 18.5q-16 0 -43 -1t-56 -5l17 80q63 -4 108 -7t82 -4.5t72 -1.5h82h76.5t64.5 1.5t75 4.5t107 7l-16 -80q-43 6 -70 6q-37 0 -62.5 -6t-44 -27.5t-31.5 -64.5t-28 -115z" />
<glyph unicode="M" horiz-adv-x="1869" d="M1556 281q-4 -35 -9 -61.5t-5 -49.5q0 -66 30 -84t89 -18q20 0 40.5 1t49.5 5l-16 -80q-63 4 -105.5 7t-77 4t-68.5 1h-79h-77t-65.5 -1t-75.5 -4t-106 -7l17 80q39 -6 76 -6q31 0 51 6t35.5 27.5t26.5 64.5t22 115l69 487q4 33 12.5 94.5t17.5 129t18.5 134t19.5 113.5 h-12l-623 -1194h-78l-176 975q-12 63 -18.5 108.5t-10.5 106.5h-12l-194 -991q-4 -25 -8.5 -46.5t-4.5 -39.5q0 -41 24.5 -64.5t94.5 -23.5q16 0 37.5 2t44.5 2l-14 -80q-66 4 -132.5 6t-132.5 2q-59 0 -119.5 -2t-123.5 -6l14 80q20 -4 39.5 -4h36.5q72 0 101.5 37.5 t49.5 136.5l199 966q4 20 5 37t1 31q0 51 -26.5 69.5t-85.5 18.5q-16 0 -35 -1t-41 -3l16 78q80 -6 134.5 -9.5t113.5 -3.5q45 0 111.5 2.5t117.5 10.5q0 -29 7.5 -78t17.5 -105l92 -505q12 -68 19.5 -121t11.5 -94t6 -75t2 -63h14l439 844q33 61 57.5 109.5t36.5 87.5 q47 -10 96 -11.5t100 -1.5q141 0 283 13l-14 -78q-23 2 -42.5 3t-35.5 1q-74 0 -99.5 -33t-37.5 -123z" />
<glyph unicode="N" horiz-adv-x="1538" d="M1327 1190q6 33 6 70q0 43 -19.5 74.5t-78.5 31.5q-16 0 -47 -1t-53 -5l16 80q39 -2 67.5 -4t55 -3t53.5 -2t64 -1t66.5 1t58 2t60.5 3t73 4l-17 -80q-23 2 -40 3t-33 1q-39 0 -64 -8t-40 -28.5t-25.5 -53.5t-18.5 -84l-223 -1223h-98l-459 994q-35 72 -63.5 137 t-45.5 127h-16l-174 -981q-6 -35 -6 -62q0 -51 24.5 -82.5t93.5 -31.5q18 0 37 1t41 5l-16 -80l-136.5 7t-131.5 3q-37 0 -62.5 -1t-49.5 -2t-51.5 -3t-66.5 -4l17 80q39 -6 71 -6q70 0 99.5 37.5t48.5 138.5l174 966q6 37 6 66q0 51 -24.5 70.5t-82.5 19.5q-16 0 -40.5 -1 t-47.5 -3l17 78q80 -6 139 -9.5t119 -3.5q45 0 100 2.5t107 10.5q23 -102 55.5 -173t56.5 -124l219 -467q29 -61 60 -134t61 -167h15z" />
<glyph unicode="O" horiz-adv-x="1468" d="M885 1468q119 0 218 -42t168.5 -118.5t108.5 -187t39 -248.5q0 -215 -52 -384t-150.5 -285.5t-236.5 -178t-310 -61.5q-121 0 -219.5 40t-168 117t-107.5 187.5t-38 249.5q0 217 52.5 387t149.5 287t235.5 177t310.5 60zM682 33q119 0 208 84t147.5 217t88 296t29.5 320 q0 211 -67.5 330t-215.5 119q-121 0 -209 -84t-146 -216t-87 -296t-29 -324q0 -215 67 -330.5t214 -115.5z" />
<glyph unicode="P" horiz-adv-x="1212" d="M580 719q29 -4 43 -4h41q82 0 145 36.5t106 94t64.5 129.5t21.5 141q0 49 -11 95t-32.5 81t-55.5 55.5t-79 20.5q-43 0 -68.5 -6t-42 -22.5t-25.5 -48t-17 -81.5zM504 281q-6 -33 -11.5 -65t-5.5 -52q0 -37 5.5 -56.5t16.5 -28.5t31.5 -10t51.5 -1q16 0 43 1t49 5 l-14 -80q-63 4 -108.5 7t-82.5 4t-72.5 1h-80.5h-79t-63.5 -1t-72.5 -4t-105 -7l17 80q45 -6 77 -6q33 0 56.5 7t41 29.5t31 64.5t25.5 112l154 872q6 33 10 59.5t4 47.5q0 72 -30 89t-87 17q-31 0 -80 -6l17 80q90 -8 168.5 -10.5t140.5 -2.5q45 0 82 2.5t71.5 4.5t69.5 4 t76 2q109 0 186.5 -24.5t127.5 -70t74 -107.5t24 -138q0 -80 -27 -162t-89.5 -147.5t-167 -106.5t-259.5 -41q-49 0 -96.5 2t-57.5 2z" />
<glyph unicode="Q" horiz-adv-x="1468" d="M887 1470q121 0 219 -43t169 -121.5t108.5 -190t37.5 -251.5q0 -203 -48 -362.5t-137 -273t-214 -178t-281 -79.5q47 -25 77 -63.5t56.5 -77.5t59.5 -66.5t86 -27.5q35 0 83 16.5t103 57.5l45 -62q-96 -80 -171.5 -113.5t-143.5 -33.5q-82 0 -145.5 37.5t-112.5 94 t-87 124t-69 129.5q-180 43 -282.5 187t-102.5 380q0 217 52.5 388t149.5 289t235.5 179t312.5 61zM682 33q119 0 208 84t147.5 216t88 295t29.5 320q0 211 -66.5 332t-214.5 121q-121 0 -208.5 -84t-147 -218t-88.5 -298t-29 -324q0 -215 67 -329.5t214 -114.5z" />
<glyph unicode="R" horiz-adv-x="1390" d="M504 281q-6 -33 -10.5 -60.5t-4.5 -56.5q0 -66 26 -81t79 -15q16 0 42 1t50 5l-16 -80q-160 12 -324 12t-338 -12l19 80q23 -4 35 -5t32 -1q37 0 62.5 7t43 29.5t30 64.5t24.5 112l156 872q6 37 11 66.5t5 52.5q0 63 -26.5 78.5t-80.5 15.5q-16 0 -42.5 -1t-49.5 -5 l15 80q90 -8 171 -10.5t142 -2.5q86 0 165 5.5t163 5.5q102 0 174.5 -24.5t119 -66.5t68 -98.5t21.5 -120.5q0 -168 -98.5 -261t-315.5 -122l-2 -12q74 0 120 -19.5t75.5 -53t44 -79.5t24.5 -100l49 -299q12 -72 36 -92t67 -20q20 0 35.5 1t39.5 3l-16 -80q-31 2 -53.5 4 t-42 3t-40 2t-44.5 1q-31 0 -54.5 -1t-49 -3t-55.5 -6t-71 -12q0 51 -6 114.5t-15 129t-19.5 130t-18.5 117.5q-10 70 -25.5 116t-39 72.5t-57.5 37t-81 10.5q-16 0 -35.5 -1t-37.5 -3zM592 778q18 -2 34.5 -3t32.5 -1q160 0 251 97.5t91 283.5q0 29 -5 67t-22.5 70.5 t-53 55t-97.5 22.5q-35 0 -58.5 -4t-41.5 -19.5t-30.5 -48t-22.5 -88.5z" />
<glyph unicode="S" horiz-adv-x="1124" d="M469 37q59 0 113.5 18.5t94.5 54t63.5 86t23.5 115.5q0 82 -40 139.5t-99.5 103.5t-129 89t-129 95.5t-99.5 123t-40 172.5q0 96 34 177t98.5 138.5t157.5 89t212 31.5q100 0 186 -16t172 -41q-12 -51 -20 -90t-14 -79t-9.5 -87t-5.5 -113h-88q4 31 8.5 58.5t4.5 62.5 q0 104 -56.5 170t-167.5 66q-78 0 -131 -26.5t-86 -66.5t-46 -89.5t-13 -94.5q0 -72 41 -125t101.5 -97t132 -87t132 -95t101.5 -120t41 -164q0 -125 -41 -215t-114 -147.5t-170 -84t-208 -26.5q-104 0 -216.5 21.5t-190.5 46.5q12 68 21 115t15.5 91t9.5 94t3 122h92 q-4 -25 -7 -54.5t-3 -56.5q0 -55 11 -110.5t40 -98.5t81 -69.5t134 -26.5z" />
<glyph unicode="T" horiz-adv-x="1208" d="M692 281q-8 -39 -12 -68t-4 -51q0 -59 24.5 -76.5t71.5 -17.5q16 0 45 1t57 5l-14 -80q-63 4 -108 7t-82 4t-73 1h-81h-78.5t-64.5 -1t-75 -4t-105 -7l16 80q23 -4 35 -5t28 -1q37 0 63.5 6t47 27.5t35 64.5t26.5 115l168 944q4 16 4 30.5v24.5q0 55 -29.5 66.5 t-101.5 11.5q-82 0 -127 -29t-69.5 -74t-35.5 -101t-26 -114l-82 11q18 55 29.5 103t20 94t15.5 92t17 100q39 -4 111 -6t152.5 -3t158.5 -2.5t129 -1.5t126 1.5t152 2.5t145.5 3t109.5 6q-16 -90 -28.5 -183.5t-14.5 -222.5h-88q4 39 11 83t7 85q0 31 -6 59.5t-22.5 50 t-48 34t-81.5 12.5q-55 0 -85.5 -5t-49 -24.5t-30 -60.5t-23.5 -111z" />
<glyph unicode="U" horiz-adv-x="1490" d="M377 1153q6 35 10 63.5t4 59.5q0 57 -25.5 73.5t-82.5 16.5q-35 0 -86 -6l16 80q59 -4 102 -7t80 -4.5t72 -1.5h78h73.5t68.5 1.5t78 4.5t103 7l-16 -80q-41 6 -72 6q-35 0 -58.5 -6t-39.5 -28.5t-28.5 -64.5t-24.5 -114q-35 -205 -53.5 -316.5t-27.5 -163.5t-11 -62.5 t-2 -12.5q-10 -63 -19.5 -127.5t-9.5 -124.5q0 -63 12 -119.5t41 -98.5t79 -66.5t128 -24.5q92 0 159.5 40t123.5 118q29 39 49 84t36.5 103t31 133t32.5 175l86 473q12 70 12 111q0 57 -24.5 75.5t-75.5 18.5q-23 0 -48.5 -2t-55.5 -4l16 78q74 -4 132 -7t128 -3 q35 0 62.5 1l55 2t57.5 3t69 4l-17 -78q-23 2 -43 3t-36 1q-37 0 -60.5 -8t-41 -31.5t-29 -63.5t-21.5 -102l-76 -428q-20 -113 -33.5 -195.5t-30 -147t-39 -116t-59.5 -102.5q-66 -90 -164 -150.5t-243 -60.5q-121 0 -207 33t-143.5 92t-84 143t-26.5 187q0 39 3 79t11 83z " />
<glyph unicode="V" horiz-adv-x="1351" d="M311 1194q-8 39 -15 70.5t-20.5 53t-35 33t-54.5 11.5q-8 0 -22 -1t-27 -3l17 82q78 -6 167 -9.5t162 -3.5q74 0 141.5 3.5t149.5 9.5l-16 -82q-23 4 -32 4h-30q-57 0 -98 -12.5t-41 -63.5q0 -10 3 -29.5t7 -42t8.5 -45t8.5 -36.5l104 -512q10 -53 25.5 -119t21.5 -180 h15l460 856q20 39 32.5 68.5t12.5 51.5q0 33 -25.5 48.5t-84.5 15.5h-45.5t-50.5 -4l16 82q78 -6 141.5 -9.5t136.5 -3.5q37 0 62 1.5t44 2.5t39.5 3t49.5 6l-16 -82q-10 2 -19.5 2h-17.5q-39 0 -64.5 -13.5t-45 -36t-36 -55t-36.5 -69.5l-654 -1225h-94z" />
<glyph unicode="W" horiz-adv-x="1808" d="M635 393l469 1041h94l94 -824q4 -45 9.5 -93t5.5 -124h12l356 785q29 68 29 106q0 80 -117 80q-16 0 -39.5 -1t-46.5 -3l15 80q141 -12 276 -13q47 0 101.5 2.5t101.5 10.5l-17 -82q-12 2 -24 2h-23q-31 0 -51 -6t-37.5 -25.5t-35 -53.5t-42.5 -89l-553 -1223h-94 l-94 860q-2 12 -4 45t-2 74q0 49 6 92h-12l-480 -1071h-94l-147 1219q-4 39 -10.5 71.5t-17.5 57t-29.5 38t-49.5 13.5q-8 0 -21 -1t-26 -3l17 82q70 -6 145.5 -9.5t142.5 -3.5q33 0 75 1.5t87 2.5t88 3t80 6l-14 -82q-20 4 -50 5t-49 1q-51 0 -81.5 -19.5t-30.5 -68.5 q0 -16 1 -47t3 -62.5t4 -61.5t4 -44l53 -451q4 -43 7.5 -92t3.5 -125h12z" />
<glyph unicode="X" horiz-adv-x="1329" d="M326 254q-29 -35 -58.5 -74t-29.5 -67q0 -20 17 -31.5t62 -11.5h41t66 4l-16 -80q-37 2 -68 5t-58.5 4t-56 2t-63.5 1q-137 0 -248 -12l16 80q6 0 21.5 -1t23.5 -1q27 0 47.5 7t46 27.5t60.5 57.5t90 96l371 438l-213 484q-16 37 -27.5 69.5t-26 58t-37 40t-59.5 14.5 q-10 0 -19 -1t-20 -3l15 80q74 -6 154.5 -9.5t152.5 -3.5t149.5 3.5t155.5 9.5l-16 -80q-23 2 -32 3t-26 1q-59 0 -91 -9t-32 -63q0 -31 29 -98q31 -72 54.5 -123t39 -88t24.5 -64.5t15 -54.5l271 310q33 39 64.5 78.5t31.5 70.5q0 18 -17.5 29.5t-58.5 11.5h-33.5t-72.5 -4 l16 80q150 -12 285 -13q37 0 62.5 1.5t48 2.5t44 3t49.5 6l-16 -80q-6 0 -17.5 1t-19.5 1q-29 0 -52.5 -8t-51 -29.5t-63.5 -58.5t-91 -97l-319 -376l223 -541q14 -39 27.5 -72t31 -57.5t40 -38.5t59.5 -14q8 0 18 1t21 3l-17 -80q-74 6 -156.5 9t-154.5 3q-143 0 -297 -12 l14 80q23 -2 37 -3t33 -1q57 0 87 11t30 62q0 16 -7.5 36t-21.5 52q-49 113 -80 182.5t-48 111.5t-24.5 65.5t-9.5 44.5z" />
<glyph unicode="Y" horiz-adv-x="1263" d="M758 717l317 457q33 47 51.5 80.5t18.5 56.5q0 53 -113 53q-27 0 -38 -1t-50 -3l17 80q131 -12 272 -13q53 0 103 2.5t100 10.5l-17 -80q-8 0 -20.5 1t-20.5 1q-31 0 -52 -8t-42.5 -28.5t-48.5 -58.5t-66 -96l-385 -565l-57 -325q-8 -41 -12 -71t-4 -52q0 -57 24.5 -73.5 t71.5 -16.5q12 0 43 1t59 5l-16 -80q-63 4 -107.5 7t-82 4t-73.5 1h-81h-78t-66.5 -1t-75.5 -4t-106 -7l15 80q23 -4 38 -5t31 -1q35 0 61.5 6t46 27.5t35 64.5t27.5 115l58 319l-199 582q-16 39 -25.5 72.5t-22 58t-32.5 38t-57 13.5q-10 0 -20.5 -1t-22.5 -3l16 80 q78 -6 159 -9.5t154 -3.5q74 0 135.5 3.5t143.5 9.5l-16 -80q-23 2 -28 3t-26 1q-63 0 -95 -13.5t-32 -66.5q0 -16 6.5 -34.5t16.5 -47.5l112 -321q14 -37 23.5 -75t19.5 -89h13z" />
<glyph unicode="Z" horiz-adv-x="1222" d="M788 1174q23 33 38.5 54t30.5 39.5t33.5 36t43.5 42.5q-45 4 -109.5 7t-150.5 3q-88 0 -152.5 -10.5t-112 -44t-80 -100t-57.5 -177.5l-86 12q25 70 39.5 117t24.5 89t18 87t19 111q113 -6 225.5 -10.5t228.5 -4.5q111 0 223.5 4.5t231.5 10.5l33 -64l-748 -1073 q-20 -29 -36.5 -53.5t-34 -49t-40 -51t-53.5 -61.5q31 -4 55.5 -5t57.5 -2t80 -1h125q104 0 177 12t122 51t81 109t56 186l88 -12q-27 -70 -43 -122t-28.5 -99t-21.5 -97.5t-22 -113.5q-92 4 -224 8t-273 4h-148.5t-121 -1t-110.5 -4t-118 -7l-31 59z" />
<glyph unicode="[" horiz-adv-x="643" d="M467 -266l-12 -82h-416l328 1818h415l-12 -81h-197l-303 -1655h197z" />
<glyph unicode="\" horiz-adv-x="868" d="M707 -172l-95 -37l-376 1716l92 41z" />
<glyph unicode="]" horiz-adv-x="645" d="M211 1389l12 81h416l-328 -1818h-413l12 82h194l304 1655h-197z" />
<glyph unicode="^" d="M596 1454l432 -792l-82 -44l-393 715l-383 -715l-82 44l420 792h88z" />
<glyph unicode="_" d="M893 -283h-1024l18 95h1024z" />
<glyph unicode="`" horiz-adv-x="819" d="M471 1245q-14 14 -31.5 30.5t-32 33t-24.5 34t-10 33.5q0 51 28.5 69.5t53.5 18.5q37 0 67.5 -27.5t60 -74.5t60.5 -109.5t66 -130.5l-66 -43z" />
<glyph unicode="a" horiz-adv-x="1048" d="M608 145q-16 -31 -41.5 -61.5t-63.5 -55t-87 -41t-111 -16.5q-78 0 -129 20.5t-82 53.5t-44 73t-13 77q0 57 22.5 117.5t88 109.5t183.5 82t310 35l23 129q4 25 7 55.5t5 58.5q0 53 -22.5 94.5t-88.5 41.5t-103.5 -31t-37.5 -92q0 -31 -7 -63t-24.5 -57.5t-45.5 -42 t-66 -16.5q-14 0 -32 5.5t-34 17.5t-27.5 32.5t-11.5 51.5q0 51 26.5 98t78 82t127 55.5t172.5 20.5q166 0 236.5 -66.5t70.5 -183.5q0 -20 -2 -42.5t-6 -45.5l-68 -414q-2 -10 -4 -27.5t-2 -37.5q0 -23 6 -40.5t27 -17.5q35 0 61.5 33t40.5 58l57 -41 q-51 -92 -114.5 -137.5t-116.5 -45.5q-72 0 -111 48.5t-39 107.5q0 6 2 16zM629 471q-162 0 -258.5 -67.5t-96.5 -204.5q0 -25 5.5 -48.5t17.5 -44t32.5 -33t51.5 -12.5q55 0 94 29t65.5 74t43 96t24.5 98z" />
<glyph unicode="b" horiz-adv-x="1099" d="M498 1081q-4 -29 -17.5 -108.5t-42.5 -169.5l13 -2q49 74 116.5 120t165.5 46q131 0 213 -89.5t82 -265.5q0 -150 -42 -267.5t-113.5 -199.5t-165 -126t-193.5 -44q-39 0 -72.5 11.5t-63.5 25t-56.5 24.5t-51.5 11q-51 0 -81.5 -17.5t-47.5 -49.5l-75 34 q20 66 33.5 127.5t25.5 126.5l162 932q12 63 12 103q0 37 -22.5 51t-73.5 14h-33.5t-42.5 -4l12 74q29 -4 61.5 -4h61.5q72 0 148.5 3t154.5 21zM786 680q0 27 -2 62.5t-12 67.5t-32.5 53.5t-63.5 21.5q-61 0 -117.5 -54.5t-100.5 -143.5t-70 -201.5t-26 -229.5 q0 -104 30 -156.5t106 -52.5q63 0 116.5 65.5t91 163t59 207t21.5 197.5z" />
<glyph unicode="c" horiz-adv-x="929" d="M848 250q-66 -135 -161 -211t-236 -76q-102 0 -173 33t-115 88t-63.5 129t-19.5 156q0 135 35 246.5t101.5 192.5t162.5 126t219 45q86 0 144.5 -22.5t94 -56.5t51 -74t15.5 -76q0 -49 -16.5 -81t-38 -49.5t-46 -24.5t-38.5 -7q-41 0 -77 22.5t-36 75.5q0 31 5.5 50.5 t12.5 34.5t12 28.5t5 31.5q0 37 -18.5 59.5t-65.5 22.5q-100 0 -166.5 -111.5t-101.5 -328.5q-4 -25 -8 -58.5t-4 -72.5q0 -53 8 -106.5t27.5 -98.5t54 -72.5t88.5 -27.5q31 0 67.5 12t74.5 41t75 76t67 117z" />
<glyph unicode="d" horiz-adv-x="1130" d="M317 260q0 -45 5.5 -85t17.5 -68.5t34.5 -46t59.5 -17.5q49 0 103.5 52t100.5 139.5t75.5 202t29.5 239.5q0 96 -29.5 159.5t-105.5 63.5q-61 0 -114.5 -64.5t-92.5 -159.5t-61.5 -208t-22.5 -207zM797 860q0 70 7 130.5t17 117.5l27 180q4 35 -16.5 58.5t-77.5 23.5 q-16 0 -39 -1t-47 -5l10 74q29 -4 68.5 -4h68.5q72 0 146.5 3t152.5 21l-209 -1177q-6 -33 -12 -77t-6 -63q0 -76 94 -75h35.5t42.5 4l-15 -74q-80 6 -153 6q-57 0 -113.5 -5t-115.5 -17q0 35 1 54t3 35.5t5 34t7 48.5l-10 4q-51 -96 -116 -140.5t-175 -44.5 q-133 0 -217 99.5t-84 273.5q0 145 40 261t107.5 197t156.5 124t187 43q86 0 134.5 -27t86.5 -84z" />
<glyph unicode="e" horiz-adv-x="980" d="M870 248q-37 -59 -77.5 -111.5t-91 -91.5t-112 -60.5t-136.5 -21.5q-92 0 -163 31t-118 85t-71.5 128t-24.5 160q0 135 41 247.5t113.5 193.5t173 126t221.5 45q72 0 130 -18.5t99 -51t63.5 -78t22.5 -96.5q0 -104 -49 -159.5t-133 -80t-195.5 -28.5t-234.5 -4 q-12 -78 -13 -141q0 -141 54.5 -207t154.5 -66q66 0 136.5 51.5t140.5 178.5zM346 528q63 0 129 8.5t119 37t88 83t35 144.5q0 53 -26.5 82.5t-76.5 29.5q-53 0 -97 -35.5t-77.5 -92t-57.5 -125.5t-36 -132z" />
<glyph unicode="f" horiz-adv-x="690" d="M350 0h-239q16 66 28.5 132.5t24.5 131.5l106 604h-184l14 74h183q10 57 15 88t8 46.5t4 19.5t1 6q8 47 23.5 110.5t52.5 121t104.5 97t180.5 39.5q115 0 179 -51t64 -119q0 -51 -31.5 -91t-84.5 -40q-47 0 -70.5 17.5t-34 42t-12.5 55.5t-6 55.5t-14.5 42t-38.5 17.5 q-43 0 -69 -40t-26 -106q0 -35 3.5 -66.5t3.5 -74.5q0 -18 -3.5 -51t-19.5 -119h236l-13 -74h-235z" />
<glyph unicode="g" horiz-adv-x="987" d="M336 -397q41 0 101.5 6t117.5 25.5t97 56.5t40 98q0 43 -28.5 66.5t-74.5 36t-101.5 16.5t-109.5 7t-100.5 8t-70.5 20q-43 -16 -67.5 -41t-35 -47.5t-12.5 -42t-2 -25.5q0 -33 13.5 -65.5t43 -59.5t76.5 -43t113 -16zM545 905q-59 0 -99 -35.5t-65 -89t-35 -114 t-10 -111.5q0 -92 28.5 -142.5t94.5 -50.5q41 0 78.5 25t65.5 69t44.5 104.5t16.5 133.5q0 92 -26.5 151.5t-92.5 59.5zM1022 858h-96q-12 0 -33 1t-41.5 2t-38.5 2t-25 3q41 -35 70 -88t29 -114q0 -96 -33 -166t-88 -116t-128 -67.5t-155 -21.5q-57 0 -104 8 q-131 -51 -131 -100q0 -16 7 -27.5t32.5 -21t76 -15.5t138.5 -10q115 -6 184.5 -30.5t107 -59.5t50 -76t12.5 -78q0 -86 -38 -152.5t-106.5 -111.5t-164.5 -67.5t-211 -22.5q-82 0 -154.5 16.5t-127 48t-86 76.5t-31.5 103q0 33 11 66.5t36.5 62t66.5 50t99 30.5 q-47 25 -64.5 56.5t-17.5 78.5q0 59 64.5 119.5t166.5 87.5q-106 35 -147 109.5t-41 164.5q0 70 25.5 136.5t77.5 118.5t133 84t194 32q43 0 78.5 -5.5t74.5 -12.5t85 -12t112 -5q27 0 64.5 2t76.5 6z" />
<glyph unicode="h" horiz-adv-x="1118" d="M680 889q-25 0 -63.5 -15.5t-80.5 -59.5t-81 -124t-60 -207l-86 -483h-243q12 45 25 110.5t27.5 133t26 128t17.5 95.5l125 735q4 29 7 50.5t3 37.5q0 43 -18.5 60.5t-73.5 17.5h-37t-45 -4l12 74q23 -4 44.5 -4h43.5q86 0 171 3t171 21l-69 -409q-10 -53 -17.5 -100.5 t-29.5 -125.5l8 -4q12 23 37.5 49.5t62.5 50t84 39t102 15.5q70 0 115 -18.5t70.5 -51.5t36 -75t10.5 -87q0 -41 -8.5 -84t-14.5 -84l-49 -309q-6 -43 -11 -74.5t-5 -54.5q0 -41 21.5 -55t86.5 -14q10 0 23.5 1t30.5 3l-15 -74q-35 4 -82 5t-82 1q-68 0 -125 -4t-129 -10 q16 66 28.5 138.5t23.5 137.5l51 309q12 72 23.5 135.5t11.5 104.5q0 76 -74 76z" />
<glyph unicode="i" horiz-adv-x="632" d="M416 1165q-61 0 -89 36t-28 83q0 31 12.5 63.5t34 58.5t53 42t70.5 16q61 0 90 -35.5t29 -82.5q0 -31 -11.5 -64t-33 -58.5t-54 -42t-73.5 -16.5zM242 690q4 25 8 55.5t4 47.5q0 49 -27.5 65t-66.5 16q-18 0 -37 -2t-37 -4l12 74q31 -4 63 -4h64q72 0 146.5 4t150.5 21 q-33 -178 -55.5 -307.5t-37.5 -218.5t-24.5 -144t-14.5 -88t-6 -47.5t-1 -20.5q0 -47 27.5 -59t68.5 -12q18 0 39 1t39 3l-14 -74q-18 2 -44 4t-52.5 3t-50 1h-42.5q-35 0 -64.5 -1t-57 -3t-56.5 -5t-65 -7q10 45 24.5 117.5t28.5 145.5t24.5 134t14.5 84z" />
<glyph unicode="j" horiz-adv-x="595" d="M379 137q-29 -170 -46.5 -283.5t-58.5 -183.5q-37 -59 -104.5 -96t-171.5 -37q-59 0 -114.5 17.5t-84.5 39.5l39 72q33 -23 68 -33t61 -10q43 0 67.5 30t38 73t19.5 91t12 87l140 801q10 57 10 88q0 43 -19.5 61t-74.5 18h-38t-44 -4l14 74q29 -4 68 -4h67q78 0 145.5 4 t149.5 21zM408 1161q-61 0 -89 36t-28 83q0 31 11 63.5t33.5 59.5t53.5 44t72 17q61 0 91 -36.5t30 -86.5q0 -31 -11.5 -63.5t-34 -58t-55 -42t-73.5 -16.5z" />
<glyph unicode="k" horiz-adv-x="1067" d="M287 1198q4 29 7 50.5t3 39.5q0 41 -21.5 60.5t-74.5 19.5h-36t-42 -4l10 74q29 -4 68 -4h67q78 0 146.5 3t150.5 21l-149 -876h24q31 0 65 14t66.5 35.5t64.5 47.5t62 46q49 35 78 60.5t29 54.5q0 33 -74 32q-27 0 -69 -6l12 76q27 -4 49 -4h45q88 0 160.5 4t150.5 21 q0 -29 -23.5 -59t-69.5 -66.5t-112.5 -81.5t-152.5 -107l-105 -74q55 0 79 -41.5t44 -97.5l105 -280q23 -53 53.5 -73t83.5 -20h20.5t20.5 3l-10 -72q-31 4 -62.5 7t-72.5 3q-57 0 -123 -6t-113 -16q-6 29 -13 52t-22 70q-29 86 -59.5 168t-57.5 168q-8 25 -14 40.5 t-14 23.5t-21.5 11t-33.5 3l-89 -518h-247q10 45 23 112.5t26.5 135t24 127t16.5 90.5z" />
<glyph unicode="l" horiz-adv-x="595" d="M301 1206q4 25 7 43.5t3 34.5q0 51 -22.5 67.5t-71.5 16.5h-34.5t-41.5 -4l13 74q29 -4 66.5 -4h66.5q76 0 144.5 3t150.5 21q-47 -268 -89 -503.5t-73 -414t-49.5 -286t-18.5 -117.5q0 -47 30 -59t71 -12q20 0 38.5 1t36.5 3l-14 -74q-37 4 -95.5 6t-94.5 2 q-35 0 -64 -1t-56.5 -3t-57 -5t-66.5 -7q10 45 25.5 117.5t28.5 145.5t24.5 134t15.5 84z" />
<glyph unicode="m" horiz-adv-x="1609" d="M948 776q43 98 123 147.5t178 49.5q68 0 110 -18.5t65.5 -51.5t30.5 -75t7 -87q0 -41 -5 -84t-11 -84l-51 -309q-8 -43 -14.5 -74.5t-6.5 -54.5q0 -41 23.5 -55t87.5 -14q12 0 25.5 1t29.5 3l-14 -74q-16 2 -38 3t-45.5 2t-45 2t-35.5 1q-74 0 -125 -5t-123 -11l103 585 q12 68 22 127.5t10 100.5t-16 65.5t-59 24.5q-25 0 -58 -16.5t-67.5 -60.5t-66.5 -124t-54 -207l-84 -483h-226l99 573q10 68 20.5 127.5t12.5 100.5q0 41 -16.5 65.5t-59.5 24.5q-25 0 -57.5 -16.5t-66.5 -60.5t-65.5 -124t-54.5 -207l-84 -483h-235q20 74 36.5 168 t32.5 180l64 354q12 63 12 103q0 68 -94 67h-37t-45 -4l14 74q29 -4 58.5 -4h58.5q66 0 129 5t125 20q-2 -45 -5 -81t-11 -98h8q43 84 111.5 136.5t172.5 52.5q70 0 110 -20.5t59.5 -50.5t24.5 -64.5t5 -61.5h8z" />
<glyph unicode="n" horiz-adv-x="1161" d="M475 791q47 84 122 133t187 49q125 0 180.5 -63.5t55.5 -155.5q0 -41 -7 -81t-14 -79l-53 -330q-8 -45 -14 -78.5t-6 -60.5q0 -37 27.5 -48t78.5 -11q16 0 31.5 1t28.5 3l-15 -74q-43 4 -87 6t-85 2q-59 0 -121.5 -3t-121.5 -13l104 585q12 68 20.5 127.5t8.5 100.5 t-17.5 64.5t-58.5 23.5q-25 0 -64 -15.5t-81 -59.5t-78.5 -123t-59.5 -208l-84 -483h-241q14 63 28.5 132t26.5 132.5t21.5 116.5t15.5 88l37 227q4 33 8 59.5t4 47.5q0 35 -18.5 52t-67.5 17h-36.5t-45.5 -4l12 74q29 -4 58.5 -4h56.5q66 0 127 3t143 22v-15 q-2 -37 -4 -68.5t-10 -86.5z" />
<glyph unicode="o" horiz-adv-x="1079" d="M471 -37q-186 0 -288.5 113.5t-102.5 306.5q0 133 38 242.5t106.5 188.5t164.5 122t213 43q186 0 292.5 -113.5t106.5 -306.5q0 -133 -38.5 -242.5t-108.5 -188.5t-167 -122t-216 -43zM461 27q63 0 117.5 55t93.5 146t61.5 207t22.5 239q0 113 -34 177t-114 64 q-63 0 -115.5 -55t-89 -146t-57 -207t-20.5 -239q0 -113 29.5 -177t105.5 -64z" />
<glyph unicode="p" horiz-adv-x="1136" d="M821 682q0 45 -4 85t-16.5 68.5t-35 46t-58.5 17.5q-49 0 -103.5 -54t-100.5 -144.5t-76 -208t-30 -244.5q0 -90 31 -145.5t104 -55.5q61 0 114.5 63.5t92.5 159t60.5 206t21.5 206.5zM340 78q4 -16 5 -37t1 -35q-4 -88 -24.5 -167t-20.5 -161q0 -37 22.5 -50t73.5 -13 h35t43 4l-10 -78q-47 4 -100.5 6t-106.5 2q-59 0 -115.5 -4t-105.5 -12l203 1172q6 33 7 54t1 40q0 41 -22.5 57t-69.5 16h-36t-42 -4l14 74q37 -4 72 -4h69q125 0 250 29q-2 -43 -4 -62.5t-3 -33t-4 -31t-7 -56.5l8 -4q61 94 129 143.5t176 49.5q135 0 210 -105.5 t75 -279.5q-2 -137 -41 -251t-104.5 -195t-153.5 -125t-191 -44q-86 0 -135 30t-88 79z" />
<glyph unicode="q" horiz-adv-x="1095" d="M539 -481q27 156 45 258t32.5 169.5t24.5 110.5t21 80h-11q-49 -74 -116.5 -119t-165.5 -45q-135 0 -214 98.5t-79 282.5q0 145 42 260t112.5 194t162.5 121t195 42q39 0 72.5 -11.5t63.5 -24.5t56.5 -24.5t50.5 -11.5q43 0 74 18.5t47 51.5l76 -35q-16 -66 -28.5 -134.5 t-24.5 -133.5l-160 -889q-12 -66 -12 -103t23.5 -50t74.5 -13h33.5t42.5 4l-12 -74q-29 4 -62 6t-61 2q-72 0 -148.5 -6t-154.5 -24zM317 270q0 -47 3.5 -87t13.5 -68.5t31.5 -45t56.5 -16.5q61 0 118.5 56.5t101.5 146.5t70.5 203.5t26.5 230.5q0 104 -29.5 156.5 t-105.5 52.5q-66 0 -118 -65.5t-90 -160.5t-58.5 -205t-20.5 -198z" />
<glyph unicode="r" horiz-adv-x="878" d="M461 778q41 94 112.5 142.5t163.5 48.5q53 0 88 -17.5t55.5 -44t29 -55.5t8.5 -51q0 -59 -36 -109.5t-100 -50.5q-51 0 -79.5 26.5t-28.5 67.5q0 12 5 38t5 48q0 18 -6 33.5t-25 15.5q-35 0 -68.5 -30.5t-62 -87t-53.5 -135t-41 -177.5l-78 -440h-244q10 37 20.5 80 t20 88t17.5 87t14 77l66 370q6 33 8 57.5t2 45.5q0 35 -17.5 51t-66.5 16h-41t-49 -4l14 74q33 -4 66 -4h65q61 0 121 5t119 20q-2 -45 -5 -84t-14 -101h15z" />
<glyph unicode="s" horiz-adv-x="894" d="M821 936q-14 -68 -27.5 -135.5t-13.5 -141.5h-75q2 12 3 25.5t1 28.5q0 39 -8.5 74.5t-29 63.5t-54 44t-85.5 16q-84 0 -129 -40t-45 -113q0 -47 32 -81t79 -62.5t101.5 -57.5t101.5 -66.5t78.5 -90t31.5 -126.5q0 -90 -38.5 -149t-98 -95t-129.5 -51.5t-131 -15.5 q-43 0 -91 3t-95 9.5t-89 15.5t-73 21q10 39 18 75t13.5 71t8.5 72.5t3 82.5h84q-6 -29 -6 -69q0 -35 9 -74t30.5 -70.5t58.5 -52t94 -20.5q98 0 147.5 49t49.5 123q0 51 -31 87t-78 66.5t-100 60t-100.5 67.5t-78 88t-30.5 124q0 80 34 134.5t92 88t135 49t163 15.5 q76 0 145.5 -11.5t122.5 -31.5z" />
<glyph unicode="t" horiz-adv-x="704" d="M86 866l14 76h29q166 0 243 82t99 236h82l-55 -318h254l-13 -76h-254l-100 -585q-6 -31 -10 -64t-4 -61q0 -39 10 -66t39 -27q33 0 77 32t91 126l61 -41q-49 -102 -136 -160.5t-179 -58.5q-96 0 -145.5 46t-49.5 147q0 20 2 42.5t6 47.5l109 622h-170z" />
<glyph unicode="u" horiz-adv-x="1155" d="M684 154q-45 -84 -118.5 -133.5t-186.5 -49.5q-70 0 -115 18.5t-70.5 50.5t-36 73t-10.5 88q0 41 5.5 82t13.5 82l55 309q16 88 17 129q0 41 -22.5 53t-88.5 12h-26.5t-26.5 -2l14 78q25 -2 57.5 -4t57.5 -2q78 0 152.5 7t150.5 18q-16 -80 -27.5 -144.5t-23.5 -144.5 l-52 -309q-10 -61 -21 -122t-11 -102t15 -63.5t56 -22.5q27 0 66 14.5t80 57.5t77.5 122t59.5 206l86 487h242q-10 -37 -19.5 -83t-18.5 -93t-17.5 -92t-14.5 -80l-51 -283q-4 -16 -7 -40.5t-7.5 -49t-6.5 -45t-2 -31.5q0 -35 19.5 -57t68.5 -22h37t45 4l-14 -74 q-33 2 -64.5 3t-64.5 1q-66 0 -131.5 -5t-128.5 -20q2 41 6 74t12 86q0 4 1 9.5t1 9.5h-12z" />
<glyph unicode="v" horiz-adv-x="1026" d="M551 233l207 330q14 25 34.5 58.5t38 69.5t29.5 70t12 60q0 31 -33.5 41t-86.5 10q-23 0 -42.5 -1t-31.5 -3l12 74q43 -6 84 -6q63 0 128 8t130 19q-2 -66 -54 -164.5t-163 -274.5l-346 -553h-113l-94 592q-14 90 -23.5 147.5t-21.5 92.5q-16 41 -37.5 55t-60.5 14 q-12 0 -27.5 -1t-34.5 -3l13 74q35 -4 67.5 -4h65.5q68 0 131 7t129 18q0 -96 12 -193.5t25.5 -192t26 -181.5t12.5 -163h12z" />
<glyph unicode="w" horiz-adv-x="1462" d="M985 -29h-90l-86 430q-10 45 -14 96.5t-7 100.5v21.5t3 21.5h-11l-325 -670h-90l-91 629q-12 82 -22 134t-27 83q-16 33 -41.5 44t-66.5 11h-29.5t-32.5 -4l13 74q31 -4 70.5 -4h68.5q72 0 127 5t125 20q8 -158 32.5 -308.5t24.5 -296.5q0 -39 -1 -63.5t-1 -34.5h8 l324 678h90q2 -14 11 -60.5t21.5 -109.5t27 -137t25.5 -144.5t18.5 -131t7.5 -95.5h10l149 295q37 72 70 143.5t33 122.5q0 31 -37 41t-78 10q-23 0 -41 -1t-31 -3l13 74q27 -4 51 -4h49q53 0 108.5 6t120.5 19q0 -33 -12 -70t-34.5 -86t-58.5 -117.5t-85 -163.5z" />
<glyph unicode="x" horiz-adv-x="1005" d="M303 268q-59 -59 -94 -96t-35 -68q0 -39 107 -38q18 0 38.5 1t36.5 3l-12 -74q-39 4 -80 6t-80 2q-53 0 -107 -2t-108 -14q2 70 45 114.5t90 85.5q35 31 107 97.5t188 165.5l-88 217q-20 47 -35.5 83.5t-34 63.5t-43 40t-65.5 13q-8 0 -17.5 -1t-19.5 -1l15 76 q33 -4 65.5 -6t67.5 -2q106 0 213 27q4 -53 22.5 -103.5t39 -97.5t36.5 -93t16 -89l113 102q55 49 81 89t28 62q0 23 -21.5 32t-58.5 9q-20 0 -42 -1t-42 -3l12 74q29 -2 68 -3t67 -1q55 0 108.5 5t116.5 15q0 -37 -19 -71.5t-50 -68.5t-69 -68.5t-77 -71.5l-170 -158 l97 -221q29 -70 52 -115t46 -71.5t45.5 -36.5t48.5 -10q6 0 22.5 2t22.5 2l-12 -74q-49 0 -89 4t-79 4q-47 0 -90 -3t-90 -13q-10 41 -19.5 66.5t-20.5 50t-25.5 56.5t-35.5 85q-10 27 -25 65.5t-22 81.5z" />
<glyph unicode="y" horiz-adv-x="1028" d="M391 -8l-131 583q-23 102 -38 162t-30.5 89.5t-34 37.5t-48.5 8q-8 0 -25.5 -2t-28.5 -2l13 74q27 -2 52 -3t52 -1q72 0 139.5 7t137.5 18q4 -127 20 -227.5t33.5 -185.5t32 -156.5t14.5 -139.5h12l193 309q45 72 81.5 138.5t36.5 119.5q0 29 -35.5 40t-76.5 11 q-25 0 -48.5 -1t-37.5 -3l12 74q23 -2 52.5 -3t49.5 -1q68 0 122.5 7t119.5 18q0 -35 -13 -74t-40 -91.5t-68 -119t-96 -154.5l-348 -553q-70 -125 -119 -209t-91 -136t-82 -74.5t-89 -22.5q-57 0 -88 35t-31 78q0 25 9.5 48t25.5 41.5t41 31t53 12.5q37 0 59.5 -4t49.5 -4 q25 0 54.5 23.5t70.5 92.5z" />
<glyph unicode="z" horiz-adv-x="907" d="M408 864q-96 -6 -147.5 -62.5t-78.5 -180.5l-71 8q18 57 27 95t15.5 70.5t10.5 67.5t12 86q20 -4 56 -6t81 -3t95.5 -2t101.5 -1q98 0 192.5 3t153.5 9l18 -57l-389 -565q-27 -39 -46 -70t-38.5 -59.5t-42 -56t-55.5 -58.5q41 -4 79 -4h79q74 0 120 20.5t75.5 56t46 87 t30.5 112.5l72 -8q-16 -63 -31 -125q-12 -53 -23.5 -113.5t-17.5 -113.5q-45 4 -139 8t-199 4q-100 0 -194.5 -3t-153.5 -9l-29 57l383 549q55 78 103.5 148.5t107.5 113.5q-23 2 -52.5 3t-63.5 1h-41.5t-46.5 -2z" />
<glyph unicode="{" horiz-adv-x="647" d="M481 805q-23 -86 -62.5 -139.5t-125.5 -75.5v-8q61 -16 89 -63.5t28 -106.5q0 -8 -2 -22.5t-9.5 -64t-25 -146.5t-47.5 -269q-2 -14 -3 -25.5t-1 -23.5q0 -59 29.5 -97t109.5 -55l-25 -57q-10 -2 -18 -3t-19 -1q-45 0 -96 15t-95 47t-73 82t-29 120q0 29 7 59 q25 133 40 216t24 131.5t13.5 68t5.5 27.5t0 12t-1 18q0 51 -32 81t-89 38q-8 8 -8 21q0 12 12 24q49 4 80.5 15.5t52 34t32 57.5t19.5 84l72 413q14 90 65.5 141.5t115 78t130 32.5t113.5 6l6 -57q-68 -6 -105.5 -24.5t-58 -45t-30 -60.5t-15.5 -71l-74 -407v0z" />
<glyph unicode="|" horiz-adv-x="548" d="M334 -512h-103v2048h103v-2048z" />
<glyph unicode="}" horiz-adv-x="649" d="M201 317q23 86 62.5 139.5t125.5 75.5v9q-61 16 -89 63t-28 107q0 31 7 65l77 436q2 14 4 27.5t2 28.5q0 47 -27.5 89t-113.5 56l25 57q35 0 91 -8t110.5 -31.5t93.5 -68.5t39 -119q0 -20 -3.5 -43.5t-7.5 -48.5l-75 -406q-2 -12 -3.5 -23t-1.5 -22q0 -47 28 -90t91 -51 q8 -8 8 -20t-12 -25q-49 -4 -80.5 -15.5t-52 -34t-32 -57t-19.5 -83.5l-72 -414q-16 -90 -65.5 -141.5t-113 -78t-130 -32.5t-113.5 -6l-8 57q68 6 105.5 24.5t58 45t30 60.5t15.5 71z" />
<glyph unicode="~" d="M940 573q-45 -90 -104.5 -126.5t-126.5 -36.5q-41 0 -91.5 15t-97.5 38q-51 25 -90 43t-92 18t-90 -32.5t-70 -79.5l-78 43q41 74 101.5 113.5t148.5 39.5q61 0 113.5 -23.5t95.5 -43.5q51 -23 90 -36t68 -13q51 0 80.5 31.5t64.5 86.5z" />
<glyph unicode="&#xa1;" horiz-adv-x="512" d="M92 -471q-66 0 -96.5 40t-30.5 105q0 76 38 173.5t84 211t87 242.5t47 270h101q-23 -94 -36.5 -180t-13.5 -174q0 -123 11.5 -219t11.5 -174q0 -61 -12.5 -115.5t-37 -94.5t-63.5 -62.5t-90 -22.5zM350 1026q61 0 99 -42t38 -103q0 -39 -15 -73t-39.5 -59.5t-57.5 -40 t-70 -14.5q-61 0 -99 42t-38 104q0 39 15.5 72.5t40 59t57 40t69.5 14.5z" />
<glyph unicode="&#xa2;" horiz-adv-x="968" d="M860 248q-66 -131 -160 -206t-229 -81l-35 -207h-78l37 211q-86 8 -144 44t-95 90.5t-52.5 123t-15.5 144.5q0 123 33 231.5t94 191t151.5 132t206.5 55.5l37 203h76l-37 -205q72 -6 123 -30.5t83 -56.5t47.5 -70t15.5 -70q0 -49 -13.5 -81t-32 -49.5t-40 -24.5t-35.5 -7 q-41 0 -77 22.5t-36 75.5q0 31 4 50.5t8 34.5t8.5 28.5t4.5 31.5q0 61 -72 78l-152 -872h17q31 0 68.5 12t78.5 41t79 76t69 117zM328 340q0 -78 17 -157t67 -120l149 842q-66 -18 -110.5 -86.5t-72.5 -156t-39 -176.5t-11 -146z" />
<glyph unicode="&#xa3;" horiz-adv-x="1204" d="M139 786h209q20 147 49 272.5t84.5 217.5t149.5 144.5t248 52.5q78 0 137 -19.5t99 -50.5t60.5 -70t20.5 -78q0 -55 -14.5 -91t-37 -56.5t-48 -28.5t-49.5 -8q-53 0 -82 33t-29 80q0 39 12.5 80t12.5 67q0 37 -23 52.5t-61 15.5q-84 0 -131.5 -53.5t-76 -140.5 t-48 -196.5t-43.5 -222.5h247l-14 -77h-244q-12 -80 -32.5 -156t-52 -144.5t-81 -133t-118.5 -123.5l6 -7q72 47 138.5 56.5t121.5 9.5q57 0 102 -8t83 -17.5t72 -17.5t68 -8q45 0 84 31.5t80 103.5l66 -29q-41 -86 -89 -140t-99.5 -85t-104.5 -43t-106 -12q-90 0 -188.5 17 t-209.5 17q-63 0 -128.5 -10t-137.5 -37l-33 80q59 39 105.5 88t84.5 124t70.5 182.5t65.5 261.5h-209z" />
<glyph unicode="&#xa4;" horiz-adv-x="1255" d="M1044 174l-137 162q-49 -39 -118.5 -59.5t-122.5 -20.5q-27 0 -60 5t-66.5 14.5t-64.5 24.5t-55 34l-133 -160l-105 102l150 140q-45 57 -67.5 124.5t-22.5 137.5q0 145 90 258l-150 145l105 101l135 -160q49 39 120.5 58.5t125.5 19.5q51 0 121.5 -19.5t121.5 -58.5 l133 160l105 -101l-150 -143q45 -53 68 -120.5t23 -139.5t-23 -137.5t-70 -120.5l150 -144zM666 975q-106 0 -172 -82t-66 -215q0 -135 66.5 -217t173.5 -82q106 0 170.5 82t64.5 217q0 133 -64 215t-173 82z" />
<glyph unicode="&#xa5;" horiz-adv-x="1370" d="M569 500l25 133h-266l16 86h217l-170 463q-14 39 -23.5 72.5t-21.5 58t-33.5 38t-58.5 13.5q-10 0 -20.5 -1t-22.5 -3l16 80q78 -6 163 -9.5t159 -3.5t135 3.5t143 9.5l-16 -80q-23 2 -32 3t-29 1q-63 0 -95 -13.5t-32 -66.5q0 -16 6 -34.5t16 -47.5l111 -321 q14 -37 24.5 -75t14.5 -87h12l311 455q33 47 51.5 79.5t18.5 57.5q0 53 -113 53h-38t-48 -4l15 80q78 -6 132 -9.5t128 -3.5q37 0 64.5 1.5t51 3.5t46 4t53.5 4l-17 -80q-8 0 -20 1t-21 1q-31 0 -52 -8t-42.5 -28.5t-48.5 -58.5t-66 -96l-311 -452h215l-16 -86h-256 l-25 -133h260l-18 -86h-258l-23 -133q-8 -41 -12 -71t-4 -52q0 -57 24.5 -73.5t71.5 -16.5q12 0 43 1t60 5l-17 -80q-63 4 -107 7t-82 4t-74 1h-81h-77.5t-66.5 -1t-76 -4t-106 -7l15 80q23 -4 38 -5t31 -1q35 0 62 6t46 27.5t34.5 64.5t27.5 115l23 133h-266l18 86h264z " />
<glyph unicode="&#xa6;" horiz-adv-x="555" d="M348 -338h-110v752h110v-752zM348 692h-110v752h110v-752z" />
<glyph unicode="&#xa7;" horiz-adv-x="1032" d="M106 526q0 53 19.5 105.5t58.5 97.5t94.5 80t127.5 55q-55 41 -93.5 102.5t-38.5 166.5q0 78 32 140t84 106t118.5 67.5t136.5 23.5q68 0 130.5 -11t111.5 -38.5t78.5 -76t29.5 -121.5q0 -25 -8 -51.5t-25.5 -49t-43 -38t-60.5 -15.5q-59 0 -91 34t-32 87q0 27 4 42 t10.5 27.5t10.5 28t4 41.5q0 35 -34 53.5t-66 18.5q-61 0 -114.5 -50.5t-53.5 -148.5q0 -55 20.5 -94t49 -65.5t61 -44t55.5 -31.5q66 -39 118 -71t88 -70t54.5 -86t18.5 -117q0 -51 -21.5 -102.5t-61.5 -96.5t-95.5 -81t-120.5 -56q66 -43 112.5 -109.5t46.5 -181.5 q0 -80 -34.5 -146.5t-91 -112.5t-128 -71.5t-145.5 -25.5t-141.5 15t-119.5 47t-83 84t-31 126q0 27 7 55.5t23.5 53t43 40t67.5 15.5q66 0 101 -37t35 -90q0 -29 -6.5 -45.5t-12.5 -30.5t-12 -31.5t-6 -44.5q0 -43 34.5 -62.5t79.5 -19.5q51 0 89 17.5t60.5 46t34 67.5 t11.5 80q0 57 -24.5 98.5t-58.5 71t-72 49t-62 33.5q-72 41 -123 80t-85 79t-49.5 86t-15.5 103zM338 612q0 -61 22.5 -103t58.5 -74t82 -56.5t93 -50.5q20 10 42.5 24.5t43 39t34 60t13.5 89.5q0 61 -22.5 102t-59.5 71.5t-83 55.5t-91 51q-20 -8 -44 -22.5t-43 -38 t-32.5 -59.5t-13.5 -89z" />
<glyph unicode="&#xa8;" horiz-adv-x="819" d="M354 1122q-57 0 -81.5 35t-24.5 76q0 55 38 102t103 47q57 0 82 -34.5t25 -75.5q0 -55 -38 -102.5t-104 -47.5zM717 1122q-57 0 -82 35t-25 76q0 55 38 102t104 47q57 0 81.5 -34.5t24.5 -75.5q0 -55 -37.5 -102.5t-103.5 -47.5z" />
<glyph unicode="&#xa9;" horiz-adv-x="1617" d="M1116 1126q0 -39 2 -65.5t3 -48t4 -42t8 -44.5l-64 -4q-2 57 -17.5 93t-40 56.5t-55 27.5t-63.5 7q-109 0 -172.5 -85t-63.5 -269q0 -346 230 -346q66 0 119 37.5t81 101.5l66 -27q-47 -92 -122 -135t-169 -43q-88 0 -159.5 25.5t-124 77t-81 129t-28.5 180.5 q0 98 33 173.5t89 127t134 77t168 25.5q76 0 130 -9.5t93 -19.5zM150 715q0 154 55 282.5t150.5 223t223.5 146.5t273 52t274 -52t224.5 -146.5t150.5 -223.5t55 -282q0 -154 -55 -283t-150.5 -222t-224.5 -145.5t-274 -52.5t-273 52.5t-223.5 145.5t-150.5 222t-55 283z M221 715q0 -129 50.5 -244t136.5 -201t200.5 -136t243.5 -50q131 0 245.5 50t200.5 136t136.5 201t50.5 244q0 131 -50.5 245.5t-136.5 200.5t-200.5 136.5t-245.5 50.5q-129 0 -243.5 -50.5t-200.5 -136.5t-136.5 -200.5t-50.5 -245.5z" />
<glyph unicode="&#xaa;" horiz-adv-x="780" d="M647 864q-47 0 -70.5 30t-25.5 71q-20 -35 -63.5 -69t-114.5 -34q-49 0 -81 12.5t-51.5 33t-27.5 44t-8 45.5q0 37 13 73t53 65.5t111 48t185 20.5q6 37 10.5 61.5t5.5 41t2 28t1 23.5q0 29 -11.5 49t-46.5 20q-33 0 -49 -13t-23 -33.5t-10.5 -44t-11.5 -44t-25.5 -34 t-52.5 -13.5q-16 0 -41.5 15.5t-25.5 52.5q0 66 63.5 110.5t184.5 44.5q102 0 145 -39.5t43 -111.5q0 -12 -1 -25.5t-3 -27.5l-41 -246q-2 -6 -4 -19.5t-2 -25.5q0 -27 16 -27q18 0 33.5 19.5t28.5 35.5l39 -28q-31 -55 -70 -82t-74 -27zM559 1159h-12q-86 0 -136.5 -43 t-50.5 -115q0 -29 11.5 -55t46.5 -26q33 0 54.5 17t36.5 43t23.5 56.5t14.5 59.5z" />
<glyph unicode="&#xab;" horiz-adv-x="901" d="M92 492q0 25 14.5 48t57.5 65t119.5 112.5t201.5 189.5l54 -43l-232 -362l107 -387l-58 -33l-217 299q-23 31 -34 54.5t-13 56.5zM424 492q0 25 14.5 48t57.5 65t119.5 112.5t201.5 189.5l53 -43l-233 -362l106 -387l-55 -33l-217 299q-23 33 -35 55.5t-12 55.5z" />
<glyph unicode="&#xac;" d="M864 608h-790v90h889v-479h-99v389z" />
<glyph unicode="&#xad;" horiz-adv-x="811" d="M176 633h514l-20 -121h-514z" />
<glyph unicode="&#xae;" horiz-adv-x="1159" d="M788 748q-4 14 -4 20t-4 16l-37 129q-6 18 -9 34t-12 28t-26.5 19t-50.5 7q-10 0 -20 -2v-143q0 -45 8 -55t29 -10h13t27 2v-43q-78 6 -129 6q-57 0 -127 -6v43q16 -2 23.5 -2h11.5q23 0 32 10t9 55v332q0 33 -10 44t-35 11h-14t-19 -2v45q31 -4 62 -5t55 -1q27 0 53.5 2 t65.5 2q61 0 99 -12t59.5 -30.5t28.5 -42t7 -44.5q0 -51 -31.5 -85t-92.5 -44v-6q45 0 63 -24.5t33 -65.5l33 -96q8 -25 20 -34t39 -9h13t16 2v-43q-23 2 -39.5 3t-32.5 1t-46 -1t-61 -5zM766 1155q0 94 -86 94q-39 0 -47 -11t-8 -50v-146q6 -2 14 -2h12q63 0 89 31t26 84z M180 989q0 109 38 198t104.5 152.5t154.5 98.5t191 35q100 0 189 -35t155.5 -98.5t104.5 -152.5t38 -198t-38 -198t-104.5 -152.5t-155.5 -98t-189 -34.5q-102 0 -190.5 36t-155 100.5t-104.5 152.5t-38 194zM250 989q0 -86 32.5 -162.5t89 -133t133.5 -89.5t163 -33 q88 0 163.5 33t133 89.5t90 133t32.5 162.5q0 88 -32.5 164t-90 133t-133 90t-163.5 33q-86 0 -163 -33t-133.5 -90t-89 -133t-32.5 -164z" />
<glyph unicode="&#xaf;" horiz-adv-x="819" d="M268 1313h561l-20 -123h-561z" />
<glyph unicode="&#xb0;" horiz-adv-x="786" d="M221 1171q0 66 23.5 120.5t63.5 94t92.5 62t111.5 22.5q63 0 116.5 -22.5t92.5 -62t60.5 -94t21.5 -120.5t-21.5 -120t-60.5 -92.5t-92.5 -60t-116.5 -21.5t-116.5 21.5t-92.5 60t-60.5 92.5t-21.5 120zM324 1171q0 -90 50 -144t138 -54t138 54t50 144t-50 146.5 t-138 56.5t-138 -56.5t-50 -146.5z" />
<glyph unicode="&#xb1;" d="M545 981v-360h352v-91h-352v-362h-103v362h-354v91h354v360h103zM88 0v90h809v-90h-809z" />
<glyph unicode="&#xb2;" horiz-adv-x="716" d="M104 569q4 80 30 139.5t62.5 107.5t82 85t90.5 70l57 43q33 25 62.5 50.5t52 56t36 70.5t13.5 95q0 51 -26.5 90t-80.5 39q-86 0 -86 -90q0 -12 2 -22.5t2 -24.5q0 -47 -26.5 -75.5t-71.5 -28.5q-37 0 -65.5 21.5t-28.5 66.5q0 80 73.5 141t225.5 61q63 0 110.5 -16 t80 -44t49 -61.5t16.5 -68.5q0 -61 -18.5 -103.5t-49 -72t-71.5 -53t-86 -48.5q-57 -33 -109.5 -65.5t-92.5 -67.5t-67.5 -73.5t-36.5 -83.5q33 6 57.5 7t47.5 1h178q45 0 70.5 10t39 27.5t18.5 41t9 52.5l56 -15q-23 -63 -37.5 -125.5t-24.5 -134.5q-61 6 -123.5 8.5 t-128.5 2.5q-144 -1 -291 -13z" />
<glyph unicode="&#xb3;" horiz-adv-x="724" d="M395 1270q0 -37 -26.5 -68t-73.5 -31q-39 0 -62.5 27t-23.5 64q0 39 22.5 75.5t62.5 65.5t95 45t121 16q68 0 114 -18.5t74.5 -48t41 -65.5t12.5 -70q0 -68 -22.5 -112t-54.5 -69.5t-67 -38t-59 -18.5v-8q25 0 53.5 -14.5t53 -39t41 -58.5t16.5 -75q0 -84 -32 -138 t-80 -87t-104.5 -45t-105.5 -12q-125 0 -195.5 50t-70.5 124q0 10 3 30.5t13.5 42t33 37t58.5 15.5q41 0 61.5 -24.5t20.5 -55.5q0 -33 -11 -55.5t-11 -57.5t29.5 -45t58.5 -10q66 0 113 63.5t47 180.5q0 51 -12.5 79.5t-34 43t-48 17.5t-53.5 3h-31l9 62h28q96 0 141.5 58 t45.5 169q0 53 -23.5 97t-79.5 44q-43 0 -68.5 -19.5t-25.5 -54.5q0 -16 3 -34.5t3 -36.5z" />
<glyph unicode="&#xb4;" horiz-adv-x="819" d="M389 1085l-49 50q53 68 99 128t88 104t80 70.5t75 26.5q27 0 54.5 -15t27.5 -60q0 -25 -15.5 -45.5t-38 -38t-48 -34t-48.5 -30.5z" />
<glyph unicode="&#xb5;" horiz-adv-x="1251" d="M276 674q16 88 17 129q0 41 -22.5 53t-88.5 12h-23.5t-29.5 -2l14 76q27 -2 53.5 -3t53.5 -1q74 0 148.5 7t154.5 18q-16 -80 -27.5 -144.5t-23.5 -144.5l-47 -297q-10 -59 -17.5 -107.5t-7.5 -89.5q0 -47 17.5 -71.5t64.5 -24.5q37 0 77 18.5t76.5 61.5t66.5 111.5 t48 168.5l86 496h234q-10 -37 -20.5 -83t-19.5 -93t-16.5 -91t-13.5 -79l-51 -283q-4 -16 -7 -40.5t-7 -49t-6.5 -45t-2.5 -31.5q0 -35 19.5 -57t68.5 -22h37t45 4l-14 -74q-33 2 -60.5 3t-60.5 1q-66 0 -129 -5t-127 -20q2 45 5 81t12 98h-13q-23 -41 -46 -71t-55 -48.5 t-73 -26.5t-96 -8q-53 0 -113 27l-80 -457h-196z" />
<glyph unicode="&#xb6;" horiz-adv-x="1200" d="M539 516q-205 0 -305.5 81t-100.5 228q0 106 37 189.5t104.5 140.5t164 86t214.5 29h611l-15 -82h-172l-270 -1526h-102l270 1526h-213l-270 -1526h-103l150 854v0z" />
<glyph unicode="&#xb7;" horiz-adv-x="573" d="M279 381q-61 0 -100.5 40t-39.5 101q0 39 14.5 72t39 57.5t57.5 39t69 14.5q61 0 100.5 -40t39.5 -102q0 -39 -14.5 -71.5t-39 -57t-57 -39t-69.5 -14.5z" />
<glyph unicode="&#xb8;" horiz-adv-x="819" d="M123 -313q23 -14 47.5 -22.5t48.5 -8.5q10 0 24.5 2t28 8t23.5 18.5t12 30.5q0 20 -13 32.5t-28.5 25t-29 28t-13.5 41.5q0 53 51.5 97.5t149.5 93.5l20 -31q-51 -41 -76.5 -70.5t-25.5 -52.5q0 -18 15.5 -32.5t35 -32t34.5 -41t15 -60.5q0 -33 -16 -57.5t-43 -41.5 t-59.5 -25.5t-63.5 -8.5q-39 0 -89 8.5t-79 32.5z" />
<glyph unicode="&#xb9;" horiz-adv-x="600" d="M479 745q-2 -10 -3 -23t-1 -24q0 -41 15.5 -56t52.5 -15q23 0 57 6l-10 -60q-39 2 -67.5 4.5t-53.5 3.5t-47.5 1h-50.5h-51.5t-47 -1t-53.5 -3.5t-69 -4.5l10 58q14 -2 25.5 -3t21.5 -1q53 0 75.5 25.5t36.5 97.5l46 243q12 63 27.5 133t15.5 127q0 29 -11.5 39.5 t-27.5 10.5q-6 0 -14.5 -2.5t-27 -8.5t-50 -18t-82.5 -33l-23 62q68 20 121 37.5t98 36t85 40t81 51.5l64 -24q-16 -41 -28.5 -98.5t-21.5 -104.5l-92 -496v0z" />
<glyph unicode="&#xba;" horiz-adv-x="768" d="M463 856q-117 0 -179.5 68.5t-62.5 185.5q0 164 86 261t234 97q115 0 179 -68.5t64 -185.5q0 -164 -87 -261t-234 -97zM457 899q37 0 67.5 33t53 87t35 122.5t12.5 140.5q0 66 -18.5 104.5t-61.5 38.5q-37 0 -66.5 -32.5t-51 -87t-34 -124t-12.5 -141.5 q0 -66 16.5 -103.5t59.5 -37.5z" />
<glyph unicode="&#xbb;" horiz-adv-x="901" d="M819 498q0 -25 -14 -48.5t-57 -65.5t-120 -112.5t-202 -189.5l-53 43l231 362l-106 387l57 33l217 -299q23 -33 34 -56t13 -54zM487 498q0 -25 -14 -48.5t-57 -65.5t-120 -112.5t-202 -189.5l-53 43l233 362l-106 387l55 33l217 -299q23 -33 35 -55t12 -55z" />
<glyph unicode="&#xbc;" horiz-adv-x="1683" d="M1262 229h-236h-52.5t-62.5 -2l17 113l516 545l90 -29q-10 -41 -16.5 -71.5t-11.5 -56.5t-9 -49.5t-8 -49.5l-53 -299h47h51.5t56.5 2l-20 -105q-29 2 -56.5 2h-50.5h-45q-10 -59 -15 -80.5t-5 -42.5q0 -29 14 -41t53 -12q12 0 25.5 1t30.5 3l-13 -61q-39 2 -65.5 4 t-49 3t-45 1h-51.5h-49t-42.5 -1t-50.5 -3t-69 -4l13 61q16 -2 28.5 -3t24.5 -1q27 0 43 6.5t26.5 20.5t16.5 37.5t12 58.5zM1278 330l35 178q8 43 20.5 86t28.5 111h-8l-363 -377q37 2 59.5 2h30.5h197zM510 745q-2 -10 -3 -23t-1 -24q0 -41 15.5 -56t51.5 -15q23 0 58 6 l-10 -60q-39 2 -68 4.5t-53.5 3.5t-47 1h-51.5h-51t-46.5 -1t-53.5 -3.5t-70 -4.5l10 58q14 -2 25.5 -3t22.5 -1q53 0 75.5 25.5t36.5 97.5l45 243q12 63 27.5 133t15.5 127q0 29 -11 39.5t-28 10.5q-6 0 -14 -2.5t-26.5 -8.5t-50.5 -18t-83 -33l-22 62q68 20 121 37.5 t98 36t85 40t81 51.5l63 -24q-16 -41 -28.5 -98.5t-20.5 -104.5zM1321 1548l88 -45l-981 -1716l-90 43z" />
<glyph unicode="&#xbd;" horiz-adv-x="1691" d="M510 745q-2 -10 -3 -23t-1 -24q0 -41 15.5 -56t51.5 -15q23 0 58 6l-10 -60q-39 2 -68 4.5t-53.5 3.5t-47 1h-51.5h-51t-46.5 -1t-53.5 -3.5t-70 -4.5l10 58q14 -2 25.5 -3t22.5 -1q53 0 75.5 25.5t36.5 97.5l45 243q12 63 27.5 133t15.5 127q0 29 -11 39.5t-28 10.5 q-6 0 -14 -2.5t-26.5 -8.5t-50.5 -18t-83 -33l-22 62q68 20 121 37.5t98 36t85 40t81 51.5l63 -24q-16 -41 -28.5 -98.5t-20.5 -104.5zM967 -8q4 80 29.5 139t62.5 107.5t82 85t90 69.5l57 43q33 25 62.5 50.5t52 56t36 70.5t13.5 96q0 51 -26.5 90t-79.5 39q-86 0 -86 -90 q0 -12 2 -22.5t2 -25.5q0 -47 -27 -75.5t-72 -28.5q-37 0 -65.5 21.5t-28.5 66.5q0 80 74 141.5t225 61.5q63 0 110.5 -16.5t80 -44t49 -61.5t16.5 -69q0 -61 -18.5 -103t-49 -71.5t-71.5 -53.5t-86 -48q-57 -33 -109.5 -65.5t-92.5 -67.5t-67.5 -74t-35.5 -84q33 6 57.5 7 t46.5 1h178q45 0 71 10.5t39 28t18 41t10 51.5l55 -14q-23 -63 -37 -125.5t-25 -134.5q-61 6 -123.5 8t-128.5 2q-143 0 -290 -12zM1286 1548l88 -45l-981 -1716l-90 43z" />
<glyph unicode="&#xbe;" horiz-adv-x="1652" d="M1237 227h-236h-52t-62 -2l16 113l516 545l90 -29q-10 -41 -16 -71.5t-11 -56.5t-9.5 -49.5t-8.5 -49.5l-53 -299h47h51.5t57.5 2l-21 -105q-29 2 -56.5 2h-49.5h-45q-10 -59 -15.5 -80.5t-5.5 -42.5q0 -29 14.5 -41t53.5 -12q12 0 25.5 1t29.5 3l-12 -61q-39 2 -65.5 4 t-49 3t-45 1h-51.5h-49.5t-43 -1t-50 -3t-68.5 -4l12 61q16 -2 28.5 -3t24.5 -1q27 0 43.5 6t26.5 20.5t16.5 38t12.5 58.5zM1253 328l35 178q8 43 20.5 86t28.5 110h-8l-362 -376q37 2 59.5 2h30.5h196zM401 1270q0 -37 -26.5 -68t-73.5 -31q-39 0 -62.5 27t-23.5 64 q0 39 22.5 75.5t62.5 65.5t95.5 45t120.5 16q68 0 114 -18.5t74.5 -48t41 -65.5t12.5 -70q0 -68 -22.5 -112t-54.5 -69.5t-66.5 -38t-59.5 -18.5v-8q25 0 53.5 -14.5t53 -39t41 -58.5t16.5 -75q0 -84 -32 -138t-80 -87t-104.5 -45t-105.5 -12q-125 0 -195.5 50t-70.5 124 q0 10 3 30.5t13.5 42t33 37t59.5 15.5q41 0 61.5 -24.5t20.5 -55.5q0 -33 -11.5 -55.5t-11.5 -57.5t29.5 -45t58.5 -10q66 0 113 63.5t47 180.5q0 51 -12.5 79.5t-34 43t-48 17.5t-53.5 3h-30l8 62h29q96 0 141 58t45 169q0 53 -23.5 97t-79.5 44q-43 0 -68.5 -19.5 t-25.5 -54.5q0 -16 3 -34.5t3 -36.5zM1298 1548l88 -45l-980 -1716l-91 43z" />
<glyph unicode="&#xbf;" horiz-adv-x="946" d="M733 891q0 -35 -13 -69t-38 -60.5t-58.5 -43t-72.5 -16.5q-55 0 -90 38t-35 96q0 39 14.5 73.5t39 60t57 41t71.5 15.5q59 0 92 -38t33 -97zM594 573q-4 -66 -18.5 -120t-36 -102t-50 -91t-63.5 -88q-16 -20 -52 -57t-72 -88.5t-63.5 -115t-27.5 -134.5q0 -33 6 -64.5 t21.5 -56.5t44 -40t75.5 -15q88 0 119 46t31 113q0 18 -3 35t-3 33q0 86 41 131t108 45q53 0 92 -42t39 -99q0 -66 -28.5 -126.5t-85 -106.5t-142.5 -73.5t-200 -27.5q-92 0 -162 21.5t-118 59.5t-72.5 90t-24.5 112q0 102 38 168.5t97 115.5t128 90t132.5 92.5t109.5 120 t58 174.5h82z" />
<glyph unicode="&#xc0;" horiz-adv-x="1413" d="M1192 240q16 -78 44 -124t77 -46q10 0 24.5 1t26.5 3l-16 -80q-78 6 -157 9t-153 3q-152 0 -313 -12l16 80q23 -4 40.5 -4h43.5q20 0 42 1t39.5 9t28.5 23.5t11 43.5q0 23 -5 42.5t-9 41.5l-58 291h-495l-150 -266q-23 -41 -35 -72.5t-12 -54.5q0 -29 27 -44t94 -15h35.5 t42.5 4l-16 -80q-4 0 -7.5 1t-7.5 1q-35 2 -63.5 4t-54 4t-54 2h-63.5q-37 0 -64.5 -1t-52.5 -2t-48.5 -4t-51.5 -5l16 80q10 -2 19.5 -2h19.5q31 0 53.5 8t41 27.5t38.5 53.5t49 87l674 1222h111zM418 594h440l-80 389q-4 27 -12 79t-12 128h-11zM737 1686 q-35 20 -67.5 47.5t-32.5 60.5q0 51 25.5 70.5t56.5 19.5q41 0 82 -24.5t82 -65.5t85 -96.5t91 -116.5l-49 -47z" />
<glyph unicode="&#xc1;" horiz-adv-x="1413" d="M1192 240q16 -78 44 -124t77 -46q10 0 24.5 1t26.5 3l-16 -80q-78 6 -157 9t-153 3q-152 0 -313 -12l16 80q23 -4 40.5 -4h43.5q20 0 42 1t39.5 9t28.5 23.5t11 43.5q0 23 -5 42.5t-9 41.5l-58 291h-495l-150 -266q-23 -41 -35 -72.5t-12 -54.5q0 -29 27 -44t94 -15h35.5 t42.5 4l-16 -80q-4 0 -7.5 1t-7.5 1q-35 2 -63.5 4t-54 4t-54 2h-63.5q-37 0 -64.5 -1t-52.5 -2t-48.5 -4t-51.5 -5l16 80q10 -2 19.5 -2h19.5q31 0 53.5 8t41 27.5t38.5 53.5t49 87l674 1222h111zM418 594h440l-80 389q-4 27 -12 79t-12 128h-11zM717 1536l-33 57 q57 57 114.5 109.5t111 92.5t99.5 64.5t81 24.5q29 0 57.5 -15.5t28.5 -56.5q0 -29 -13.5 -50t-34 -37.5t-46 -29t-50.5 -22.5z" />
<glyph unicode="&#xc2;" horiz-adv-x="1413" d="M1192 240q16 -78 44 -124t77 -46q10 0 24.5 1t26.5 3l-16 -80q-78 6 -157 9t-153 3q-152 0 -313 -12l16 80q23 -4 40.5 -4h43.5q20 0 42 1t39.5 9t28.5 23.5t11 43.5q0 23 -5 42.5t-9 41.5l-58 291h-495l-150 -266q-23 -41 -35 -72.5t-12 -54.5q0 -29 27 -44t94 -15h35.5 t42.5 4l-16 -80q-4 0 -7.5 1t-7.5 1q-35 2 -63.5 4t-54 4t-54 2h-63.5q-37 0 -64.5 -1t-52.5 -2t-48.5 -4t-51.5 -5l16 80q10 -2 19.5 -2h19.5q31 0 53.5 8t41 27.5t38.5 53.5t49 87l674 1222h111zM418 594h440l-80 389q-4 27 -12 79t-12 128h-11zM582 1587l190 199 q51 53 80 75.5t63 22.5q33 0 57.5 -29.5t67.5 -89.5l127 -178l-55 -55l-219 188l-260 -188z" />
<glyph unicode="&#xc3;" horiz-adv-x="1413" d="M1192 240q16 -78 44 -124t77 -46q10 0 24.5 1t26.5 3l-16 -80q-78 6 -157 9t-153 3q-152 0 -313 -12l16 80q23 -4 40.5 -4h43.5q20 0 42 1t39.5 9t28.5 23.5t11 43.5q0 23 -5 42.5t-9 41.5l-58 291h-495l-150 -266q-23 -41 -35 -72.5t-12 -54.5q0 -29 27 -44t94 -15h35.5 t42.5 4l-16 -80q-4 0 -7.5 1t-7.5 1q-35 2 -63.5 4t-54 4t-54 2h-63.5q-37 0 -64.5 -1t-52.5 -2t-48.5 -4t-51.5 -5l16 80q10 -2 19.5 -2h19.5q31 0 53.5 8t41 27.5t38.5 53.5t49 87l674 1222h111zM418 594h440l-80 389q-4 27 -12 79t-12 128h-11zM543 1640q20 37 45.5 72 t56.5 62.5t67 45t76 17.5q51 0 81 -17.5t54.5 -39t51 -39t72.5 -17.5q39 0 70.5 32t58.5 83l69 -47q-25 -37 -48 -73t-53 -64.5t-67 -47t-88 -18.5q-41 0 -70.5 17.5t-56 39t-55.5 39t-68 17.5q-37 0 -69.5 -30t-55.5 -77z" />
<glyph unicode="&#xc4;" horiz-adv-x="1413" d="M1192 240q16 -78 44 -124t77 -46q10 0 24.5 1t26.5 3l-16 -80q-78 6 -157 9t-153 3q-152 0 -313 -12l16 80q23 -4 40.5 -4h43.5q20 0 42 1t39.5 9t28.5 23.5t11 43.5q0 23 -5 42.5t-9 41.5l-58 291h-495l-150 -266q-23 -41 -35 -72.5t-12 -54.5q0 -29 27 -44t94 -15h35.5 t42.5 4l-16 -80q-4 0 -7.5 1t-7.5 1q-35 2 -63.5 4t-54 4t-54 2h-63.5q-37 0 -64.5 -1t-52.5 -2t-48.5 -4t-51.5 -5l16 80q10 -2 19.5 -2h19.5q31 0 53.5 8t41 27.5t38.5 53.5t49 87l674 1222h111zM418 594h440l-80 389q-4 27 -12 79t-12 128h-11zM598 1702q0 49 39 92 t98 43q49 0 80 -31.5t31 -79.5q0 -55 -40 -96t-97 -41q-51 0 -81 33t-30 80zM944 1702q0 49 39 92t98 43q49 0 81 -31.5t32 -79.5q0 -55 -40 -96t-99 -41q-49 0 -80 33t-31 80z" />
<glyph unicode="&#xc5;" horiz-adv-x="1413" d="M1192 240q16 -78 44 -124t77 -46q10 0 24.5 1t26.5 3l-16 -80q-78 6 -157 9t-153 3q-152 0 -313 -12l16 80q23 -4 40.5 -4h43.5q20 0 42 1t39.5 9t28.5 23.5t11 43.5q0 23 -5 42.5t-9 41.5l-58 291h-495l-150 -266q-23 -41 -35 -72.5t-12 -54.5q0 -29 27 -44t94 -15h35.5 t42.5 4l-16 -80q-4 0 -7.5 1t-7.5 1q-35 2 -63.5 4t-54 4t-54 2h-63.5q-37 0 -64.5 -1t-52.5 -2t-48.5 -4t-51.5 -5l16 80q10 -2 19.5 -2h19.5q31 0 53.5 8t41 27.5t38.5 53.5t49 87l674 1222h111zM418 594h440l-80 389q-4 27 -12 79t-12 128h-11zM891 1896q86 0 133 -54 t47 -126q0 -76 -47 -129t-133 -53q-82 0 -131 53t-49 129q0 72 49 126t131 54zM803 1716q0 -47 25.5 -74.5t62.5 -27.5t62.5 27.5t25.5 74.5q0 45 -25.5 70.5t-62.5 25.5t-62.5 -25.5t-25.5 -70.5z" />
<glyph unicode="&#xc6;" horiz-adv-x="1861" d="M719 68q35 0 61.5 6t46 27.5t35 64.5t27.5 115l69 397h-448l-195 -320q-39 -63 -73.5 -121.5t-34.5 -99.5q0 -31 26.5 -49t92.5 -18h39.5t46.5 4l-17 -80q-78 6 -138 9t-134 3q-51 0 -113.5 -4t-115.5 -8l16 80q8 -2 19.5 -2h19.5q31 0 53.5 9t44 31.5t47 59.5t60.5 92 l569 871q41 63 67.5 109t26.5 75q0 49 -90 49q-20 0 -45 -2t-53 -6l14 80q66 -4 146.5 -6t163.5 -4.5t159 -2.5h133q147 0 314 3.5t307 9.5q-10 -55 -16.5 -99.5t-9.5 -85.5t-5 -87t-4 -107h-84q4 33 7 60.5t3 49.5q0 68 -15.5 107t-45 57.5t-72.5 22.5t-100 4 q-76 0 -117 -5t-62.5 -22.5t-29.5 -51.5t-19 -91l-75 -438q70 0 122 5t89.5 26.5t63.5 67.5t42 130l76 -8q-47 -152 -66.5 -268.5t-27.5 -237.5h-76q4 27 8 52.5t4 45.5q0 76 -51 96.5t-127 20.5q-16 0 -33.5 -1t-36.5 -1l-80 -442q-6 -35 -11 -60.5t-5 -44.5q0 -39 31 -49 t123 -10t157.5 7t112.5 41t83 102.5t67 191.5l77 -17q-16 -61 -29.5 -110t-25.5 -96.5t-24.5 -95.5t-24.5 -105q-80 2 -146.5 5t-129 4t-127 2t-138.5 1q-119 0 -248 -2t-245 -10l16 80q43 -6 78 -6zM567 750h406l102 608q-47 0 -76.5 -7.5t-52 -23.5t-43 -46t-47.5 -73z " />
<glyph unicode="&#xc7;" horiz-adv-x="1253" d="M459 -313q23 -14 47 -22.5t49 -8.5q10 0 24.5 2t28 8t23.5 18.5t12 30.5q0 20 -13.5 32.5t-28.5 25t-28.5 28t-13.5 41.5q0 63 86 125q-115 10 -209 57.5t-160.5 127t-102.5 193.5t-36 257q0 211 61.5 374t167 272.5t246 165.5t297.5 56q129 0 230.5 -18t158.5 -35 q-16 -86 -26 -183t-12 -204h-82q4 20 4 40v38q0 82 -23.5 138.5t-62.5 91t-89.5 49t-101.5 14.5q-102 0 -192 -54.5t-158 -161t-106.5 -261t-38.5 -357.5q0 -115 20.5 -211t61 -165.5t102 -107.5t145.5 -38q129 0 222.5 68.5t148.5 185.5l78 -33q-45 -82 -94.5 -138 t-104.5 -92t-117.5 -53.5t-136.5 -19.5q-57 -51 -57 -84q0 -18 15.5 -32.5t35 -32t34.5 -41t15 -60.5q0 -33 -16.5 -57.5t-43 -41.5t-59 -25.5t-63.5 -8.5q-39 0 -89 8.5t-79 32.5z" />
<glyph unicode="&#xc8;" horiz-adv-x="1267" d="M25 74q43 -6 73 -6q37 0 60.5 6t40 27.5t30 64.5t25.5 115l154 872q8 41 12 72.5t4 54.5q0 53 -24.5 69.5t-80.5 16.5q-35 0 -92 -6l17 80q131 -8 249.5 -10.5t233.5 -2.5q147 0 279.5 3.5t271.5 9.5q-10 -55 -16.5 -100.5t-11.5 -88.5t-7 -90t-4 -108h-78q4 35 6 63.5 t2 54.5q0 68 -15 106t-47 55.5t-80 21.5t-112 4q-74 0 -117.5 -5t-69.5 -21.5t-37 -50.5t-21 -89l-72 -404q35 -2 63.5 -2h53.5q59 0 98 13.5t63.5 41t39 67.5t26.5 93l72 -14q-35 -117 -56.5 -238.5t-31.5 -250.5h-80q16 70 16 112q0 33 -10 53.5t-37 32t-73 15.5t-115 4 h-41l-76 -434q-6 -39 -10 -68t-4 -51q0 -29 8 -46.5t28.5 -26.5t53 -11t82.5 -2q98 0 165.5 5t115.5 37t80 98.5t61 189.5l79 -11q-25 -61 -38 -110t-22 -95.5t-17.5 -92.5t-20.5 -103q-160 6 -325.5 9t-315.5 3q-117 0 -212 -2t-208 -10zM725 1686q-35 20 -67.5 47.5 t-32.5 60.5q0 51 25.5 70.5t56.5 19.5q41 0 81.5 -24.5t81.5 -65.5t85 -96.5t92 -116.5l-50 -47z" />
<glyph unicode="&#xc9;" horiz-adv-x="1267" d="M25 74q43 -6 73 -6q37 0 60.5 6t40 27.5t30 64.5t25.5 115l154 872q8 41 12 72.5t4 54.5q0 53 -24.5 69.5t-80.5 16.5q-35 0 -92 -6l17 80q131 -8 249.5 -10.5t233.5 -2.5q147 0 279.5 3.5t271.5 9.5q-10 -55 -16.5 -100.5t-11.5 -88.5t-7 -90t-4 -108h-78q4 35 6 63.5 t2 54.5q0 68 -15 106t-47 55.5t-80 21.5t-112 4q-74 0 -117.5 -5t-69.5 -21.5t-37 -50.5t-21 -89l-72 -404q35 -2 63.5 -2h53.5q59 0 98 13.5t63.5 41t39 67.5t26.5 93l72 -14q-35 -117 -56.5 -238.5t-31.5 -250.5h-80q16 70 16 112q0 33 -10 53.5t-37 32t-73 15.5t-115 4 h-41l-76 -434q-6 -39 -10 -68t-4 -51q0 -29 8 -46.5t28.5 -26.5t53 -11t82.5 -2q98 0 165.5 5t115.5 37t80 98.5t61 189.5l79 -11q-25 -61 -38 -110t-22 -95.5t-17.5 -92.5t-20.5 -103q-160 6 -325.5 9t-315.5 3q-117 0 -212 -2t-208 -10zM705 1536l-33 57 q57 57 114.5 109.5t110.5 92.5t99 64.5t81 24.5q29 0 57.5 -15.5t28.5 -56.5q0 -29 -13 -50t-33.5 -37.5t-46.5 -29t-50 -22.5z" />
<glyph unicode="&#xca;" horiz-adv-x="1267" d="M25 74q43 -6 73 -6q37 0 60.5 6t40 27.5t30 64.5t25.5 115l154 872q8 41 12 72.5t4 54.5q0 53 -24.5 69.5t-80.5 16.5q-35 0 -92 -6l17 80q131 -8 249.5 -10.5t233.5 -2.5q147 0 279.5 3.5t271.5 9.5q-10 -55 -16.5 -100.5t-11.5 -88.5t-7 -90t-4 -108h-78q4 35 6 63.5 t2 54.5q0 68 -15 106t-47 55.5t-80 21.5t-112 4q-74 0 -117.5 -5t-69.5 -21.5t-37 -50.5t-21 -89l-72 -404q35 -2 63.5 -2h53.5q59 0 98 13.5t63.5 41t39 67.5t26.5 93l72 -14q-35 -117 -56.5 -238.5t-31.5 -250.5h-80q16 70 16 112q0 33 -10 53.5t-37 32t-73 15.5t-115 4 h-41l-76 -434q-6 -39 -10 -68t-4 -51q0 -29 8 -46.5t28.5 -26.5t53 -11t82.5 -2q98 0 165.5 5t115.5 37t80 98.5t61 189.5l79 -11q-25 -61 -38 -110t-22 -95.5t-17.5 -92.5t-20.5 -103q-160 6 -325.5 9t-315.5 3q-117 0 -212 -2t-208 -10zM565 1587l191 199q51 53 79.5 75.5 t63.5 22.5q33 0 57.5 -29.5t67.5 -89.5l127 -178l-55 -55l-219 188l-261 -188z" />
<glyph unicode="&#xcb;" horiz-adv-x="1267" d="M25 74q43 -6 73 -6q37 0 60.5 6t40 27.5t30 64.5t25.5 115l154 872q8 41 12 72.5t4 54.5q0 53 -24.5 69.5t-80.5 16.5q-35 0 -92 -6l17 80q131 -8 249.5 -10.5t233.5 -2.5q147 0 279.5 3.5t271.5 9.5q-10 -55 -16.5 -100.5t-11.5 -88.5t-7 -90t-4 -108h-78q4 35 6 63.5 t2 54.5q0 68 -15 106t-47 55.5t-80 21.5t-112 4q-74 0 -117.5 -5t-69.5 -21.5t-37 -50.5t-21 -89l-72 -404q35 -2 63.5 -2h53.5q59 0 98 13.5t63.5 41t39 67.5t26.5 93l72 -14q-35 -117 -56.5 -238.5t-31.5 -250.5h-80q16 70 16 112q0 33 -10 53.5t-37 32t-73 15.5t-115 4 h-41l-76 -434q-6 -39 -10 -68t-4 -51q0 -29 8 -46.5t28.5 -26.5t53 -11t82.5 -2q98 0 165.5 5t115.5 37t80 98.5t61 189.5l79 -11q-25 -61 -38 -110t-22 -95.5t-17.5 -92.5t-20.5 -103q-160 6 -325.5 9t-315.5 3q-117 0 -212 -2t-208 -10zM580 1702q0 49 38.5 92t98.5 43 q49 0 79.5 -31.5t30.5 -79.5q0 -55 -39.5 -96t-97.5 -41q-51 0 -80.5 33t-29.5 80zM926 1702q0 49 39 92t98 43q49 0 81 -31.5t32 -79.5q0 -55 -40 -96t-100 -41q-49 0 -79.5 33t-30.5 80z" />
<glyph unicode="&#xcc;" horiz-adv-x="823" d="M504 281q-6 -35 -10.5 -61.5t-4.5 -47.5q0 -68 25 -86t78 -18q33 0 92 6l-16 -80q-63 4 -105.5 7t-78 4t-69.5 1h-79h-80t-67.5 -1t-77.5 -4t-107 -7l16 80q39 -6 74 -6q39 0 63.5 6t42 27.5t30 64.5t24.5 115l154 872q6 37 10 66.5t4 52.5q0 59 -25.5 76.5t-77.5 17.5 q-35 0 -92 -6l17 80q63 -4 105 -7t77 -4.5t68.5 -1.5h80.5h79t69 1.5t79 4.5t109 7l-16 -80q-43 6 -78 6q-39 0 -63.5 -6t-42 -27.5t-28.5 -64.5t-26 -115zM485 1686q-35 20 -67.5 47.5t-32.5 60.5q0 51 25.5 70.5t56.5 19.5q41 0 82 -24.5t82 -65.5t85 -96.5t91 -116.5 l-49 -47z" />
<glyph unicode="&#xcd;" horiz-adv-x="823" d="M504 281q-6 -35 -10.5 -61.5t-4.5 -47.5q0 -68 25 -86t78 -18q33 0 92 6l-16 -80q-63 4 -105.5 7t-78 4t-69.5 1h-79h-80t-67.5 -1t-77.5 -4t-107 -7l16 80q39 -6 74 -6q39 0 63.5 6t42 27.5t30 64.5t24.5 115l154 872q6 37 10 66.5t4 52.5q0 59 -25.5 76.5t-77.5 17.5 q-35 0 -92 -6l17 80q63 -4 105 -7t77 -4.5t68.5 -1.5h80.5h79t69 1.5t79 4.5t109 7l-16 -80q-43 6 -78 6q-39 0 -63.5 -6t-42 -27.5t-28.5 -64.5t-26 -115zM467 1536l-33 57q57 57 114.5 109.5t111 92.5t99.5 64.5t81 24.5q29 0 57.5 -15.5t28.5 -56.5q0 -29 -13.5 -50 t-34 -37.5t-46 -29t-50.5 -22.5z" />
<glyph unicode="&#xce;" horiz-adv-x="823" d="M504 281q-6 -35 -10.5 -61.5t-4.5 -47.5q0 -68 25 -86t78 -18q33 0 92 6l-16 -80q-63 4 -105.5 7t-78 4t-69.5 1h-79h-80t-67.5 -1t-77.5 -4t-107 -7l16 80q39 -6 74 -6q39 0 63.5 6t42 27.5t30 64.5t24.5 115l154 872q6 37 10 66.5t4 52.5q0 59 -25.5 76.5t-77.5 17.5 q-35 0 -92 -6l17 80q63 -4 105 -7t77 -4.5t68.5 -1.5h80.5h79t69 1.5t79 4.5t109 7l-16 -80q-43 6 -78 6q-39 0 -63.5 -6t-42 -27.5t-28.5 -64.5t-26 -115zM319 1587l191 199q51 53 79.5 75.5t63.5 22.5q33 0 57.5 -29.5t67.5 -89.5l127 -178l-55 -55l-219 188l-260 -188z " />
<glyph unicode="&#xcf;" horiz-adv-x="823" d="M504 281q-6 -35 -10.5 -61.5t-4.5 -47.5q0 -68 25 -86t78 -18q33 0 92 6l-16 -80q-63 4 -105.5 7t-78 4t-69.5 1h-79h-80t-67.5 -1t-77.5 -4t-107 -7l16 80q39 -6 74 -6q39 0 63.5 6t42 27.5t30 64.5t24.5 115l154 872q6 37 10 66.5t4 52.5q0 59 -25.5 76.5t-77.5 17.5 q-35 0 -92 -6l17 80q63 -4 105 -7t77 -4.5t68.5 -1.5h80.5h79t69 1.5t79 4.5t109 7l-16 -80q-43 6 -78 6q-39 0 -63.5 -6t-42 -27.5t-28.5 -64.5t-26 -115zM340 1702q0 49 39 92t98 43q49 0 80 -31.5t31 -79.5q0 -55 -40 -96t-97 -41q-51 0 -81 33t-30 80zM686 1702 q0 49 39 92t98 43q49 0 81 -31.5t32 -79.5q0 -55 -40 -96t-99 -41q-49 0 -80 33t-31 80z" />
<glyph unicode="&#xd0;" horiz-adv-x="1521" d="M348 807l62 356q6 37 10 67t4 52q0 59 -24.5 76.5t-71.5 17.5q-16 0 -45 -1t-58 -5l15 80q51 -6 92 -9t77.5 -3h73.5h80q63 0 135 6t185 6q141 0 251.5 -46t185.5 -127t114 -192.5t39 -240.5q0 -217 -65 -377t-177.5 -265.5t-265 -156.5t-330.5 -51q-59 0 -99 2t-75 4 t-72 4t-88 2q-61 0 -128 -2t-159 -10l15 80q43 -6 73 -6q35 0 59.5 6t42 27.5t31 64.5t25.5 115l74 438h-199l19 88h194zM641 66q109 -2 193 34.5t147 99t107.5 145.5t72 175t39.5 185.5t12 179.5q0 74 -13 159.5t-51 159.5t-105.5 123t-174.5 49q-53 0 -88 -6t-56.5 -23.5 t-34.5 -49t-21 -80.5l-74 -410h223l-14 -88h-223l-78 -440q-10 -53 -12.5 -93.5t10 -67t46.5 -39.5t95 -13z" />
<glyph unicode="&#xd1;" horiz-adv-x="1538" d="M1327 1190q6 33 6 70q0 43 -19.5 74.5t-78.5 31.5q-16 0 -47 -1t-53 -5l16 80q39 -2 67.5 -4t55 -3t53.5 -2t64 -1t66.5 1t58 2t60.5 3t73 4l-17 -80q-23 2 -40 3t-33 1q-39 0 -64 -8t-40 -28.5t-25.5 -53.5t-18.5 -84l-223 -1223h-98l-459 994q-35 72 -63.5 137 t-45.5 127h-16l-174 -981q-6 -35 -6 -62q0 -51 24.5 -82.5t93.5 -31.5q18 0 37 1t41 5l-16 -80l-136.5 7t-131.5 3q-37 0 -62.5 -1t-49.5 -2t-51.5 -3t-66.5 -4l17 80q39 -6 71 -6q70 0 99.5 37.5t48.5 138.5l174 966q6 37 6 66q0 51 -24.5 70.5t-82.5 19.5q-16 0 -40.5 -1 t-47.5 -3l17 78q80 -6 139 -9.5t119 -3.5q45 0 100 2.5t107 10.5q23 -102 55.5 -173t56.5 -124l219 -467q29 -61 60 -134t61 -167h15zM659 1640q20 37 46 72t57 62.5t66.5 45t76.5 17.5q51 0 81 -17.5t54.5 -39t51 -39t71.5 -17.5q39 0 71 32t58 83l70 -47 q-25 -37 -48.5 -73t-53 -64.5t-66.5 -47t-88 -18.5q-41 0 -70.5 17.5t-56.5 39t-55.5 39t-67.5 17.5q-37 0 -69.5 -30t-55.5 -77z" />
<glyph unicode="&#xd2;" horiz-adv-x="1468" d="M885 1468q119 0 218 -42t168.5 -118.5t108.5 -187t39 -248.5q0 -215 -52 -384t-150.5 -285.5t-236.5 -178t-310 -61.5q-121 0 -219.5 40t-168 117t-107.5 187.5t-38 249.5q0 217 52.5 387t149.5 287t235.5 177t310.5 60zM682 33q119 0 208 84t147.5 217t88 296t29.5 320 q0 211 -67.5 330t-215.5 119q-121 0 -209 -84t-146 -216t-87 -296t-29 -324q0 -215 67 -330.5t214 -115.5zM801 1686q-35 20 -68 47.5t-33 60.5q0 51 26 70.5t56 19.5q41 0 82 -24.5t82 -65.5t85 -96.5t91 -116.5l-49 -47z" />
<glyph unicode="&#xd3;" horiz-adv-x="1468" d="M885 1468q119 0 218 -42t168.5 -118.5t108.5 -187t39 -248.5q0 -215 -52 -384t-150.5 -285.5t-236.5 -178t-310 -61.5q-121 0 -219.5 40t-168 117t-107.5 187.5t-38 249.5q0 217 52.5 387t149.5 287t235.5 177t310.5 60zM682 33q119 0 208 84t147.5 217t88 296t29.5 320 q0 211 -67.5 330t-215.5 119q-121 0 -209 -84t-146 -216t-87 -296t-29 -324q0 -215 67 -330.5t214 -115.5zM784 1536l-32 57q57 57 114.5 109.5t110.5 92.5t99 64.5t81 24.5q29 0 57.5 -15.5t28.5 -56.5q0 -29 -13 -50t-33.5 -37.5t-46.5 -29t-50 -22.5z" />
<glyph unicode="&#xd4;" horiz-adv-x="1468" d="M885 1468q119 0 218 -42t168.5 -118.5t108.5 -187t39 -248.5q0 -215 -52 -384t-150.5 -285.5t-236.5 -178t-310 -61.5q-121 0 -219.5 40t-168 117t-107.5 187.5t-38 249.5q0 217 52.5 387t149.5 287t235.5 177t310.5 60zM682 33q119 0 208 84t147.5 217t88 296t29.5 320 q0 211 -67.5 330t-215.5 119q-121 0 -209 -84t-146 -216t-87 -296t-29 -324q0 -215 67 -330.5t214 -115.5zM662 1587l190 199q51 53 80 75.5t63 22.5q33 0 57.5 -29.5t67.5 -89.5l127 -178l-55 -55l-219 188l-260 -188z" />
<glyph unicode="&#xd5;" horiz-adv-x="1468" d="M885 1468q119 0 218 -42t168.5 -118.5t108.5 -187t39 -248.5q0 -215 -52 -384t-150.5 -285.5t-236.5 -178t-310 -61.5q-121 0 -219.5 40t-168 117t-107.5 187.5t-38 249.5q0 217 52.5 387t149.5 287t235.5 177t310.5 60zM682 33q119 0 208 84t147.5 217t88 296t29.5 320 q0 211 -67.5 330t-215.5 119q-121 0 -209 -84t-146 -216t-87 -296t-29 -324q0 -215 67 -330.5t214 -115.5zM602 1640q20 37 46 72t56.5 62.5t66.5 45t77 17.5q51 0 80.5 -17.5t54.5 -39t51.5 -39t71.5 -17.5q39 0 70.5 32t58.5 83l70 -47q-25 -37 -48.5 -73t-53 -64.5 t-66.5 -47t-88 -18.5q-41 0 -71 17.5t-56.5 39t-55 39t-67.5 17.5q-37 0 -70 -30t-55 -77z" />
<glyph unicode="&#xd6;" horiz-adv-x="1468" d="M885 1468q119 0 218 -42t168.5 -118.5t108.5 -187t39 -248.5q0 -215 -52 -384t-150.5 -285.5t-236.5 -178t-310 -61.5q-121 0 -219.5 40t-168 117t-107.5 187.5t-38 249.5q0 217 52.5 387t149.5 287t235.5 177t310.5 60zM682 33q119 0 208 84t147.5 217t88 296t29.5 320 q0 211 -67.5 330t-215.5 119q-121 0 -209 -84t-146 -216t-87 -296t-29 -324q0 -215 67 -330.5t214 -115.5zM655 1702q0 49 39 92t99 43q49 0 79.5 -31.5t30.5 -79.5q0 -55 -40 -96t-97 -41q-51 0 -81 33t-30 80zM1001 1702q0 49 39 92t99 43q49 0 80.5 -31.5t31.5 -79.5 q0 -55 -40 -96t-99 -41q-49 0 -80 33t-31 80z" />
<glyph unicode="&#xd7;" d="M223 874l295 -301l293 299l63 -65l-290 -293l299 -301l-70 -66l-301 299l-297 -296l-63 61l297 297l-297 299z" />
<glyph unicode="&#xd8;" horiz-adv-x="1468" d="M885 1468q123 0 227 -47l94 168l80 -39l-96 -172q109 -74 169 -202.5t60 -303.5q0 -215 -52 -384t-150.5 -285.5t-236.5 -178t-310 -61.5q-72 0 -135.5 14.5t-116.5 40.5l-117 -206l-78 41l119 210q-98 76 -151.5 201t-53.5 293q0 217 52.5 387t149.5 287t235.5 177 t310.5 60zM682 33q119 0 208 84t147.5 217t88 296t29.5 320q0 86 -11 159t-36 128l-627 -1108q68 -96 201 -96zM401 479q0 -156 33 -254l621 1098q-70 76 -183 76q-121 0 -209 -84t-146 -216t-87 -296t-29 -324z" />
<glyph unicode="&#xd9;" horiz-adv-x="1490" d="M377 1153q6 35 10 63.5t4 59.5q0 57 -25.5 73.5t-82.5 16.5q-35 0 -86 -6l16 80q59 -4 102 -7t80 -4.5t72 -1.5h78h73.5t68.5 1.5t78 4.5t103 7l-16 -80q-41 6 -72 6q-35 0 -58.5 -6t-39.5 -28.5t-28.5 -64.5t-24.5 -114q-35 -205 -53.5 -316.5t-27.5 -163.5t-11 -62.5 t-2 -12.5q-10 -63 -19.5 -127.5t-9.5 -124.5q0 -63 12 -119.5t41 -98.5t79 -66.5t128 -24.5q92 0 159.5 40t123.5 118q29 39 49 84t36.5 103t31 133t32.5 175l86 473q12 70 12 111q0 57 -24.5 75.5t-75.5 18.5q-23 0 -48.5 -2t-55.5 -4l16 78q74 -4 132 -7t128 -3 q35 0 62.5 1l55 2t57.5 3t69 4l-17 -78q-23 2 -43 3t-36 1q-37 0 -60.5 -8t-41 -31.5t-29 -63.5t-21.5 -102l-76 -428q-20 -113 -33.5 -195.5t-30 -147t-39 -116t-59.5 -102.5q-66 -90 -164 -150.5t-243 -60.5q-121 0 -207 33t-143.5 92t-84 143t-26.5 187q0 39 3 79t11 83z M864 1686q-35 20 -67.5 47.5t-32.5 60.5q0 51 25.5 70.5t56.5 19.5q41 0 82 -24.5t82 -65.5t85 -96.5t91 -116.5l-49 -47z" />
<glyph unicode="&#xda;" horiz-adv-x="1490" d="M377 1153q6 35 10 63.5t4 59.5q0 57 -25.5 73.5t-82.5 16.5q-35 0 -86 -6l16 80q59 -4 102 -7t80 -4.5t72 -1.5h78h73.5t68.5 1.5t78 4.5t103 7l-16 -80q-41 6 -72 6q-35 0 -58.5 -6t-39.5 -28.5t-28.5 -64.5t-24.5 -114q-35 -205 -53.5 -316.5t-27.5 -163.5t-11 -62.5 t-2 -12.5q-10 -63 -19.5 -127.5t-9.5 -124.5q0 -63 12 -119.5t41 -98.5t79 -66.5t128 -24.5q92 0 159.5 40t123.5 118q29 39 49 84t36.5 103t31 133t32.5 175l86 473q12 70 12 111q0 57 -24.5 75.5t-75.5 18.5q-23 0 -48.5 -2t-55.5 -4l16 78q74 -4 132 -7t128 -3 q35 0 62.5 1l55 2t57.5 3t69 4l-17 -78q-23 2 -43 3t-36 1q-37 0 -60.5 -8t-41 -31.5t-29 -63.5t-21.5 -102l-76 -428q-20 -113 -33.5 -195.5t-30 -147t-39 -116t-59.5 -102.5q-66 -90 -164 -150.5t-243 -60.5q-121 0 -207 33t-143.5 92t-84 143t-26.5 187q0 39 3 79t11 83z M842 1536l-33 57q57 57 114.5 109.5t110.5 92.5t99.5 64.5t80.5 24.5q29 0 57.5 -15.5t28.5 -56.5q0 -29 -13 -50t-33.5 -37.5t-46 -29t-50.5 -22.5z" />
<glyph unicode="&#xdb;" horiz-adv-x="1490" d="M377 1153q6 35 10 63.5t4 59.5q0 57 -25.5 73.5t-82.5 16.5q-35 0 -86 -6l16 80q59 -4 102 -7t80 -4.5t72 -1.5h78h73.5t68.5 1.5t78 4.5t103 7l-16 -80q-41 6 -72 6q-35 0 -58.5 -6t-39.5 -28.5t-28.5 -64.5t-24.5 -114q-35 -205 -53.5 -316.5t-27.5 -163.5t-11 -62.5 t-2 -12.5q-10 -63 -19.5 -127.5t-9.5 -124.5q0 -63 12 -119.5t41 -98.5t79 -66.5t128 -24.5q92 0 159.5 40t123.5 118q29 39 49 84t36.5 103t31 133t32.5 175l86 473q12 70 12 111q0 57 -24.5 75.5t-75.5 18.5q-23 0 -48.5 -2t-55.5 -4l16 78q74 -4 132 -7t128 -3 q35 0 62.5 1l55 2t57.5 3t69 4l-17 -78q-23 2 -43 3t-36 1q-37 0 -60.5 -8t-41 -31.5t-29 -63.5t-21.5 -102l-76 -428q-20 -113 -33.5 -195.5t-30 -147t-39 -116t-59.5 -102.5q-66 -90 -164 -150.5t-243 -60.5q-121 0 -207 33t-143.5 92t-84 143t-26.5 187q0 39 3 79t11 83z M707 1587l190 199q51 53 80 75.5t63 22.5q33 0 57.5 -29.5t67.5 -89.5l127 -178l-55 -55l-219 188l-260 -188z" />
<glyph unicode="&#xdc;" horiz-adv-x="1490" d="M377 1153q6 35 10 63.5t4 59.5q0 57 -25.5 73.5t-82.5 16.5q-35 0 -86 -6l16 80q59 -4 102 -7t80 -4.5t72 -1.5h78h73.5t68.5 1.5t78 4.5t103 7l-16 -80q-41 6 -72 6q-35 0 -58.5 -6t-39.5 -28.5t-28.5 -64.5t-24.5 -114q-35 -205 -53.5 -316.5t-27.5 -163.5t-11 -62.5 t-2 -12.5q-10 -63 -19.5 -127.5t-9.5 -124.5q0 -63 12 -119.5t41 -98.5t79 -66.5t128 -24.5q92 0 159.5 40t123.5 118q29 39 49 84t36.5 103t31 133t32.5 175l86 473q12 70 12 111q0 57 -24.5 75.5t-75.5 18.5q-23 0 -48.5 -2t-55.5 -4l16 78q74 -4 132 -7t128 -3 q35 0 62.5 1l55 2t57.5 3t69 4l-17 -78q-23 2 -43 3t-36 1q-37 0 -60.5 -8t-41 -31.5t-29 -63.5t-21.5 -102l-76 -428q-20 -113 -33.5 -195.5t-30 -147t-39 -116t-59.5 -102.5q-66 -90 -164 -150.5t-243 -60.5q-121 0 -207 33t-143.5 92t-84 143t-26.5 187q0 39 3 79t11 83z M723 1702q0 49 39 92t98 43q49 0 80 -31.5t31 -79.5q0 -55 -40 -96t-97 -41q-51 0 -81 33t-30 80zM1069 1702q0 49 39 92t98 43q49 0 81 -31.5t32 -79.5q0 -55 -40 -96t-99 -41q-49 0 -80 33t-31 80z" />
<glyph unicode="&#xdd;" horiz-adv-x="1263" d="M758 717l317 457q33 47 51.5 80.5t18.5 56.5q0 53 -113 53q-27 0 -38 -1t-50 -3l17 80q131 -12 272 -13q53 0 103 2.5t100 10.5l-17 -80q-8 0 -20.5 1t-20.5 1q-31 0 -52 -8t-42.5 -28.5t-48.5 -58.5t-66 -96l-385 -565l-57 -325q-8 -41 -12 -71t-4 -52q0 -57 24.5 -73.5 t71.5 -16.5q12 0 43 1t59 5l-16 -80q-63 4 -107.5 7t-82 4t-73.5 1h-81h-78t-66.5 -1t-75.5 -4t-106 -7l15 80q23 -4 38 -5t31 -1q35 0 61.5 6t46 27.5t35 64.5t27.5 115l58 319l-199 582q-16 39 -25.5 72.5t-22 58t-32.5 38t-57 13.5q-10 0 -20.5 -1t-22.5 -3l16 80 q78 -6 159 -9.5t154 -3.5q74 0 135.5 3.5t143.5 9.5l-16 -80q-23 2 -28 3t-26 1q-63 0 -95 -13.5t-32 -66.5q0 -16 6.5 -34.5t16.5 -47.5l112 -321q14 -37 23.5 -75t19.5 -89h13zM684 1536l-33 57q57 57 114.5 109.5t111 92.5t99.5 64.5t81 24.5q29 0 57.5 -15.5t28.5 -56.5 q0 -29 -13.5 -50t-34 -37.5t-46 -29t-50.5 -22.5z" />
<glyph unicode="&#xde;" horiz-adv-x="1212" d="M817 1366q-37 0 -62.5 -8t-44 -31.5t-31.5 -68t-26 -117.5q37 2 77 2h63q205 0 309 -88t104 -242q0 -137 -57 -226t-147.5 -142.5t-205 -75t-227.5 -21.5h-26.5t-28.5 2q-8 -45 -14 -74.5t-9.5 -51t-4.5 -35t-1 -25.5q0 -61 27 -78.5t80 -17.5q35 0 90 6l-16 -80 q-63 4 -105.5 7t-78.5 4t-68.5 1h-77.5h-81t-68.5 -1t-76.5 -4t-106 -7l16 80q39 -6 72 -6q39 0 63.5 6t42 27.5t31 64.5t25.5 115l154 872q6 37 10 64.5t4 50.5q0 61 -25.5 79.5t-79.5 18.5q-35 0 -90 -6l17 80q63 -4 105 -7t77 -4.5t68.5 -1.5h78.5h79t70 1.5t79 4.5 t108 7l-16 -80q-43 6 -76 6zM948 819q0 135 -63.5 191.5t-167.5 56.5q-41 0 -78 -6l-113 -629q16 -2 30.5 -3t29.5 -1q98 0 166.5 37t111.5 93t63.5 125.5t20.5 135.5z" />
<glyph unicode="&#xdf;" horiz-adv-x="1181" d="M258 1028q18 98 46 180t80 140.5t136 91.5t213 33q82 0 136.5 -21.5t87 -52.5t46 -68t13.5 -67q0 -78 -48 -130.5t-106.5 -93.5t-106.5 -78.5t-48 -87.5q0 -37 27.5 -72.5t69.5 -72.5t90 -78t90 -92t69.5 -113.5t27.5 -142.5q0 -57 -26.5 -113.5t-74.5 -101.5 t-116.5 -73.5t-152.5 -28.5q-39 0 -87.5 8t-91.5 28.5t-72.5 54.5t-29.5 85q0 68 33 103.5t78 35.5q55 0 80.5 -25.5t25.5 -66.5q0 -14 -9 -36.5t-9 -37.5q0 -35 19.5 -57.5t70.5 -22.5q37 0 64.5 18.5t46 47.5t27.5 63.5t9 65.5q0 66 -22.5 112t-57 82.5t-73.5 68.5 t-74 65.5t-57.5 73.5t-22.5 98q0 82 43 149.5t94.5 129t94.5 122.5t43 131q0 68 -40 95.5t-81 27.5q-51 0 -86 -20.5t-58.5 -62.5t-41 -105.5t-31.5 -151.5l-187 -1065h-239q29 119 51 235.5t39 235.5z" />
<glyph unicode="&#xe0;" horiz-adv-x="1048" d="M608 145q-16 -31 -41.5 -61.5t-63.5 -55t-87 -41t-111 -16.5q-78 0 -129 20.5t-82 53.5t-44 73t-13 77q0 57 22.5 117.5t88 109.5t183.5 82t310 35l23 129q4 25 7 55.5t5 58.5q0 53 -22.5 94.5t-88.5 41.5t-103.5 -31t-37.5 -92q0 -31 -7 -63t-24.5 -57.5t-45.5 -42 t-66 -16.5q-14 0 -32 5.5t-34 17.5t-27.5 32.5t-11.5 51.5q0 51 26.5 98t78 82t127 55.5t172.5 20.5q166 0 236.5 -66.5t70.5 -183.5q0 -20 -2 -42.5t-6 -45.5l-68 -414q-2 -10 -4 -27.5t-2 -37.5q0 -23 6 -40.5t27 -17.5q35 0 61.5 33t40.5 58l57 -41 q-51 -92 -114.5 -137.5t-116.5 -45.5q-72 0 -111 48.5t-39 107.5q0 6 2 16zM629 471q-162 0 -258.5 -67.5t-96.5 -204.5q0 -25 5.5 -48.5t17.5 -44t32.5 -33t51.5 -12.5q55 0 94 29t65.5 74t43 96t24.5 98zM496 1245q-14 14 -32 30.5t-32 33t-24.5 34t-10.5 33.5 q0 51 29 69.5t53 18.5q37 0 68 -27.5t60.5 -74.5t60 -109.5t65.5 -130.5l-65 -43z" />
<glyph unicode="&#xe1;" horiz-adv-x="1048" d="M608 145q-16 -31 -41.5 -61.5t-63.5 -55t-87 -41t-111 -16.5q-78 0 -129 20.5t-82 53.5t-44 73t-13 77q0 57 22.5 117.5t88 109.5t183.5 82t310 35l23 129q4 25 7 55.5t5 58.5q0 53 -22.5 94.5t-88.5 41.5t-103.5 -31t-37.5 -92q0 -31 -7 -63t-24.5 -57.5t-45.5 -42 t-66 -16.5q-14 0 -32 5.5t-34 17.5t-27.5 32.5t-11.5 51.5q0 51 26.5 98t78 82t127 55.5t172.5 20.5q166 0 236.5 -66.5t70.5 -183.5q0 -20 -2 -42.5t-6 -45.5l-68 -414q-2 -10 -4 -27.5t-2 -37.5q0 -23 6 -40.5t27 -17.5q35 0 61.5 33t40.5 58l57 -41 q-51 -92 -114.5 -137.5t-116.5 -45.5q-72 0 -111 48.5t-39 107.5q0 6 2 16zM629 471q-162 0 -258.5 -67.5t-96.5 -204.5q0 -25 5.5 -48.5t17.5 -44t32.5 -33t51.5 -12.5q55 0 94 29t65.5 74t43 96t24.5 98zM489 1085l-49 50q53 68 99.5 128t88.5 104t79.5 70.5t74.5 26.5 q27 0 54.5 -15t27.5 -60q0 -25 -15 -45.5t-38 -38t-48.5 -34t-47.5 -30.5z" />
<glyph unicode="&#xe2;" horiz-adv-x="1048" d="M608 145q-16 -31 -41.5 -61.5t-63.5 -55t-87 -41t-111 -16.5q-78 0 -129 20.5t-82 53.5t-44 73t-13 77q0 57 22.5 117.5t88 109.5t183.5 82t310 35l23 129q4 25 7 55.5t5 58.5q0 53 -22.5 94.5t-88.5 41.5t-103.5 -31t-37.5 -92q0 -31 -7 -63t-24.5 -57.5t-45.5 -42 t-66 -16.5q-14 0 -32 5.5t-34 17.5t-27.5 32.5t-11.5 51.5q0 51 26.5 98t78 82t127 55.5t172.5 20.5q166 0 236.5 -66.5t70.5 -183.5q0 -20 -2 -42.5t-6 -45.5l-68 -414q-2 -10 -4 -27.5t-2 -37.5q0 -23 6 -40.5t27 -17.5q35 0 61.5 33t40.5 58l57 -41 q-51 -92 -114.5 -137.5t-116.5 -45.5q-72 0 -111 48.5t-39 107.5q0 6 2 16zM629 471q-162 0 -258.5 -67.5t-96.5 -204.5q0 -25 5.5 -48.5t17.5 -44t32.5 -33t51.5 -12.5q55 0 94 29t65.5 74t43 96t24.5 98zM328 1147q92 102 149.5 164.5t91 96.5t54 45t39.5 11q23 0 37 -9 t34.5 -42t50 -96.5t82.5 -169.5l-63 -62l-168 191l-250 -191z" />
<glyph unicode="&#xe3;" horiz-adv-x="1048" d="M608 145q-16 -31 -41.5 -61.5t-63.5 -55t-87 -41t-111 -16.5q-78 0 -129 20.5t-82 53.5t-44 73t-13 77q0 57 22.5 117.5t88 109.5t183.5 82t310 35l23 129q4 25 7 55.5t5 58.5q0 53 -22.5 94.5t-88.5 41.5t-103.5 -31t-37.5 -92q0 -31 -7 -63t-24.5 -57.5t-45.5 -42 t-66 -16.5q-14 0 -32 5.5t-34 17.5t-27.5 32.5t-11.5 51.5q0 51 26.5 98t78 82t127 55.5t172.5 20.5q166 0 236.5 -66.5t70.5 -183.5q0 -20 -2 -42.5t-6 -45.5l-68 -414q-2 -10 -4 -27.5t-2 -37.5q0 -23 6 -40.5t27 -17.5q35 0 61.5 33t40.5 58l57 -41 q-51 -92 -114.5 -137.5t-116.5 -45.5q-72 0 -111 48.5t-39 107.5q0 6 2 16zM629 471q-162 0 -258.5 -67.5t-96.5 -204.5q0 -25 5.5 -48.5t17.5 -44t32.5 -33t51.5 -12.5q55 0 94 29t65.5 74t43 96t24.5 98zM244 1176q20 37 46.5 73.5t57.5 65t68 47t78 18.5q51 0 80.5 -18.5 t53 -40t49 -39.5t71.5 -18q39 0 70.5 33.5t58.5 84.5l69 -47q-25 -37 -48.5 -73.5t-52 -67.5t-66.5 -50.5t-89 -19.5q-41 0 -70.5 18.5t-56 40t-55.5 40t-68 18.5q-37 0 -69.5 -31.5t-55.5 -79.5z" />
<glyph unicode="&#xe4;" horiz-adv-x="1048" d="M608 145q-16 -31 -41.5 -61.5t-63.5 -55t-87 -41t-111 -16.5q-78 0 -129 20.5t-82 53.5t-44 73t-13 77q0 57 22.5 117.5t88 109.5t183.5 82t310 35l23 129q4 25 7 55.5t5 58.5q0 53 -22.5 94.5t-88.5 41.5t-103.5 -31t-37.5 -92q0 -31 -7 -63t-24.5 -57.5t-45.5 -42 t-66 -16.5q-14 0 -32 5.5t-34 17.5t-27.5 32.5t-11.5 51.5q0 51 26.5 98t78 82t127 55.5t172.5 20.5q166 0 236.5 -66.5t70.5 -183.5q0 -20 -2 -42.5t-6 -45.5l-68 -414q-2 -10 -4 -27.5t-2 -37.5q0 -23 6 -40.5t27 -17.5q35 0 61.5 33t40.5 58l57 -41 q-51 -92 -114.5 -137.5t-116.5 -45.5q-72 0 -111 48.5t-39 107.5q0 6 2 16zM629 471q-162 0 -258.5 -67.5t-96.5 -204.5q0 -25 5.5 -48.5t17.5 -44t32.5 -33t51.5 -12.5q55 0 94 29t65.5 74t43 96t24.5 98zM403 1122q-57 0 -81.5 35t-24.5 76q0 55 38 102t103 47 q57 0 82 -34.5t25 -75.5q0 -55 -38 -102.5t-104 -47.5zM766 1122q-57 0 -82 35t-25 76q0 55 38 102t104 47q57 0 81.5 -34.5t24.5 -75.5q0 -55 -37.5 -102.5t-103.5 -47.5z" />
<glyph unicode="&#xe5;" horiz-adv-x="1048" d="M608 145q-16 -31 -41.5 -61.5t-63.5 -55t-87 -41t-111 -16.5q-78 0 -129 20.5t-82 53.5t-44 73t-13 77q0 57 22.5 117.5t88 109.5t183.5 82t310 35l23 129q4 25 7 55.5t5 58.5q0 53 -22.5 94.5t-88.5 41.5t-103.5 -31t-37.5 -92q0 -31 -7 -63t-24.5 -57.5t-45.5 -42 t-66 -16.5q-14 0 -32 5.5t-34 17.5t-27.5 32.5t-11.5 51.5q0 51 26.5 98t78 82t127 55.5t172.5 20.5q166 0 236.5 -66.5t70.5 -183.5q0 -20 -2 -42.5t-6 -45.5l-68 -414q-2 -10 -4 -27.5t-2 -37.5q0 -23 6 -40.5t27 -17.5q35 0 61.5 33t40.5 58l57 -41 q-51 -92 -114.5 -137.5t-116.5 -45.5q-72 0 -111 48.5t-39 107.5q0 6 2 16zM629 471q-162 0 -258.5 -67.5t-96.5 -204.5q0 -25 5.5 -48.5t17.5 -44t32.5 -33t51.5 -12.5q55 0 94 29t65.5 74t43 96t24.5 98zM623 1464q86 0 137 -53t51 -127q0 -78 -51 -130t-137 -52 q-82 0 -135.5 52t-53.5 130q0 74 53.5 127t135.5 53zM524 1284q0 -47 31 -76.5t68 -29.5t67.5 29.5t30.5 76.5q0 45 -31 72.5t-67 27.5q-37 0 -68 -27.5t-31 -72.5z" />
<glyph unicode="&#xe6;" horiz-adv-x="1529" d="M1001 -39q-74 0 -130 16.5t-96 45t-65.5 66.5t-37.5 81q-20 -33 -51 -70t-75 -67.5t-100.5 -51t-130.5 -20.5q-78 0 -131 20.5t-85.5 52.5t-47 70.5t-14.5 73.5q0 27 4 64t23.5 76.5t58.5 79.5t108.5 71t176 50.5t260.5 19.5q8 45 13 76.5t7 53t3 36t1 26.5q0 31 -4 63.5 t-18.5 58.5t-39 42t-65.5 16q-84 0 -116.5 -38.5t-32.5 -104.5q0 -152 -150 -152q-35 0 -65.5 33t-30.5 88q0 39 21.5 82t69.5 78t125 57.5t185 22.5q115 0 202 -42t110 -120q59 78 131.5 120t163.5 42q137 0 226 -62.5t89 -189.5q0 -125 -106.5 -190.5t-362.5 -65.5h-152 q-14 -78 -14 -150q0 -139 51.5 -205.5t143.5 -66.5q74 0 149.5 50t147.5 179l61 -34q-70 -131 -166.5 -206t-243.5 -75zM885 537q117 0 190.5 20.5t113.5 54t54 74.5t14 84q0 47 -24.5 89t-83.5 42t-103.5 -32.5t-76 -85t-52 -118t-32.5 -128.5zM653 471 q-174 0 -275.5 -63.5t-101.5 -208.5q0 -23 5.5 -48.5t18.5 -49t35.5 -39t57.5 -15.5q51 0 92 25.5t70 67.5t47.5 95.5t28.5 106.5z" />
<glyph unicode="&#xe7;" horiz-adv-x="929" d="M211 -313q23 -14 47.5 -22.5t48.5 -8.5q10 0 24.5 2t28 8t23.5 18.5t12 30.5q0 20 -13 32.5t-28.5 25t-29 28t-13.5 41.5q0 63 84 125q-86 8 -146.5 43t-98 89.5t-54 123t-16.5 146.5q0 135 35 246.5t101.5 192.5t162.5 126t219 45q86 0 144.5 -22.5t94 -56.5t51 -74 t15.5 -76q0 -49 -16.5 -81t-38 -49.5t-46 -24.5t-38.5 -7q-41 0 -77 22.5t-36 75.5q0 31 5.5 50.5t12.5 34.5t12 28.5t5 31.5q0 37 -18.5 59.5t-65.5 22.5q-100 0 -166.5 -111.5t-101.5 -328.5q-4 -25 -8 -58.5t-4 -72.5q0 -53 8 -106.5t27.5 -98.5t54 -72.5t88.5 -27.5 q31 0 67.5 12t74.5 41t75 76t67 117l64 -33q-61 -127 -147.5 -201t-213.5 -84q-57 -51 -57 -86q0 -18 15.5 -32.5t35 -32t34.5 -41t15 -60.5q0 -33 -16 -57.5t-43 -41.5t-59.5 -25.5t-63.5 -8.5q-39 0 -89 8.5t-79 32.5z" />
<glyph unicode="&#xe8;" horiz-adv-x="980" d="M870 248q-37 -59 -77.5 -111.5t-91 -91.5t-112 -60.5t-136.5 -21.5q-92 0 -163 31t-118 85t-71.5 128t-24.5 160q0 135 41 247.5t113.5 193.5t173 126t221.5 45q72 0 130 -18.5t99 -51t63.5 -78t22.5 -96.5q0 -104 -49 -159.5t-133 -80t-195.5 -28.5t-234.5 -4 q-12 -78 -13 -141q0 -141 54.5 -207t154.5 -66q66 0 136.5 51.5t140.5 178.5zM346 528q63 0 129 8.5t119 37t88 83t35 144.5q0 53 -26.5 82.5t-76.5 29.5q-53 0 -97 -35.5t-77.5 -92t-57.5 -125.5t-36 -132zM520 1245q-14 14 -31.5 30.5t-32 33t-24.5 34t-10 33.5 q0 51 28.5 69.5t53.5 18.5q37 0 67.5 -27.5t60.5 -74.5t60.5 -109.5t65.5 -130.5l-66 -43z" />
<glyph unicode="&#xe9;" horiz-adv-x="980" d="M870 248q-37 -59 -77.5 -111.5t-91 -91.5t-112 -60.5t-136.5 -21.5q-92 0 -163 31t-118 85t-71.5 128t-24.5 160q0 135 41 247.5t113.5 193.5t173 126t221.5 45q72 0 130 -18.5t99 -51t63.5 -78t22.5 -96.5q0 -104 -49 -159.5t-133 -80t-195.5 -28.5t-234.5 -4 q-12 -78 -13 -141q0 -141 54.5 -207t154.5 -66q66 0 136.5 51.5t140.5 178.5zM346 528q63 0 129 8.5t119 37t88 83t35 144.5q0 53 -26.5 82.5t-76.5 29.5q-53 0 -97 -35.5t-77.5 -92t-57.5 -125.5t-36 -132zM514 1085l-49 50q53 68 99 128t88 104t80 70.5t75 26.5 q27 0 54.5 -15t27.5 -60q0 -25 -15.5 -45.5t-38 -38t-48 -34t-48.5 -30.5z" />
<glyph unicode="&#xea;" horiz-adv-x="980" d="M870 248q-37 -59 -77.5 -111.5t-91 -91.5t-112 -60.5t-136.5 -21.5q-92 0 -163 31t-118 85t-71.5 128t-24.5 160q0 135 41 247.5t113.5 193.5t173 126t221.5 45q72 0 130 -18.5t99 -51t63.5 -78t22.5 -96.5q0 -104 -49 -159.5t-133 -80t-195.5 -28.5t-234.5 -4 q-12 -78 -13 -141q0 -141 54.5 -207t154.5 -66q66 0 136.5 51.5t140.5 178.5zM346 528q63 0 129 8.5t119 37t88 83t35 144.5q0 53 -26.5 82.5t-76.5 29.5q-53 0 -97 -35.5t-77.5 -92t-57.5 -125.5t-36 -132zM319 1147q92 102 149.5 164.5t91.5 96.5t54.5 45t38.5 11 q23 0 37.5 -9t34.5 -42t50 -96.5t83 -169.5l-63 -62l-168 191l-250 -191z" />
<glyph unicode="&#xeb;" horiz-adv-x="980" d="M870 248q-37 -59 -77.5 -111.5t-91 -91.5t-112 -60.5t-136.5 -21.5q-92 0 -163 31t-118 85t-71.5 128t-24.5 160q0 135 41 247.5t113.5 193.5t173 126t221.5 45q72 0 130 -18.5t99 -51t63.5 -78t22.5 -96.5q0 -104 -49 -159.5t-133 -80t-195.5 -28.5t-234.5 -4 q-12 -78 -13 -141q0 -141 54.5 -207t154.5 -66q66 0 136.5 51.5t140.5 178.5zM346 528q63 0 129 8.5t119 37t88 83t35 144.5q0 53 -26.5 82.5t-76.5 29.5q-53 0 -97 -35.5t-77.5 -92t-57.5 -125.5t-36 -132zM430 1122q-57 0 -81.5 35t-24.5 76q0 55 37.5 102t103.5 47 q57 0 81.5 -34.5t24.5 -75.5q0 -55 -37.5 -102.5t-103.5 -47.5zM793 1122q-57 0 -82 35t-25 76q0 55 38 102t103 47q57 0 82 -34.5t25 -75.5q0 -55 -37.5 -102.5t-103.5 -47.5z" />
<glyph unicode="&#xec;" horiz-adv-x="632" d="M242 690q4 25 8 55.5t4 47.5q0 49 -27.5 65t-66.5 16q-18 0 -38 -2t-38 -4l14 74q31 -4 63 -4h64q72 0 146.5 4t150.5 21q-33 -178 -55.5 -307.5t-37.5 -218.5t-24.5 -144t-14.5 -88t-6 -47.5t-1 -20.5q0 -47 27.5 -59t68.5 -12q18 0 39 1t39 3l-14 -74q-18 2 -44 4 t-52.5 3t-50 1h-42.5q-35 0 -64.5 -1t-57 -3t-56.5 -5t-65 -7q10 45 24.5 117.5t28.5 145.5t24.5 134t14.5 84zM344 1245q-14 14 -31.5 30.5t-32 33t-24.5 34t-10 33.5q0 51 28.5 69.5t53.5 18.5q37 0 67.5 -27.5t60 -74.5t60.5 -109.5t66 -130.5l-66 -43z" />
<glyph unicode="&#xed;" horiz-adv-x="632" d="M242 690q4 25 8 55.5t4 47.5q0 49 -27.5 65t-66.5 16q-18 0 -38 -2t-38 -4l14 74q31 -4 63 -4h64q72 0 146.5 4t150.5 21q-33 -178 -55.5 -307.5t-37.5 -218.5t-24.5 -144t-14.5 -88t-6 -47.5t-1 -20.5q0 -47 27.5 -59t68.5 -12q18 0 39 1t39 3l-14 -74q-18 2 -44 4 t-52.5 3t-50 1h-42.5q-35 0 -64.5 -1t-57 -3t-56.5 -5t-65 -7q10 45 24.5 117.5t28.5 145.5t24.5 134t14.5 84zM340 1085l-49 50q53 68 99 128t88 104t80 70.5t75 26.5q27 0 54.5 -15t27.5 -60q0 -25 -15.5 -45.5t-38 -38t-48 -34t-48.5 -30.5z" />
<glyph unicode="&#xee;" horiz-adv-x="632" d="M242 690q4 25 8 55.5t4 47.5q0 49 -27.5 65t-66.5 16q-18 0 -38 -2t-38 -4l14 74q31 -4 63 -4h64q72 0 146.5 4t150.5 21q-33 -178 -55.5 -307.5t-37.5 -218.5t-24.5 -144t-14.5 -88t-6 -47.5t-1 -20.5q0 -47 27.5 -59t68.5 -12q18 0 39 1t39 3l-14 -74q-18 2 -44 4 t-52.5 3t-50 1h-42.5q-35 0 -64.5 -1t-57 -3t-56.5 -5t-65 -7q10 45 24.5 117.5t28.5 145.5t24.5 134t14.5 84zM143 1147q92 102 149.5 164.5t91.5 96.5t54.5 45t38.5 11q23 0 37 -9t34.5 -42t50.5 -96.5t83 -169.5l-64 -62l-167 191l-250 -191z" />
<glyph unicode="&#xef;" horiz-adv-x="632" d="M248 1122q-57 0 -82 35t-25 76q0 55 38 102t104 47q57 0 81.5 -34.5t24.5 -75.5q0 -55 -37.5 -102.5t-103.5 -47.5zM610 1122q-57 0 -81.5 35t-24.5 76q0 55 38 102t103 47q57 0 82 -34.5t25 -75.5q0 -55 -38 -102.5t-104 -47.5zM242 690q4 25 8 55.5t4 47.5 q0 49 -27.5 65t-66.5 16q-18 0 -38 -2t-38 -4l14 74q31 -4 63 -4h64q72 0 146.5 4t150.5 21q-33 -178 -55.5 -307.5t-37.5 -218.5t-24.5 -144t-14.5 -88t-6 -47.5t-1 -20.5q0 -47 27.5 -59t68.5 -12q18 0 39 1t39 3l-14 -74q-18 2 -44 4t-52.5 3t-50 1h-42.5q-35 0 -64.5 -1 t-57 -3t-56.5 -5t-65 -7q10 45 24.5 117.5t28.5 145.5t24.5 134t14.5 84z" />
<glyph unicode="&#xf0;" horiz-adv-x="1081" d="M920 1468l36 -77l-172 -99q98 -156 159 -330t61 -366q0 -166 -46.5 -287t-121 -197.5t-170 -113.5t-193.5 -37q-100 0 -175 35t-124 94.5t-72.5 137t-23.5 161.5q0 96 28.5 196.5t86 181.5t143.5 132t203 51q53 0 103 -10t93 -39l8 6q-29 72 -66.5 138.5t-80.5 138.5 l-180 -101l-41 80l172 92q-33 47 -70 92.5t-80 88.5q33 0 72 3t76 7t67.5 10t51.5 10l73 -96zM479 29q68 0 116 40t80 101t50 134t27.5 137.5t11.5 112.5t2 60q0 53 -8 99.5t-26.5 81t-51.5 55t-82 20.5q-86 0 -140.5 -58t-86 -145t-44 -187.5t-12.5 -184.5q0 -51 7.5 -99.5 t26 -85t50 -59t80.5 -22.5z" />
<glyph unicode="&#xf1;" horiz-adv-x="1161" d="M475 791q47 84 122 133t187 49q125 0 180.5 -63.5t55.5 -155.5q0 -41 -7 -81t-14 -79l-53 -330q-8 -45 -14 -78.5t-6 -60.5q0 -37 27.5 -48t78.5 -11q16 0 31.5 1t28.5 3l-15 -74q-43 4 -87 6t-85 2q-59 0 -121.5 -3t-121.5 -13l104 585q12 68 20.5 127.5t8.5 100.5 t-17.5 64.5t-58.5 23.5q-25 0 -64 -15.5t-81 -59.5t-78.5 -123t-59.5 -208l-84 -483h-241q14 63 28.5 132t26.5 132.5t21.5 116.5t15.5 88l37 227q4 33 8 59.5t4 47.5q0 35 -18.5 52t-67.5 17h-36.5t-45.5 -4l12 74q29 -4 58.5 -4h56.5q66 0 127 3t143 22v-15 q-2 -37 -4 -68.5t-10 -86.5zM360 1176q20 37 47 73.5t58 65t67.5 47t77.5 18.5q51 0 81 -18.5t53.5 -40t49 -39.5t70.5 -18q39 0 71 33.5t58 84.5l70 -47q-25 -37 -48.5 -73.5t-52 -67.5t-66.5 -50.5t-89 -19.5q-41 0 -70.5 18.5t-56.5 40t-55.5 40t-67.5 18.5 q-37 0 -69.5 -31.5t-55.5 -79.5z" />
<glyph unicode="&#xf2;" horiz-adv-x="1079" d="M471 -37q-186 0 -288.5 113.5t-102.5 306.5q0 133 38 242.5t106.5 188.5t164.5 122t213 43q186 0 292.5 -113.5t106.5 -306.5q0 -133 -38.5 -242.5t-108.5 -188.5t-167 -122t-216 -43zM461 27q63 0 117.5 55t93.5 146t61.5 207t22.5 239q0 113 -34 177t-114 64 q-63 0 -115.5 -55t-89 -146t-57 -207t-20.5 -239q0 -113 29.5 -177t105.5 -64zM549 1245q-14 14 -31.5 30.5t-32 33t-24.5 34t-10 33.5q0 51 28.5 69.5t52.5 18.5q37 0 68 -27.5t60.5 -74.5t60.5 -109.5t65 -130.5l-65 -43z" />
<glyph unicode="&#xf3;" horiz-adv-x="1079" d="M471 -37q-186 0 -288.5 113.5t-102.5 306.5q0 133 38 242.5t106.5 188.5t164.5 122t213 43q186 0 292.5 -113.5t106.5 -306.5q0 -133 -38.5 -242.5t-108.5 -188.5t-167 -122t-216 -43zM461 27q63 0 117.5 55t93.5 146t61.5 207t22.5 239q0 113 -34 177t-114 64 q-63 0 -115.5 -55t-89 -146t-57 -207t-20.5 -239q0 -113 29.5 -177t105.5 -64zM549 1085l-49 50q53 68 99 128t88 104t80 70.5t75 26.5q27 0 54.5 -15t27.5 -60q0 -25 -15.5 -45.5t-38 -38t-48 -34t-48.5 -30.5z" />
<glyph unicode="&#xf4;" horiz-adv-x="1079" d="M471 -37q-186 0 -288.5 113.5t-102.5 306.5q0 133 38 242.5t106.5 188.5t164.5 122t213 43q186 0 292.5 -113.5t106.5 -306.5q0 -133 -38.5 -242.5t-108.5 -188.5t-167 -122t-216 -43zM461 27q63 0 117.5 55t93.5 146t61.5 207t22.5 239q0 113 -34 177t-114 64 q-63 0 -115.5 -55t-89 -146t-57 -207t-20.5 -239q0 -113 29.5 -177t105.5 -64zM371 1147q92 102 149.5 164.5t91 96.5t54 45t39.5 11q23 0 37 -9t34.5 -42t50 -96.5t82.5 -169.5l-63 -62l-168 191l-250 -191z" />
<glyph unicode="&#xf5;" horiz-adv-x="1079" d="M471 -37q-186 0 -288.5 113.5t-102.5 306.5q0 133 38 242.5t106.5 188.5t164.5 122t213 43q186 0 292.5 -113.5t106.5 -306.5q0 -133 -38.5 -242.5t-108.5 -188.5t-167 -122t-216 -43zM461 27q63 0 117.5 55t93.5 146t61.5 207t22.5 239q0 113 -34 177t-114 64 q-63 0 -115.5 -55t-89 -146t-57 -207t-20.5 -239q0 -113 29.5 -177t105.5 -64zM295 1176q20 37 47 73.5t57.5 65t67.5 47t78 18.5q51 0 80.5 -18.5t53 -40t49.5 -39.5t71 -18q39 0 70.5 33.5t58.5 84.5l69 -47q-25 -37 -48 -73.5t-52 -67.5t-66.5 -50.5t-89.5 -19.5 q-41 0 -70.5 18.5t-56 40t-55.5 40t-67 18.5q-37 0 -70 -31.5t-55 -79.5z" />
<glyph unicode="&#xf6;" horiz-adv-x="1079" d="M471 -37q-186 0 -288.5 113.5t-102.5 306.5q0 133 38 242.5t106.5 188.5t164.5 122t213 43q186 0 292.5 -113.5t106.5 -306.5q0 -133 -38.5 -242.5t-108.5 -188.5t-167 -122t-216 -43zM461 27q63 0 117.5 55t93.5 146t61.5 207t22.5 239q0 113 -34 177t-114 64 q-63 0 -115.5 -55t-89 -146t-57 -207t-20.5 -239q0 -113 29.5 -177t105.5 -64zM461 1122q-57 0 -82 35t-25 76q0 55 38 102t104 47q57 0 81.5 -34.5t24.5 -75.5q0 -55 -37.5 -102.5t-103.5 -47.5zM823 1122q-57 0 -81.5 35t-24.5 76q0 55 38 102t103 47q57 0 82 -34.5 t25 -75.5q0 -55 -38 -102.5t-104 -47.5z" />
<glyph unicode="&#xf7;" d="M410 219q0 47 31.5 78t78.5 31t78 -31t31 -78t-31 -78.5t-78 -31.5t-78.5 31.5t-31.5 78.5zM410 795q0 47 31.5 77.5t78.5 30.5t78 -30.5t31 -77.5t-31 -79t-78 -32t-78.5 32t-31.5 79zM985 553v-90h-930v90h930z" />
<glyph unicode="&#xf8;" horiz-adv-x="1097" d="M489 -37q-203 0 -305 133l-168 -164l-53 54l180 176q-45 90 -45 221q0 133 38 242.5t106.5 188.5t165 122t213.5 43q82 0 148.5 -23.5t117.5 -66.5l125 123l53 -54l-127 -124q82 -106 82 -275q0 -133 -39 -242.5t-108.5 -188.5t-167 -122t-216.5 -43zM479 27 q63 0 117.5 55t93.5 146t61.5 207t22.5 239l-430 -420q2 -106 31.5 -166.5t103.5 -60.5zM627 915q-57 0 -105.5 -46t-84.5 -122.5t-59.5 -177t-31.5 -209.5l420 412q-12 68 -46 105.5t-93 37.5z" />
<glyph unicode="&#xf9;" horiz-adv-x="1155" d="M684 154q-45 -84 -118.5 -133.5t-186.5 -49.5q-70 0 -115 18.5t-70.5 50.5t-36 73t-10.5 88q0 41 5.5 82t13.5 82l55 309q16 88 17 129q0 41 -22.5 53t-88.5 12h-26.5t-26.5 -2l14 78q25 -2 57.5 -4t57.5 -2q78 0 152.5 7t150.5 18q-16 -80 -27.5 -144.5t-23.5 -144.5 l-52 -309q-10 -61 -21 -122t-11 -102t15 -63.5t56 -22.5q27 0 66 14.5t80 57.5t77.5 122t59.5 206l86 487h242q-10 -37 -19.5 -83t-18.5 -93t-17.5 -92t-14.5 -80l-51 -283q-4 -16 -7 -40.5t-7.5 -49t-6.5 -45t-2 -31.5q0 -35 19.5 -57t68.5 -22h37t45 4l-14 -74 q-33 2 -64.5 3t-64.5 1q-66 0 -131.5 -5t-128.5 -20q2 41 6 74t12 86q0 4 1 9.5t1 9.5h-12zM592 1245q-14 14 -31.5 30.5t-32 33t-24.5 34t-10 33.5q0 51 28.5 69.5t52.5 18.5q37 0 68 -27.5t60.5 -74.5t60.5 -109.5t65 -130.5l-65 -43z" />
<glyph unicode="&#xfa;" horiz-adv-x="1155" d="M684 154q-45 -84 -118.5 -133.5t-186.5 -49.5q-70 0 -115 18.5t-70.5 50.5t-36 73t-10.5 88q0 41 5.5 82t13.5 82l55 309q16 88 17 129q0 41 -22.5 53t-88.5 12h-26.5t-26.5 -2l14 78q25 -2 57.5 -4t57.5 -2q78 0 152.5 7t150.5 18q-16 -80 -27.5 -144.5t-23.5 -144.5 l-52 -309q-10 -61 -21 -122t-11 -102t15 -63.5t56 -22.5q27 0 66 14.5t80 57.5t77.5 122t59.5 206l86 487h242q-10 -37 -19.5 -83t-18.5 -93t-17.5 -92t-14.5 -80l-51 -283q-4 -16 -7 -40.5t-7.5 -49t-6.5 -45t-2 -31.5q0 -35 19.5 -57t68.5 -22h37t45 4l-14 -74 q-33 2 -64.5 3t-64.5 1q-66 0 -131.5 -5t-128.5 -20q2 41 6 74t12 86q0 4 1 9.5t1 9.5h-12zM584 1085l-49 50q53 68 99 128t88 104t80 70.5t75 26.5q27 0 54 -15t27 -60q0 -25 -15 -45.5t-37.5 -38t-48.5 -34t-48 -30.5z" />
<glyph unicode="&#xfb;" horiz-adv-x="1155" d="M684 154q-45 -84 -118.5 -133.5t-186.5 -49.5q-70 0 -115 18.5t-70.5 50.5t-36 73t-10.5 88q0 41 5.5 82t13.5 82l55 309q16 88 17 129q0 41 -22.5 53t-88.5 12h-26.5t-26.5 -2l14 78q25 -2 57.5 -4t57.5 -2q78 0 152.5 7t150.5 18q-16 -80 -27.5 -144.5t-23.5 -144.5 l-52 -309q-10 -61 -21 -122t-11 -102t15 -63.5t56 -22.5q27 0 66 14.5t80 57.5t77.5 122t59.5 206l86 487h242q-10 -37 -19.5 -83t-18.5 -93t-17.5 -92t-14.5 -80l-51 -283q-4 -16 -7 -40.5t-7.5 -49t-6.5 -45t-2 -31.5q0 -35 19.5 -57t68.5 -22h37t45 4l-14 -74 q-33 2 -64.5 3t-64.5 1q-66 0 -131.5 -5t-128.5 -20q2 41 6 74t12 86q0 4 1 9.5t1 9.5h-12zM391 1147q92 102 149.5 164.5t91.5 96.5t54.5 45t38.5 11q23 0 37 -9t34.5 -42t50.5 -96.5t83 -169.5l-64 -62l-168 191l-249 -191z" />
<glyph unicode="&#xfc;" horiz-adv-x="1155" d="M684 154q-45 -84 -118.5 -133.5t-186.5 -49.5q-70 0 -115 18.5t-70.5 50.5t-36 73t-10.5 88q0 41 5.5 82t13.5 82l55 309q16 88 17 129q0 41 -22.5 53t-88.5 12h-26.5t-26.5 -2l14 78q25 -2 57.5 -4t57.5 -2q78 0 152.5 7t150.5 18q-16 -80 -27.5 -144.5t-23.5 -144.5 l-52 -309q-10 -61 -21 -122t-11 -102t15 -63.5t56 -22.5q27 0 66 14.5t80 57.5t77.5 122t59.5 206l86 487h242q-10 -37 -19.5 -83t-18.5 -93t-17.5 -92t-14.5 -80l-51 -283q-4 -16 -7 -40.5t-7.5 -49t-6.5 -45t-2 -31.5q0 -35 19.5 -57t68.5 -22h37t45 4l-14 -74 q-33 2 -64.5 3t-64.5 1q-66 0 -131.5 -5t-128.5 -20q2 41 6 74t12 86q0 4 1 9.5t1 9.5h-12zM502 1122q-57 0 -82 35t-25 76q0 55 38 102t104 47q57 0 81.5 -34.5t24.5 -75.5q0 -55 -37.5 -102.5t-103.5 -47.5zM864 1122q-57 0 -81.5 35t-24.5 76q0 55 38 102t103 47 q57 0 82 -34.5t25 -75.5q0 -55 -38 -102.5t-104 -47.5z" />
<glyph unicode="&#xfd;" horiz-adv-x="1028" d="M391 -8l-131 583q-23 102 -38 162t-30.5 89.5t-34 37.5t-48.5 8q-8 0 -25.5 -2t-28.5 -2l13 74q27 -2 52 -3t52 -1q72 0 139.5 7t137.5 18q4 -127 20 -227.5t33.5 -185.5t32 -156.5t14.5 -139.5h12l193 309q45 72 81.5 138.5t36.5 119.5q0 29 -35.5 40t-76.5 11 q-25 0 -48.5 -1t-37.5 -3l12 74q23 -2 52.5 -3t49.5 -1q68 0 122.5 7t119.5 18q0 -35 -13 -74t-40 -91.5t-68 -119t-96 -154.5l-348 -553q-70 -125 -119 -209t-91 -136t-82 -74.5t-89 -22.5q-57 0 -88 35t-31 78q0 25 9.5 48t25.5 41.5t41 31t53 12.5q37 0 59.5 -4t49.5 -4 q25 0 54.5 23.5t70.5 92.5zM575 1085l-49 50q53 68 99.5 128t88.5 104t79.5 70.5t74.5 26.5q27 0 54.5 -15t27.5 -60q0 -25 -15 -45.5t-38 -38t-48.5 -34t-47.5 -30.5z" />
<glyph unicode="&#xfe;" horiz-adv-x="1095" d="M782 682q0 45 -4 85t-16 68.5t-34.5 46t-59.5 17.5q-47 0 -102.5 -52t-101.5 -140.5t-77 -202t-31 -238.5q0 -98 28 -159.5t105 -61.5q61 0 114.5 63.5t93.5 160t62.5 207t22.5 206.5zM504 1098q-16 -84 -30.5 -146.5t-37.5 -126.5l8 -4q59 80 130 118t143 38 q139 0 222 -104.5t83 -278.5q0 -139 -39 -254t-105.5 -196t-156.5 -126t-193 -45q-86 0 -135 29t-86 78l-12 -4q0 -16 3 -36t3 -34q0 -41 -2 -66.5t-5 -43t-7 -30.5t-6 -32q-10 -66 -16.5 -96.5t-6.5 -52.5q0 -41 21.5 -57.5t74.5 -16.5q29 0 78 6l-12 -74q-29 4 -65 4h-64 q-72 0 -146.5 -3t-152.5 -21l297 1675q4 29 7 50.5t3 39.5q0 41 -21.5 59.5t-74.5 18.5q-33 0 -82 -6l14 74q29 -4 58.5 -4h60.5q78 0 156.5 8t160.5 26z" />
<glyph unicode="&#xff;" horiz-adv-x="1028" d="M391 -8l-131 583q-23 102 -38 162t-30.5 89.5t-34 37.5t-48.5 8q-8 0 -25.5 -2t-28.5 -2l13 74q27 -2 52 -3t52 -1q72 0 139.5 7t137.5 18q4 -127 20 -227.5t33.5 -185.5t32 -156.5t14.5 -139.5h12l193 309q45 72 81.5 138.5t36.5 119.5q0 29 -35.5 40t-76.5 11 q-25 0 -48.5 -1t-37.5 -3l12 74q23 -2 52.5 -3t49.5 -1q68 0 122.5 7t119.5 18q0 -35 -13 -74t-40 -91.5t-68 -119t-96 -154.5l-348 -553q-70 -125 -119 -209t-91 -136t-82 -74.5t-89 -22.5q-57 0 -88 35t-31 78q0 25 9.5 48t25.5 41.5t41 31t53 12.5q37 0 59.5 -4t49.5 -4 q25 0 54.5 23.5t70.5 92.5zM492 1122q-57 0 -82 35t-25 76q0 55 38 102t103 47q57 0 82 -34.5t25 -75.5q0 -55 -37.5 -102.5t-103.5 -47.5zM854 1122q-57 0 -81.5 35t-24.5 76q0 55 37.5 102t103.5 47q57 0 81.5 -34.5t24.5 -75.5q0 -55 -37.5 -102.5t-103.5 -47.5z" />
<glyph unicode="&#x104;" horiz-adv-x="1413" d="M1192 240q16 -78 44 -124t77 -46q10 0 24.5 1t26.5 3l-16 -80q-29 4 -58.5 5t-58.5 3q-90 -57 -129 -112.5t-39 -125.5q0 -51 25.5 -72.5t68.5 -21.5q18 0 42 5.5t52 19.5l23 -80q-33 -16 -78 -24.5t-78 -8.5q-98 0 -145 40t-47 104q0 55 18.5 96t48 73.5t68.5 59.5 t80 49q-27 2 -52.5 2h-50.5q-152 0 -313 -12l16 80q23 -4 40.5 -4h43.5q20 0 42 1t39.5 9t28.5 23.5t11 43.5q0 23 -5 42.5t-9 41.5l-58 291h-495l-150 -266q-23 -41 -35 -72.5t-12 -54.5q0 -29 27 -44t94 -15h35.5t42.5 4l-16 -80q-4 0 -7.5 1t-7.5 1q-35 2 -63.5 4t-54 4 t-54 2h-63.5q-37 0 -64.5 -1t-52.5 -2t-48.5 -4t-51.5 -5l16 80q10 -2 19.5 -2h19.5q31 0 53.5 8t41 27.5t38.5 53.5t49 87l674 1222h111zM418 594h440l-80 389q-4 27 -12 79t-12 128h-11z" />
<glyph unicode="&#x105;" horiz-adv-x="1048" d="M608 145q-16 -31 -41.5 -61.5t-63.5 -55t-87 -41t-111 -16.5q-78 0 -129 20.5t-82 53.5t-44 73t-13 77q0 57 22.5 117.5t88 109.5t183.5 82t310 35l23 129q4 25 7 55.5t5 58.5q0 53 -22.5 94.5t-88.5 41.5t-103.5 -31t-37.5 -92q0 -31 -7 -63t-24.5 -57.5t-45.5 -42 t-66 -16.5q-14 0 -32 5.5t-34 17.5t-27.5 32.5t-11.5 51.5q0 51 26.5 98t78 82t127 55.5t172.5 20.5q166 0 236.5 -66.5t70.5 -183.5q0 -20 -2 -42.5t-6 -45.5l-68 -414q-2 -10 -4 -27.5t-2 -37.5q0 -23 6 -40.5t27 -17.5q35 0 61.5 33t40.5 58l57 -41q-45 -78 -98 -123 t-104 -56q-68 -51 -98.5 -100t-30.5 -111q0 -51 25.5 -72.5t68.5 -21.5q18 0 41.5 5.5t52.5 19.5l23 -80q-33 -16 -78 -24.5t-78 -8.5q-98 0 -145.5 40t-47.5 104q0 49 14.5 86.5t39 68.5t56.5 55.5t69 47.5q-43 16 -67 56t-24 87q0 6 2 16zM629 471q-162 0 -258.5 -67.5 t-96.5 -204.5q0 -25 5.5 -48.5t17.5 -44t32.5 -33t51.5 -12.5q55 0 94 29t65.5 74t43 96t24.5 98z" />
<glyph unicode="&#x106;" horiz-adv-x="1253" d="M1298 1417q-16 -86 -26 -183t-12 -204h-82q4 20 4 40v38q0 82 -23.5 138.5t-62.5 91t-89.5 49t-101.5 14.5q-102 0 -192 -54.5t-158 -161t-106.5 -261t-38.5 -357.5q0 -115 20.5 -211t61 -165.5t102 -107.5t145.5 -38q129 0 222.5 68.5t148.5 185.5l78 -33 q-92 -168 -206 -235.5t-267 -67.5q-129 0 -235.5 42t-182.5 123t-118 201t-42 273q0 211 61.5 374t167 272.5t246 165.5t297.5 56q129 0 230.5 -18.5t158.5 -34.5zM739 1536l-32 57q57 57 114.5 109.5t110.5 92.5t99 64.5t81 24.5q29 0 57.5 -15.5t28.5 -56.5 q0 -29 -13.5 -50t-34 -37.5t-46 -29t-49.5 -22.5z" />
<glyph unicode="&#x107;" horiz-adv-x="929" d="M848 250q-66 -135 -161 -211t-236 -76q-102 0 -173 33t-115 88t-63.5 129t-19.5 156q0 135 35 246.5t101.5 192.5t162.5 126t219 45q86 0 144.5 -22.5t94 -56.5t51 -74t15.5 -76q0 -49 -16.5 -81t-38 -49.5t-46 -24.5t-38.5 -7q-41 0 -77 22.5t-36 75.5q0 31 5.5 50.5 t12.5 34.5t12 28.5t5 31.5q0 37 -18.5 59.5t-65.5 22.5q-100 0 -166.5 -111.5t-101.5 -328.5q-4 -25 -8 -58.5t-4 -72.5q0 -53 8 -106.5t27.5 -98.5t54 -72.5t88.5 -27.5q31 0 67.5 12t74.5 41t75 76t67 117zM500 1085l-49 50q53 68 99 128t88 104t80 70.5t75 26.5 q27 0 54 -15t27 -60q0 -25 -15 -45.5t-37.5 -38t-48 -34t-48.5 -30.5z" />
<glyph unicode="&#x10c;" horiz-adv-x="1253" d="M1298 1417q-16 -86 -26 -183t-12 -204h-82q4 20 4 40v38q0 82 -23.5 138.5t-62.5 91t-89.5 49t-101.5 14.5q-102 0 -192 -54.5t-158 -161t-106.5 -261t-38.5 -357.5q0 -115 20.5 -211t61 -165.5t102 -107.5t145.5 -38q129 0 222.5 68.5t148.5 185.5l78 -33 q-92 -168 -206 -235.5t-267 -67.5q-129 0 -235.5 42t-182.5 123t-118 201t-42 273q0 211 61.5 374t167 272.5t246 165.5t297.5 56q129 0 230.5 -18.5t158.5 -34.5zM1208 1829l-190 -199q-51 -53 -80 -75.5t-64 -22.5q-33 0 -57 29.5t-67 89.5l-127 178l55 55l219 -188 l260 188z" />
<glyph unicode="&#x10d;" horiz-adv-x="929" d="M848 250q-66 -135 -161 -211t-236 -76q-102 0 -173 33t-115 88t-63.5 129t-19.5 156q0 135 35 246.5t101.5 192.5t162.5 126t219 45q86 0 144.5 -22.5t94 -56.5t51 -74t15.5 -76q0 -49 -16.5 -81t-38 -49.5t-46 -24.5t-38.5 -7q-41 0 -77 22.5t-36 75.5q0 31 5.5 50.5 t12.5 34.5t12 28.5t5 31.5q0 37 -18.5 59.5t-65.5 22.5q-100 0 -166.5 -111.5t-101.5 -328.5q-4 -25 -8 -58.5t-4 -72.5q0 -53 8 -106.5t27.5 -98.5t54 -72.5t88.5 -27.5q31 0 67.5 12t74.5 41t75 76t67 117zM922 1403q-92 -102 -150.5 -164.5t-94.5 -96.5t-56.5 -45.5 t-36.5 -11.5q-20 0 -32.5 10.5t-31 44.5t-47.5 98.5t-82 170.5l62 51l155 -182l262 186z" />
<glyph unicode="&#x10e;" horiz-adv-x="1517" d="M633 66q162 0 271.5 77.5t177 196.5t97 262t29.5 272q0 74 -12 160t-49 160t-103.5 123t-175.5 49q-53 0 -88 -6t-56.5 -23.5t-34.5 -49.5t-21 -81l-172 -927q-6 -33 -10.5 -58.5t-4.5 -48.5q0 -53 32 -79.5t120 -26.5zM23 74q39 -6 71 -6q35 0 59.5 6t43 27.5t32 64.5 t25.5 115l154 872q4 23 8 48.5t4 51.5q0 45 -18.5 79t-73.5 34q-16 0 -45 -1t-58 -5l17 80q70 -8 120 -10.5t99 -2.5q43 0 85 2.5t91 4.5t108.5 4t139.5 2q141 0 249.5 -46t183.5 -126t112.5 -190.5t37.5 -239.5q0 -219 -65.5 -378t-179 -262.5t-267 -153.5t-331.5 -50 q-59 0 -99.5 2t-75 4t-71.5 4t-88 2q-61 0 -128 -2t-157 -10zM1262 1829l-191 -199q-51 -53 -79.5 -75.5t-63.5 -22.5q-33 0 -57.5 29.5t-67.5 89.5l-127 178l55 55l219 -188l260 188z" />
<glyph unicode="&#x10f;" horiz-adv-x="1159" d="M317 260q0 -45 5.5 -85t17.5 -68.5t34.5 -46t59.5 -17.5q49 0 103.5 52t100.5 139.5t75.5 202t29.5 239.5q0 96 -29.5 159.5t-105.5 63.5q-61 0 -114.5 -64.5t-92.5 -159.5t-61.5 -208t-22.5 -207zM797 860q0 70 7 130.5t17 117.5l27 180q4 35 -16.5 58.5t-77.5 23.5 q-16 0 -39 -1t-47 -5l10 74q29 -4 68.5 -4h68.5q72 0 146.5 3t152.5 21l-209 -1177q-6 -33 -12 -77t-6 -63q0 -76 94 -75h35.5t42.5 4l-15 -74q-80 6 -153 6q-57 0 -113.5 -5t-115.5 -17q0 35 1 54t3 35.5t5 34t7 48.5l-10 4q-51 -96 -116 -140.5t-175 -44.5 q-133 0 -217 99.5t-84 273.5q0 145 40 261t107.5 197t156.5 124t187 43q86 0 134.5 -27t86.5 -84zM1268 1214q0 23 -12.5 36.5t-27 26.5t-26.5 32.5t-12 56.5q0 47 31.5 72.5t72.5 25.5q123 0 123 -147q0 -63 -19.5 -110.5t-54 -82t-84 -63.5t-106.5 -55l-37 77 q16 6 42 18.5t50.5 29t42 37.5t17.5 46z" />
<glyph unicode="&#x118;" horiz-adv-x="1267" d="M25 74q43 -6 73 -6q37 0 60.5 6t40 27.5t30 64.5t25.5 115l154 872q8 41 12 72.5t4 54.5q0 53 -24.5 69.5t-80.5 16.5q-35 0 -92 -6l17 80q131 -8 249.5 -10.5t233.5 -2.5q147 0 279.5 3.5t271.5 9.5q-10 -55 -16.5 -100.5t-11.5 -88.5t-7 -90t-4 -108h-78q4 35 6 63.5 t2 54.5q0 68 -15 106t-47 55.5t-80 21.5t-112 4q-74 0 -117.5 -5t-69.5 -21.5t-37 -50.5t-21 -89l-72 -404q35 -2 63.5 -2h53.5q59 0 98 13.5t63.5 41t39 67.5t26.5 93l72 -14q-35 -117 -56.5 -238.5t-31.5 -250.5h-80q16 70 16 112q0 33 -10 53.5t-37 32t-73 15.5t-115 4 h-41l-76 -434q-6 -39 -10 -68t-4 -51q0 -29 8 -46.5t28.5 -26.5t53 -11t82.5 -2q98 0 165.5 5t115.5 37t80 98.5t61 189.5l79 -11q-25 -61 -38 -110t-22 -95.5t-17.5 -92.5t-20.5 -103q-29 2 -54.5 3t-53.5 1q-88 -57 -126 -111.5t-38 -122.5q0 -51 25.5 -72.5t68.5 -21.5 q18 0 41.5 5.5t52.5 19.5l23 -80q-33 -16 -78 -24.5t-78 -8.5q-98 0 -145 40t-47 104q0 53 17 94t46 73.5t65.5 58t77.5 48.5q-113 4 -224.5 5t-213.5 1q-117 0 -212 -2t-208 -10z" />
<glyph unicode="&#x119;" horiz-adv-x="980" d="M870 248q-55 -90 -119.5 -160t-156.5 -100q-78 -53 -113 -105.5t-35 -118.5q0 -51 26 -72.5t69 -21.5q18 0 41.5 5.5t52.5 19.5l22 -80q-33 -16 -77.5 -24.5t-77.5 -8.5q-98 0 -145.5 40t-47.5 104q0 86 43 141t103 96h-2q-92 0 -163 31t-118 85t-71.5 128t-24.5 160 q0 135 41 247.5t113.5 193.5t173 126t221.5 45q72 0 130 -18.5t99 -51t63.5 -78t22.5 -96.5q0 -104 -49 -159.5t-133 -80t-195.5 -28.5t-234.5 -4q-12 -78 -13 -141q0 -141 54.5 -207t154.5 -66q66 0 136.5 51.5t140.5 178.5zM346 528q63 0 129 8.5t119 37t88 83t35 144.5 q0 53 -26.5 82.5t-76.5 29.5q-53 0 -97 -35.5t-77.5 -92t-57.5 -125.5t-36 -132z" />
<glyph unicode="&#x11a;" horiz-adv-x="1267" d="M25 74q43 -6 73 -6q37 0 60.5 6t40 27.5t30 64.5t25.5 115l154 872q8 41 12 72.5t4 54.5q0 53 -24.5 69.5t-80.5 16.5q-35 0 -92 -6l17 80q131 -8 249.5 -10.5t233.5 -2.5q147 0 279.5 3.5t271.5 9.5q-10 -55 -16.5 -100.5t-11.5 -88.5t-7 -90t-4 -108h-78q4 35 6 63.5 t2 54.5q0 68 -15 106t-47 55.5t-80 21.5t-112 4q-74 0 -117.5 -5t-69.5 -21.5t-37 -50.5t-21 -89l-72 -404q35 -2 63.5 -2h53.5q59 0 98 13.5t63.5 41t39 67.5t26.5 93l72 -14q-35 -117 -56.5 -238.5t-31.5 -250.5h-80q16 70 16 112q0 33 -10 53.5t-37 32t-73 15.5t-115 4 h-41l-76 -434q-6 -39 -10 -68t-4 -51q0 -29 8 -46.5t28.5 -26.5t53 -11t82.5 -2q98 0 165.5 5t115.5 37t80 98.5t61 189.5l79 -11q-25 -61 -38 -110t-22 -95.5t-17.5 -92.5t-20.5 -103q-160 6 -325.5 9t-315.5 3q-117 0 -212 -2t-208 -10zM1167 1829l-190 -199 q-51 -53 -80 -75.5t-63 -22.5q-33 0 -57.5 29.5t-67.5 89.5l-127 178l55 55l219 -188l260 188z" />
<glyph unicode="&#x11b;" horiz-adv-x="980" d="M870 248q-37 -59 -77.5 -111.5t-91 -91.5t-112 -60.5t-136.5 -21.5q-92 0 -163 31t-118 85t-71.5 128t-24.5 160q0 135 41 247.5t113.5 193.5t173 126t221.5 45q72 0 130 -18.5t99 -51t63.5 -78t22.5 -96.5q0 -104 -49 -159.5t-133 -80t-195.5 -28.5t-234.5 -4 q-12 -78 -13 -141q0 -141 54.5 -207t154.5 -66q66 0 136.5 51.5t140.5 178.5zM346 528q63 0 129 8.5t119 37t88 83t35 144.5q0 53 -26.5 82.5t-76.5 29.5q-53 0 -97 -35.5t-77.5 -92t-57.5 -125.5t-36 -132zM942 1403q-92 -102 -150.5 -164.5t-94 -96.5t-56 -45.5 t-37.5 -11.5q-20 0 -32.5 10.5t-31 44.5t-47 98.5t-81.5 170.5l61 51l156 -182l262 186z" />
<glyph unicode="&#x141;" horiz-adv-x="1167" d="M602 846l201 94l28 -86l-247 -115l-84 -477q-4 -29 -8.5 -50.5t-4.5 -39.5q0 -55 37 -75.5t140 -20.5q76 0 137 13t107 53t81 112t60 190l77 -16q-20 -61 -34.5 -115.5t-26.5 -106.5t-22.5 -103.5t-20.5 -108.5q-78 2 -144.5 5t-129 4t-127 2t-138.5 1q-119 0 -240.5 -2 t-234.5 -10l15 80q39 -6 73 -6q37 0 60.5 6t41 27.5t31 64.5t25.5 115l59 331l-182 -84l-27 86l228 107l78 432q12 70 12 115q0 61 -24.5 79.5t-73.5 18.5q-16 0 -43 -1t-56 -5l17 80q63 -4 108 -7t82 -4.5t72 -1.5h82h76.5t64.5 1.5t75 4.5t107 7l-16 -80q-43 6 -70 6 q-37 0 -62.5 -6t-44 -27.5t-31.5 -64.5t-28 -115z" />
<glyph unicode="&#x142;" horiz-adv-x="684" d="M53 614l240 105l84 487q4 25 7 43.5t3 34.5q0 51 -22.5 67.5t-71.5 16.5h-34.5t-41.5 -4l12 74q29 -4 67 -4h66q76 0 144.5 3t150.5 21l-112 -629l157 70l29 -86l-205 -90q-23 -127 -41 -231.5t-30.5 -181.5t-19.5 -122t-7 -51q0 -47 29.5 -59t70.5 -12q20 0 39 1t37 3 l-14 -74q-37 4 -95.5 6t-95.5 2q-35 0 -63.5 -1t-56 -3t-57 -5t-66.5 -7q10 45 25.5 117.5t28.5 145.5t24.5 134t15.5 84l24 143l-192 -84z" />
<glyph unicode="&#x143;" horiz-adv-x="1538" d="M1327 1190q6 33 6 70q0 43 -19.5 74.5t-78.5 31.5q-16 0 -47 -1t-53 -5l16 80q39 -2 67.5 -4t55 -3t53.5 -2t64 -1t66.5 1t58 2t60.5 3t73 4l-17 -80q-23 2 -40 3t-33 1q-39 0 -64 -8t-40 -28.5t-25.5 -53.5t-18.5 -84l-223 -1223h-98l-459 994q-35 72 -63.5 137 t-45.5 127h-16l-174 -981q-6 -35 -6 -62q0 -51 24.5 -82.5t93.5 -31.5q18 0 37 1t41 5l-16 -80l-136.5 7t-131.5 3q-37 0 -62.5 -1t-49.5 -2t-51.5 -3t-66.5 -4l17 80q39 -6 71 -6q70 0 99.5 37.5t48.5 138.5l174 966q6 37 6 66q0 51 -24.5 70.5t-82.5 19.5q-16 0 -40.5 -1 t-47.5 -3l17 78q80 -6 139 -9.5t119 -3.5q45 0 100 2.5t107 10.5q23 -102 55.5 -173t56.5 -124l219 -467q29 -61 60 -134t61 -167h15zM834 1536l-33 57q57 57 114.5 109.5t110.5 92.5t99 64.5t81 24.5q29 0 57.5 -15.5t28.5 -56.5q0 -29 -13 -50t-33.5 -37.5t-46 -29 t-50.5 -22.5z" />
<glyph unicode="&#x144;" horiz-adv-x="1161" d="M475 791q47 84 122 133t187 49q125 0 180.5 -63.5t55.5 -155.5q0 -41 -7 -81t-14 -79l-53 -330q-8 -45 -14 -78.5t-6 -60.5q0 -37 27.5 -48t78.5 -11q16 0 31.5 1t28.5 3l-15 -74q-43 4 -87 6t-85 2q-59 0 -121.5 -3t-121.5 -13l104 585q12 68 20.5 127.5t8.5 100.5 t-17.5 64.5t-58.5 23.5q-25 0 -64 -15.5t-81 -59.5t-78.5 -123t-59.5 -208l-84 -483h-241q14 63 28.5 132t26.5 132.5t21.5 116.5t15.5 88l37 227q4 33 8 59.5t4 47.5q0 35 -18.5 52t-67.5 17h-36.5t-45.5 -4l12 74q29 -4 58.5 -4h56.5q66 0 127 3t143 22v-15 q-2 -37 -4 -68.5t-10 -86.5zM602 1085l-49 50q53 68 99 128t88 104t80 70.5t75 26.5q27 0 54.5 -15t27.5 -60q0 -25 -15.5 -45.5t-38 -38t-48 -34t-48.5 -30.5z" />
<glyph unicode="&#x147;" horiz-adv-x="1538" d="M1327 1190q6 33 6 70q0 43 -19.5 74.5t-78.5 31.5q-16 0 -47 -1t-53 -5l16 80q39 -2 67.5 -4t55 -3t53.5 -2t64 -1t66.5 1t58 2t60.5 3t73 4l-17 -80q-23 2 -40 3t-33 1q-39 0 -64 -8t-40 -28.5t-25.5 -53.5t-18.5 -84l-223 -1223h-98l-459 994q-35 72 -63.5 137 t-45.5 127h-16l-174 -981q-6 -35 -6 -62q0 -51 24.5 -82.5t93.5 -31.5q18 0 37 1t41 5l-16 -80l-136.5 7t-131.5 3q-37 0 -62.5 -1t-49.5 -2t-51.5 -3t-66.5 -4l17 80q39 -6 71 -6q70 0 99.5 37.5t48.5 138.5l174 966q6 37 6 66q0 51 -24.5 70.5t-82.5 19.5q-16 0 -40.5 -1 t-47.5 -3l17 78q80 -6 139 -9.5t119 -3.5q45 0 100 2.5t107 10.5q23 -102 55.5 -173t56.5 -124l219 -467q29 -61 60 -134t61 -167h15zM1296 1829l-190 -199q-51 -53 -80 -75.5t-63 -22.5q-33 0 -57.5 29.5t-67.5 89.5l-127 178l55 55l219 -188l260 188z" />
<glyph unicode="&#x148;" horiz-adv-x="1161" d="M475 791q47 84 122 133t187 49q125 0 180.5 -63.5t55.5 -155.5q0 -41 -7 -81t-14 -79l-53 -330q-8 -45 -14 -78.5t-6 -60.5q0 -37 27.5 -48t78.5 -11q16 0 31.5 1t28.5 3l-15 -74q-43 4 -87 6t-85 2q-59 0 -121.5 -3t-121.5 -13l104 585q12 68 20.5 127.5t8.5 100.5 t-17.5 64.5t-58.5 23.5q-25 0 -64 -15.5t-81 -59.5t-78.5 -123t-59.5 -208l-84 -483h-241q14 63 28.5 132t26.5 132.5t21.5 116.5t15.5 88l37 227q4 33 8 59.5t4 47.5q0 35 -18.5 52t-67.5 17h-36.5t-45.5 -4l12 74q29 -4 58.5 -4h56.5q66 0 127 3t143 22v-15 q-2 -37 -4 -68.5t-10 -86.5zM1024 1403q-92 -102 -150.5 -164.5t-94.5 -96.5t-56.5 -45.5t-36.5 -11.5q-20 0 -32.5 10.5t-31 44.5t-47 98.5t-81.5 170.5l61 51l156 -182l262 186z" />
<glyph unicode="&#x152;" horiz-adv-x="1937" d="M1116 6q-104 -2 -209.5 -7t-206.5 -5q-121 0 -223 44t-179 124t-120 190.5t-43 241.5q0 203 61.5 361.5t168 267t251 166t308.5 57.5q63 0 134.5 -3t142.5 -6t137.5 -6.5t121.5 -3.5q70 0 129.5 1.5t115.5 2.5t113.5 3t125.5 6q-10 -55 -15.5 -100.5t-8.5 -87.5t-4 -87 t-1 -102h-78q2 14 2 26.5v22.5q0 90 -8 140.5t-36 74t-82 27.5t-144 4q-68 0 -107 -5t-60.5 -21.5t-31.5 -50.5t-20 -89l-74 -408q10 0 28.5 -1t36.5 -1q92 0 143.5 13.5t78 40t36 65.5t17.5 92l76 -12q-23 -74 -38.5 -135.5t-26.5 -118.5t-17 -112.5t-8 -114.5h-74 q6 29 8 50t2 50q0 27 -3 48.5t-23.5 35.5t-62.5 21.5t-122 7.5q-16 0 -32.5 -1t-32.5 -3l-86 -469q-6 -31 -10.5 -55.5t-4.5 -41.5q0 -45 32 -56t126 -11t163.5 6t121 37t89.5 98.5t68 190.5l76 -13q-20 -61 -32.5 -110t-21.5 -95.5t-16.5 -92.5t-17.5 -103q-152 6 -302.5 9 t-330.5 3zM961 1370q-119 0 -221.5 -53t-177.5 -157.5t-118 -260.5t-43 -360q0 -109 25 -196t70 -147.5t105.5 -93t133.5 -32.5q63 0 98 7t53.5 25.5t26 51t17.5 86.5l174 952q4 29 7 51.5t3 38.5q0 53 -31.5 70.5t-121.5 17.5z" />
<glyph unicode="&#x153;" horiz-adv-x="1638" d="M1518 236q-37 -59 -77 -109.5t-88 -86.5t-106.5 -56.5t-132.5 -20.5q-49 0 -97 6t-91 23.5t-78 47.5t-55 77q-41 -47 -76 -78t-73 -47.5t-84 -22.5t-109 -6q-86 0 -155 31t-117 84t-74.5 128t-26.5 165q0 139 40 251.5t111.5 191.5t170 121t214.5 42q98 0 181.5 -37 t124.5 -133q74 98 154.5 134t189.5 36q152 0 245 -67.5t93 -198.5q0 -53 -23 -98.5t-71 -79t-123.5 -52t-184.5 -18.5h-242q-8 -35 -9 -66.5t-1 -64.5q0 -127 56.5 -208t160.5 -81q31 0 68 11.5t75 37t75.5 69.5t72.5 109zM604 915q-74 0 -128 -65.5t-90 -162.5 t-54.5 -205.5t-18.5 -194.5q0 -53 9.5 -99.5t27 -82t45 -56t64.5 -20.5q57 0 101 34.5t76 91t53.5 127t34.5 143.5t18.5 141.5t5.5 119.5q0 106 -34 167.5t-110 61.5zM1249 915q-51 0 -98 -37.5t-86 -96t-65.5 -126t-34.5 -125.5h114q70 0 124 20.5t91 54.5t55.5 80t18.5 95 q0 55 -26.5 95t-92.5 40z" />
<glyph unicode="&#x158;" horiz-adv-x="1390" d="M504 281q-6 -33 -10.5 -60.5t-4.5 -56.5q0 -66 26 -81t79 -15q16 0 42 1t50 5l-16 -80q-160 12 -324 12t-338 -12l19 80q23 -4 35 -5t32 -1q37 0 62.5 7t43 29.5t30 64.5t24.5 112l156 872q6 37 11 66.5t5 52.5q0 63 -26.5 78.5t-80.5 15.5q-16 0 -42.5 -1t-49.5 -5 l15 80q90 -8 171 -10.5t142 -2.5q86 0 165 5.5t163 5.5q102 0 174.5 -24.5t119 -66.5t68 -98.5t21.5 -120.5q0 -168 -98.5 -261t-315.5 -122l-2 -12q74 0 120 -19.5t75.5 -53t44 -79.5t24.5 -100l49 -299q12 -72 36 -92t67 -20q20 0 35.5 1t39.5 3l-16 -80q-31 2 -53.5 4 t-42 3t-40 2t-44.5 1q-31 0 -54.5 -1t-49 -3t-55.5 -6t-71 -12q0 51 -6 114.5t-15 129t-19.5 130t-18.5 117.5q-10 70 -25.5 116t-39 72.5t-57.5 37t-81 10.5q-16 0 -35.5 -1t-37.5 -3zM592 778q18 -2 34.5 -3t32.5 -1q160 0 251 97.5t91 283.5q0 29 -5 67t-22.5 70.5 t-53 55t-97.5 22.5q-35 0 -58.5 -4t-41.5 -19.5t-30.5 -48t-22.5 -88.5zM1190 1829l-191 -199q-51 -53 -79.5 -75.5t-63.5 -22.5q-33 0 -57.5 29.5t-67.5 89.5l-127 178l55 55l220 -188l260 188z" />
<glyph unicode="&#x159;" horiz-adv-x="878" d="M461 778q41 94 112.5 142.5t163.5 48.5q53 0 88 -17.5t55.5 -44t29 -55.5t8.5 -51q0 -59 -36 -109.5t-100 -50.5q-51 0 -79.5 26.5t-28.5 67.5q0 12 5 38t5 48q0 18 -6 33.5t-25 15.5q-35 0 -68.5 -30.5t-62 -87t-53.5 -135t-41 -177.5l-78 -440h-244q10 37 20.5 80 t20 88t17.5 87t14 77l66 370q6 33 8 57.5t2 45.5q0 35 -17.5 51t-66.5 16h-41t-49 -4l14 74q33 -4 66 -4h65q61 0 121 5t119 20q-2 -45 -5 -84t-14 -101h15zM764 1403q-92 -102 -150.5 -164.5t-94.5 -96.5t-56.5 -45.5t-36.5 -11.5q-20 0 -32.5 10.5t-31 44.5t-47 98.5 t-82.5 170.5l62 51l156 -182l262 186z" />
<glyph unicode="&#x15a;" horiz-adv-x="1124" d="M469 37q59 0 113.5 18.5t94.5 54t63.5 86t23.5 115.5q0 82 -40 139.5t-99.5 103.5t-129 89t-129 95.5t-99.5 123t-40 172.5q0 96 34 177t98.5 138.5t157.5 89t212 31.5q100 0 186 -16t172 -41q-12 -51 -20 -90t-14 -79t-9.5 -87t-5.5 -113h-88q4 31 8.5 58.5t4.5 62.5 q0 104 -56.5 170t-167.5 66q-78 0 -131 -26.5t-86 -66.5t-46 -89.5t-13 -94.5q0 -72 41 -125t101.5 -97t132 -87t132 -95t101.5 -120t41 -164q0 -125 -41 -215t-114 -147.5t-170 -84t-208 -26.5q-104 0 -216.5 21.5t-190.5 46.5q12 68 21 115t15.5 91t9.5 94t3 122h92 q-4 -25 -7 -54.5t-3 -56.5q0 -55 11 -110.5t40 -98.5t81 -69.5t134 -26.5zM598 1536l-33 57q57 57 114.5 109.5t111 92.5t99.5 64.5t81 24.5q29 0 57.5 -15.5t28.5 -56.5q0 -29 -13.5 -50t-34 -37.5t-46 -29t-50.5 -22.5z" />
<glyph unicode="&#x15b;" horiz-adv-x="894" d="M821 936q-14 -68 -27.5 -135.5t-13.5 -141.5h-75q2 12 3 25.5t1 28.5q0 39 -8.5 74.5t-29 63.5t-54 44t-85.5 16q-84 0 -129 -40t-45 -113q0 -47 32 -81t79 -62.5t101.5 -57.5t101.5 -66.5t78.5 -90t31.5 -126.5q0 -90 -38.5 -149t-98 -95t-129.5 -51.5t-131 -15.5 q-43 0 -91 3t-95 9.5t-89 15.5t-73 21q10 39 18 75t13.5 71t8.5 72.5t3 82.5h84q-6 -29 -6 -69q0 -35 9 -74t30.5 -70.5t58.5 -52t94 -20.5q98 0 147.5 49t49.5 123q0 51 -31 87t-78 66.5t-100 60t-100.5 67.5t-78 88t-30.5 124q0 80 34 134.5t92 88t135 49t163 15.5 q76 0 145.5 -11.5t122.5 -31.5zM455 1085l-49 50q53 68 99 128t88 104t80 70.5t75 26.5q27 0 54 -15t27 -60q0 -25 -15 -45.5t-37.5 -38t-48.5 -34t-48 -30.5z" />
<glyph unicode="&#x160;" horiz-adv-x="1124" d="M469 37q59 0 113.5 18.5t94.5 54t63.5 86t23.5 115.5q0 82 -40 139.5t-99.5 103.5t-129 89t-129 95.5t-99.5 123t-40 172.5q0 96 34 177t98.5 138.5t157.5 89t212 31.5q100 0 186 -16t172 -41q-12 -51 -20 -90t-14 -79t-9.5 -87t-5.5 -113h-88q4 31 8.5 58.5t4.5 62.5 q0 104 -56.5 170t-167.5 66q-78 0 -131 -26.5t-86 -66.5t-46 -89.5t-13 -94.5q0 -72 41 -125t101.5 -97t132 -87t132 -95t101.5 -120t41 -164q0 -125 -41 -215t-114 -147.5t-170 -84t-208 -26.5q-104 0 -216.5 21.5t-190.5 46.5q12 68 21 115t15.5 91t9.5 94t3 122h92 q-4 -25 -7 -54.5t-3 -56.5q0 -55 11 -110.5t40 -98.5t81 -69.5t134 -26.5zM1061 1829l-191 -199q-51 -53 -79.5 -75.5t-63.5 -22.5q-33 0 -57.5 29.5t-67.5 89.5l-127 178l55 55l220 -188l260 188z" />
<glyph unicode="&#x161;" horiz-adv-x="894" d="M821 936q-14 -68 -27.5 -135.5t-13.5 -141.5h-75q2 12 3 25.5t1 28.5q0 39 -8.5 74.5t-29 63.5t-54 44t-85.5 16q-84 0 -129 -40t-45 -113q0 -47 32 -81t79 -62.5t101.5 -57.5t101.5 -66.5t78.5 -90t31.5 -126.5q0 -90 -38.5 -149t-98 -95t-129.5 -51.5t-131 -15.5 q-43 0 -91 3t-95 9.5t-89 15.5t-73 21q10 39 18 75t13.5 71t8.5 72.5t3 82.5h84q-6 -29 -6 -69q0 -35 9 -74t30.5 -70.5t58.5 -52t94 -20.5q98 0 147.5 49t49.5 123q0 51 -31 87t-78 66.5t-100 60t-100.5 67.5t-78 88t-30.5 124q0 80 34 134.5t92 88t135 49t163 15.5 q76 0 145.5 -11.5t122.5 -31.5zM858 1403q-92 -102 -150.5 -164.5t-94 -96.5t-56 -45.5t-37.5 -11.5q-20 0 -32.5 10.5t-31 44.5t-47 98.5t-81.5 170.5l61 51l156 -182l262 186z" />
<glyph unicode="&#x164;" horiz-adv-x="1208" d="M692 281q-8 -39 -12 -68t-4 -51q0 -59 24.5 -76.5t71.5 -17.5q16 0 45 1t57 5l-14 -80q-63 4 -108 7t-82 4t-73 1h-81h-78.5t-64.5 -1t-75 -4t-105 -7l16 80q23 -4 35 -5t28 -1q37 0 63.5 6t47 27.5t35 64.5t26.5 115l168 944q4 16 4 30.5v24.5q0 55 -29.5 66.5 t-101.5 11.5q-82 0 -127 -29t-69.5 -74t-35.5 -101t-26 -114l-82 11q18 55 29.5 103t20 94t15.5 92t17 100q39 -4 111 -6t152.5 -3t158.5 -2.5t129 -1.5t126 1.5t152 2.5t145.5 3t109.5 6q-16 -90 -28.5 -183.5t-14.5 -222.5h-88q4 39 11 83t7 85q0 31 -6 59.5t-22.5 50 t-48 34t-81.5 12.5q-55 0 -85.5 -5t-49 -24.5t-30 -60.5t-23.5 -111zM1118 1829l-190 -199q-51 -53 -80 -75.5t-64 -22.5q-33 0 -57.5 29.5t-67.5 89.5l-127 178l56 55l219 -188l260 188z" />
<glyph unicode="&#x165;" horiz-adv-x="704" d="M86 866l14 76h29q166 0 243 82t99 236h82l-55 -318h254l-13 -76h-254l-100 -585q-6 -31 -10 -64t-4 -61q0 -39 10 -66t39 -27q33 0 77 32t91 126l61 -41q-49 -102 -136 -160.5t-179 -58.5q-96 0 -145.5 46t-49.5 147q0 20 2 42.5t6 47.5l109 622h-170zM819 1214 q0 23 -12 36.5t-26.5 26.5t-27 32.5t-12.5 56.5q0 47 32 72.5t73 25.5q123 0 123 -147q0 -63 -19.5 -110.5t-54.5 -82t-84 -63.5t-106 -55l-37 77q16 6 41.5 18.5t50 29t42 37.5t17.5 46z" />
<glyph unicode="&#x16e;" horiz-adv-x="1490" d="M377 1153q6 35 10 63.5t4 59.5q0 57 -25.5 73.5t-82.5 16.5q-35 0 -86 -6l16 80q59 -4 102 -7t80 -4.5t72 -1.5h78h73.5t68.5 1.5t78 4.5t103 7l-16 -80q-41 6 -72 6q-35 0 -58.5 -6t-39.5 -28.5t-28.5 -64.5t-24.5 -114q-35 -205 -53.5 -316.5t-27.5 -163.5t-11 -62.5 t-2 -12.5q-10 -63 -19.5 -127.5t-9.5 -124.5q0 -63 12 -119.5t41 -98.5t79 -66.5t128 -24.5q92 0 159.5 40t123.5 118q29 39 49 84t36.5 103t31 133t32.5 175l86 473q12 70 12 111q0 57 -24.5 75.5t-75.5 18.5q-23 0 -48.5 -2t-55.5 -4l16 78q74 -4 132 -7t128 -3 q35 0 62.5 1l55 2t57.5 3t69 4l-17 -78q-23 2 -43 3t-36 1q-37 0 -60.5 -8t-41 -31.5t-29 -63.5t-21.5 -102l-76 -428q-20 -113 -33.5 -195.5t-30 -147t-39 -116t-59.5 -102.5q-66 -90 -164 -150.5t-243 -60.5q-121 0 -207 33t-143.5 92t-84 143t-26.5 187q0 39 3 79t11 83z M1014 1896q86 0 133 -54t47 -126q0 -76 -47 -129t-133 -53q-82 0 -131 53t-49 129q0 72 49 126t131 54zM926 1716q0 -47 25.5 -74.5t62.5 -27.5t62.5 27.5t25.5 74.5q0 45 -25.5 70.5t-62.5 25.5t-62.5 -25.5t-25.5 -70.5z" />
<glyph unicode="&#x16f;" horiz-adv-x="1155" d="M684 154q-45 -84 -118.5 -133.5t-186.5 -49.5q-70 0 -115 18.5t-70.5 50.5t-36 73t-10.5 88q0 41 5.5 82t13.5 82l55 309q16 88 17 129q0 41 -22.5 53t-88.5 12h-26.5t-26.5 -2l14 78q25 -2 57.5 -4t57.5 -2q78 0 152.5 7t150.5 18q-16 -80 -27.5 -144.5t-23.5 -144.5 l-52 -309q-10 -61 -21 -122t-11 -102t15 -63.5t56 -22.5q27 0 66 14.5t80 57.5t77.5 122t59.5 206l86 487h242q-10 -37 -19.5 -83t-18.5 -93t-17.5 -92t-14.5 -80l-51 -283q-4 -16 -7 -40.5t-7.5 -49t-6.5 -45t-2 -31.5q0 -35 19.5 -57t68.5 -22h37t45 4l-14 -74 q-33 2 -64.5 3t-64.5 1q-66 0 -131.5 -5t-128.5 -20q2 41 6 74t12 86q0 4 1 9.5t1 9.5h-12zM719 1464q86 0 137 -53t51 -127q0 -78 -51 -130t-137 -52q-82 0 -135.5 52t-53.5 130q0 74 53.5 127t135.5 53zM621 1284q0 -47 30.5 -76.5t67.5 -29.5t67.5 29.5t30.5 76.5 q0 45 -30.5 72.5t-67.5 27.5t-67.5 -27.5t-30.5 -72.5z" />
<glyph unicode="&#x178;" horiz-adv-x="1263" d="M758 717l317 457q33 47 51.5 80.5t18.5 56.5q0 53 -113 53q-27 0 -38 -1t-50 -3l17 80q131 -12 272 -13q53 0 103 2.5t100 10.5l-17 -80q-8 0 -20.5 1t-20.5 1q-31 0 -52 -8t-42.5 -28.5t-48.5 -58.5t-66 -96l-385 -565l-57 -325q-8 -41 -12 -71t-4 -52q0 -57 24.5 -73.5 t71.5 -16.5q12 0 43 1t59 5l-16 -80q-63 4 -107.5 7t-82 4t-73.5 1h-81h-78t-66.5 -1t-75.5 -4t-106 -7l15 80q23 -4 38 -5t31 -1q35 0 61.5 6t46 27.5t35 64.5t27.5 115l58 319l-199 582q-16 39 -25.5 72.5t-22 58t-32.5 38t-57 13.5q-10 0 -20.5 -1t-22.5 -3l16 80 q78 -6 159 -9.5t154 -3.5q74 0 135.5 3.5t143.5 9.5l-16 -80q-23 2 -28 3t-26 1q-63 0 -95 -13.5t-32 -66.5q0 -16 6.5 -34.5t16.5 -47.5l112 -321q14 -37 23.5 -75t19.5 -89h13zM559 1702q0 49 39 92t98 43q49 0 80 -31.5t31 -79.5q0 -55 -40 -96t-97 -41q-51 0 -81 33 t-30 80zM905 1702q0 49 39 92t98 43q49 0 81 -31.5t32 -79.5q0 -55 -40 -96t-99 -41q-49 0 -80 33t-31 80z" />
<glyph unicode="&#x179;" horiz-adv-x="1222" d="M788 1174q23 33 38.5 54t30.5 39.5t33.5 36t43.5 42.5q-45 4 -109.5 7t-150.5 3q-88 0 -152.5 -10.5t-112 -44t-80 -100t-57.5 -177.5l-86 12q25 70 39.5 117t24.5 89t18 87t19 111q113 -6 225.5 -10.5t228.5 -4.5q111 0 223.5 4.5t231.5 10.5l33 -64l-748 -1073 q-20 -29 -36.5 -53.5t-34 -49t-40 -51t-53.5 -61.5q31 -4 55.5 -5t57.5 -2t80 -1h125q104 0 177 12t122 51t81 109t56 186l88 -12q-27 -70 -43 -122t-28.5 -99t-21.5 -97.5t-22 -113.5q-92 4 -224 8t-273 4h-148.5t-121 -1t-110.5 -4t-118 -7l-31 59zM672 1536l-33 57 q57 57 114.5 109.5t111 92.5t99.5 64.5t80 24.5q29 0 57.5 -15.5t28.5 -56.5q0 -29 -13 -50t-33.5 -37.5t-46 -29t-50.5 -22.5z" />
<glyph unicode="&#x17a;" horiz-adv-x="907" d="M408 864q-96 -6 -147.5 -62.5t-78.5 -180.5l-71 8q18 57 27 95t15.5 70.5t10.5 67.5t12 86q20 -4 56 -6t81 -3t95.5 -2t101.5 -1q98 0 192.5 3t153.5 9l18 -57l-389 -565q-27 -39 -46 -70t-38.5 -59.5t-42 -56t-55.5 -58.5q41 -4 79 -4h79q74 0 120 20.5t75.5 56t46 87 t30.5 112.5l72 -8q-16 -63 -31 -125q-12 -53 -23.5 -113.5t-17.5 -113.5q-45 4 -139 8t-199 4q-100 0 -194.5 -3t-153.5 -9l-29 57l383 549q55 78 103.5 148.5t107.5 113.5q-23 2 -52.5 3t-63.5 1h-41.5t-46.5 -2zM451 1085l-50 50q53 68 99.5 128t88.5 104t80 70.5t74 26.5 q27 0 54.5 -15t27.5 -60q0 -25 -15 -45.5t-37.5 -38t-48.5 -34t-48 -30.5z" />
<glyph unicode="&#x17b;" horiz-adv-x="1222" d="M788 1174q23 33 38.5 54t30.5 39.5t33.5 36t43.5 42.5q-45 4 -109.5 7t-150.5 3q-88 0 -152.5 -10.5t-112 -44t-80 -100t-57.5 -177.5l-86 12q25 70 39.5 117t24.5 89t18 87t19 111q113 -6 225.5 -10.5t228.5 -4.5q111 0 223.5 4.5t231.5 10.5l33 -64l-748 -1073 q-20 -29 -36.5 -53.5t-34 -49t-40 -51t-53.5 -61.5q31 -4 55.5 -5t57.5 -2t80 -1h125q104 0 177 12t122 51t81 109t56 186l88 -12q-27 -70 -43 -122t-28.5 -99t-21.5 -97.5t-22 -113.5q-92 4 -224 8t-273 4h-148.5t-121 -1t-110.5 -4t-118 -7l-31 59zM692 1694q0 55 39 98 t100 43q51 0 81 -29.5t30 -81.5q0 -61 -39 -100t-98 -39q-53 0 -83 30t-30 79z" />
<glyph unicode="&#x17c;" horiz-adv-x="907" d="M408 864q-96 -6 -147.5 -62.5t-78.5 -180.5l-71 8q18 57 27 95t15.5 70.5t10.5 67.5t12 86q20 -4 56 -6t81 -3t95.5 -2t101.5 -1q98 0 192.5 3t153.5 9l18 -57l-389 -565q-27 -39 -46 -70t-38.5 -59.5t-42 -56t-55.5 -58.5q41 -4 79 -4h79q74 0 120 20.5t75.5 56t46 87 t30.5 112.5l72 -8q-16 -63 -31 -125q-12 -53 -23.5 -113.5t-17.5 -113.5q-45 4 -139 8t-199 4q-100 0 -194.5 -3t-153.5 -9l-29 57l383 549q55 78 103.5 148.5t107.5 113.5q-23 2 -52.5 3t-63.5 1h-41.5t-46.5 -2zM537 1104q-59 0 -86 33.5t-27 81.5q0 31 11 62.5t32.5 58 t52.5 43t70 16.5q59 0 88 -36t29 -83q0 -31 -11.5 -62.5t-33 -56t-53 -41t-72.5 -16.5z" />
<glyph unicode="&#x17d;" horiz-adv-x="1222" d="M788 1174q23 33 38.5 54t30.5 39.5t33.5 36t43.5 42.5q-45 4 -109.5 7t-150.5 3q-88 0 -152.5 -10.5t-112 -44t-80 -100t-57.5 -177.5l-86 12q25 70 39.5 117t24.5 89t18 87t19 111q113 -6 225.5 -10.5t228.5 -4.5q111 0 223.5 4.5t231.5 10.5l33 -64l-748 -1073 q-20 -29 -36.5 -53.5t-34 -49t-40 -51t-53.5 -61.5q31 -4 55.5 -5t57.5 -2t80 -1h125q104 0 177 12t122 51t81 109t56 186l88 -12q-27 -70 -43 -122t-28.5 -99t-21.5 -97.5t-22 -113.5q-92 4 -224 8t-273 4h-148.5t-121 -1t-110.5 -4t-118 -7l-31 59zM1114 1829l-190 -199 q-51 -53 -80 -75.5t-64 -22.5q-33 0 -57.5 29.5t-67.5 89.5l-127 178l56 55l219 -188l260 188z" />
<glyph unicode="&#x17e;" horiz-adv-x="907" d="M408 864q-96 -6 -147.5 -62.5t-78.5 -180.5l-71 8q18 57 27 95t15.5 70.5t10.5 67.5t12 86q20 -4 56 -6t81 -3t95.5 -2t101.5 -1q98 0 192.5 3t153.5 9l18 -57l-389 -565q-27 -39 -46 -70t-38.5 -59.5t-42 -56t-55.5 -58.5q41 -4 79 -4h79q74 0 120 20.5t75.5 56t46 87 t30.5 112.5l72 -8q-16 -63 -31 -125q-12 -53 -23.5 -113.5t-17.5 -113.5q-45 4 -139 8t-199 4q-100 0 -194.5 -3t-153.5 -9l-29 57l383 549q55 78 103.5 148.5t107.5 113.5q-23 2 -52.5 3t-63.5 1h-41.5t-46.5 -2zM877 1403q-92 -102 -150.5 -164.5t-94.5 -96.5t-56.5 -45.5 t-36.5 -11.5q-20 0 -32.5 10.5t-31 44.5t-47.5 98.5t-82 170.5l62 51l155 -182l262 186z" />
<glyph unicode="&#x2c6;" horiz-adv-x="819" d="M254 1147q92 102 149.5 164.5t91 96.5t54 45t39.5 11q23 0 37 -9t34.5 -42t50 -96.5t83.5 -169.5l-64 -62l-168 191l-250 -191z" />
<glyph unicode="&#x2da;" horiz-adv-x="819" d="M575 1464q86 0 137.5 -53t51.5 -127q0 -78 -51 -130t-138 -52q-82 0 -135 52t-53 130q0 74 53 127t135 53zM477 1284q0 -47 31 -76.5t67 -29.5q37 0 68 29.5t31 76.5q0 45 -31 72.5t-68 27.5t-67.5 -27.5t-30.5 -72.5z" />
<glyph unicode="&#x2dc;" horiz-adv-x="819" d="M195 1176q20 37 46.5 73.5t57.5 65t67.5 47t77.5 18.5q51 0 81 -18.5t53.5 -40t49 -39.5t70.5 -18q39 0 71 33.5t58 84.5l70 -47q-25 -37 -48.5 -73.5t-52 -67.5t-66.5 -50.5t-89 -19.5q-41 0 -70.5 18.5t-56.5 40t-55.5 40t-67.5 18.5q-37 0 -69.5 -31.5t-55.5 -79.5z " />
<glyph unicode="&#x2013;" horiz-adv-x="1107" d="M1014 532l-21 -94h-893l21 94h893z" />
<glyph unicode="&#x2014;" horiz-adv-x="1626" d="M1530 532l-25 -94h-1405l25 94h1405z" />
<glyph unicode="&#x2018;" horiz-adv-x="512" d="M399 1194q39 -6 69 -38t30 -95q0 -66 -46 -112t-114 -46q-55 0 -90 42t-35 108q0 84 30.5 151.5t74.5 121.5t95.5 93t92.5 64l43 -66q-72 -45 -126 -93t-54 -105q-1 -19 30 -25z" />
<glyph unicode="&#x2019;" horiz-adv-x="505" d="M365 1182q-39 6 -69 37.5t-30 95.5q0 66 46 112t114 46q55 0 90 -42t35 -108q0 -84 -31 -151.5t-75 -122t-95 -93t-92 -63.5l-43 65q35 23 67.5 45.5t57.5 47t40 51t15 55.5q1 19 -30 25z" />
<glyph unicode="&#x201a;" horiz-adv-x="532" d="M168 10q-39 6 -68.5 38t-29.5 95q0 66 46 112t113 46q55 0 90 -42t35 -107q0 -84 -30.5 -152t-74.5 -122t-95.5 -93t-92.5 -64l-43 66q35 23 68 45.5t57.5 47t40 51t15.5 55.5q0 18 -31 24z" />
<glyph unicode="&#x201c;" horiz-adv-x="870" d="M401 1194q39 -6 69 -38t30 -95q0 -66 -47 -112t-113 -46q-55 0 -91 42t-36 108q0 84 30.5 151.5t76 121.5t96.5 93t92 64l43 -66q-72 -45 -126 -93t-54 -105q-1 -19 30 -25zM758 1194q41 -6 69.5 -38t28.5 -95q0 -66 -46 -112t-112 -46q-57 0 -92 42t-35 108 q0 84 31 151.5t75 121.5t95 93t92 64l45 -66q-72 -45 -127 -92t-55 -106q0 -19 31 -25z" />
<glyph unicode="&#x201d;" horiz-adv-x="864" d="M721 1182q-39 6 -68.5 37.5t-29.5 95.5q0 66 47 112t112 46q55 0 91 -42t36 -108q0 -84 -30.5 -151.5t-75.5 -122t-96.5 -93t-92.5 -63.5l-43 65q35 23 68 45.5t57.5 47t40 51t15.5 55.5q0 19 -31 25zM365 1182q-41 6 -70 37.5t-29 95.5q0 66 46 112t112 46q57 0 92 -42 t35 -108q0 -84 -31 -151.5t-75 -122t-95 -93t-92 -63.5l-45 65q35 23 67.5 45.5t58.5 47t41 51t15 55.5q1 19 -30 25z" />
<glyph unicode="&#x201e;" horiz-adv-x="890" d="M524 10q-39 6 -68.5 38t-29.5 95q0 66 47 112t113 46q55 0 91 -42t36 -107q0 -84 -31 -152t-76 -122t-96 -93t-92 -64l-43 66q35 23 67.5 45.5t57 47t40 51t15.5 55.5q0 18 -31 24zM168 10q-41 6 -69.5 38t-28.5 95q0 66 46 112t111 46q57 0 92 -42t35 -107 q0 -84 -30.5 -152t-74.5 -122t-95.5 -93t-92.5 -64l-45 66q35 23 68 45.5t58.5 47t41 51t15.5 55.5q0 18 -31 24z" />
<glyph unicode="&#x2022;" horiz-adv-x="819" d="M444 961q55 0 104.5 -20.5t85.5 -57.5t56.5 -87.5t20.5 -107.5t-20.5 -106.5t-56.5 -86t-85 -57t-105 -20.5q-55 0 -104 20.5t-85 57t-56.5 86t-20.5 106.5t20.5 107.5t56.5 87.5t85 57.5t104 20.5z" />
<glyph unicode="&#x2026;" horiz-adv-x="1587" d="M203 -27q-61 0 -100.5 42t-39.5 104q0 39 14.5 72.5t39 59t57.5 40t70 14.5q61 0 101 -42t40 -103q0 -39 -15.5 -73t-40 -59.5t-57 -40t-69.5 -14.5zM721 -27q-61 0 -100 42t-39 104q0 39 14 72.5t38.5 59t57.5 40t70 14.5q61 0 100 -42t39 -103q0 -39 -14.5 -73 t-39 -59.5t-57 -40t-69.5 -14.5zM1239 -27q-61 0 -101 42t-40 104q0 39 15 72.5t40 59t57.5 40t69.5 14.5q61 0 100 -42t39 -103q0 -39 -14 -73t-39 -59.5t-57.5 -40t-69.5 -14.5z" />
<glyph unicode="&#x2039;" horiz-adv-x="571" d="M92 492q0 25 14.5 48t57.5 65t119.5 112.5t201.5 189.5l56 -43l-234 -362l107 -387l-56 -33l-217 299q-23 33 -36 55.5t-13 55.5z" />
<glyph unicode="&#x203a;" horiz-adv-x="571" d="M489 498q0 -25 -14 -48.5t-57 -65.5t-120 -112.5t-202 -189.5l-55 43l233 362l-106 387l55 33l217 -299q23 -33 36 -55t13 -55z" />
<glyph unicode="&#x20ac;" horiz-adv-x="1277" d="M279 893q31 115 85 220.5t137 185t197.5 127t268.5 47.5q119 0 201.5 -18.5t136.5 -35.5q-14 -66 -23.5 -105.5t-15.5 -74.5t-10.5 -72t-6.5 -92h-80q4 29 4.5 50.5t0.5 43.5q0 74 -19.5 119t-51.5 69.5t-75 32t-88 7.5q-74 0 -138.5 -37t-117.5 -102.5t-93 -158.5 t-67 -206h514l-34 -90h-498q-6 -33 -10 -67t-9 -68h449l-33 -90h-424q-2 -31 -2 -63v-62q0 -96 9.5 -173t34 -130.5t70.5 -82t120 -28.5q51 0 106 16.5t105.5 56.5t92.5 109.5t66 177.5l80 -8q-10 -29 -23.5 -77t-27.5 -102t-26.5 -106.5t-20.5 -89.5q-57 -16 -151.5 -34.5 t-211.5 -18.5q-135 0 -226 36t-146.5 109.5t-79 186.5t-23.5 268v15h-139l23 90h124q4 35 10.5 67.5t12.5 67.5h-123l21 90h125z" />
<glyph unicode="&#x2122;" horiz-adv-x="1714" d="M580 899q0 -35 3 -54.5t9 -28.5t17.5 -11t27.5 -2h15.5t25.5 4v-47q-59 4 -93 5t-77 1t-77 -1t-93 -5v47q23 -4 32 -4h17q29 0 39 15.5t10 80.5v408q0 63 -14 76.5t-49 13.5q-29 0 -46.5 -10.5t-26.5 -30t-14 -47t-7 -60.5l-58 4q10 51 13.5 93.5t3.5 93.5q18 -2 54 -3 t76 -2t77.5 -1h62.5h63.5t78.5 1t76 2t54 3q0 -51 2 -93t13 -94l-56 -4q-6 68 -21.5 108t-74.5 40q-35 0 -49 -13.5t-14 -76.5v-408zM1241 973l139 373q10 31 16.5 49t16.5 47q31 -6 65.5 -7t55.5 -1q53 0 131 6v-47q-18 4 -29.5 4h-17.5q-29 0 -39 -14.5t-10 -55.5v-428 q0 -66 11 -81t40 -15h17.5t31.5 4v-47q-61 4 -94 5t-76 1h-41t-36.5 -1t-40 -2t-52.5 -3v47q16 -4 24.5 -4h14.5q16 0 28.5 2t19.5 11t11.5 28.5t4.5 54.5v408h-9l-196 -523h-66l-190 521h-8v-422q0 -47 13 -63.5t42 -16.5h18.5t28.5 4v-47q-63 4 -88 5t-47 1q-20 0 -43 -1 t-84 -5v47q23 -4 32 -4h17q27 0 38 17.5t11 62.5v444q0 41 -10 55.5t-39 14.5h-16.5t-32.5 -4v47q76 -6 131 -6q23 0 61.5 1t69.5 7q4 -18 11 -43t18 -47l92 -246q2 -6 9 -24.5t14.5 -40t14.5 -41t9 -27.5h8z" />
<glyph unicode="&#x25fc;" horiz-adv-x="962" d="M0 963h963v-963h-963v963z" />
<glyph unicode="&#x2715;" d="M260 1079l299 -301l297 297l59 -61l-294 -295l299 -301l-66 -66l-301 299l-297 -297l-59 62l297 297l-301 299z" />
<glyph horiz-adv-x="792" d="M201 838h514l-21 -121h-514z" />
<glyph horiz-adv-x="1130" d="M1061 764l-21 -94h-893l21 94h893z" />
<glyph horiz-adv-x="1644" d="M1575 760l-25 -94h-1405l25 94h1405z" />
<glyph horiz-adv-x="792" d="M201 838h514l-21 -121h-514z" />
<glyph horiz-adv-x="958" d="M152 715q0 25 14 48t57 65t120 113t202 189l53 -43l-231 -362l106 -387l-57 -33l-217 299q-23 31 -34 54.5t-13 56.5zM483 715q0 25 14.5 48t57.5 65t120 113t202 189l53 -43l-234 -362l107 -387l-55 -33l-218 299q-23 33 -35 55.5t-12 55.5z" />
<glyph horiz-adv-x="956" d="M893 721q0 -25 -14.5 -48.5t-57.5 -65.5t-119.5 -112.5t-201.5 -189.5l-54 43l232 363l-107 387l58 32l217 -299q23 -33 34 -56t13 -54zM561 721q0 -25 -14.5 -48.5t-57.5 -65.5t-119.5 -112.5t-201.5 -189.5l-53 43l233 363l-106 387l55 32l217 -299q23 -33 35 -55 t12 -55z" />
<glyph horiz-adv-x="626" d="M152 711q0 25 14 48t57 65t120 113t202 189l55 -43l-233 -362l106 -387l-55 -33l-217 299q-23 33 -36 55.5t-13 55.5z" />
<glyph horiz-adv-x="626" d="M563 719q0 -25 -14 -48.5t-57 -65.5t-120 -112.5t-202 -189.5l-55 43l233 363l-106 387l55 32l217 -299q23 -33 36 -55t13 -55z" />
<glyph horiz-adv-x="630" d="M119 575q2 176 50 316.5t131 267.5t191.5 252t231.5 272l55 -45q-68 -90 -120 -168.5t-92 -151.5t-69.5 -141.5t-52.5 -138.5q-59 -178 -90.5 -351t-31.5 -376q0 -139 24.5 -286.5t87.5 -276.5l-59 -35q-129 238 -192.5 450.5t-63.5 411.5z" />
<glyph horiz-adv-x="632" d="M596 829q-2 -176 -51 -318t-131 -271t-191.5 -255t-230.5 -274l-55 45q131 180 209.5 325.5t123.5 285.5q57 176 90 348t33 375q0 137 -25.5 282.5t-88.5 274.5l59 34q129 -240 193.5 -446.5t64.5 -405.5z" />
<glyph horiz-adv-x="675" d="M506 -121l-12 -82h-416l328 1819h415l-12 -82h-197l-303 -1655h197z" />
<glyph horiz-adv-x="677" d="M256 1532l12 82h416l-328 -1819h-413l12 82h195l303 1655h-197z" />
<glyph horiz-adv-x="671" d="M516 950q-23 -86 -62.5 -139t-125.5 -76v-8q61 -16 88.5 -63.5t27.5 -106.5q0 -8 -2 -22.5t-9 -63.5t-24.5 -146.5t-48.5 -269.5q-2 -14 -3 -25.5t-1 -23.5q0 -59 30 -97t110 -54l-25 -58q-10 -2 -18.5 -3t-18.5 -1q-45 0 -96 15.5t-95 47t-73 82t-29 119.5q0 29 6 60 q25 133 40.5 216t24.5 131t13 67.5t5 27.5t0 12t-1 19q0 51 -31.5 80.5t-88.5 38.5q-8 8 -9 20q0 12 13 25q49 4 80.5 15t52 33.5t32 57.5t19.5 84l72 414q14 90 65 141t114.5 78t130 33t114.5 6l6 -57q-68 -6 -106 -24.5t-58.5 -45.5t-29.5 -60.5t-15 -70.5l-74 -408v0z " />
<glyph horiz-adv-x="671" d="M240 463q23 86 62.5 139t125.5 76v8q-61 16 -89 63.5t-28 106.5q0 31 6 66l78 436q2 14 4 27.5t2 27.5q0 47 -27.5 89t-113.5 57l25 57q35 0 91 -8.5t110.5 -32t93 -68.5t38.5 -118q0 -20 -3 -44t-7 -49l-76 -405q-2 -12 -3 -23.5t-1 -21.5q0 -47 28 -90t91 -51 q8 -8 8 -21q0 -12 -12 -25q-49 -4 -81 -15t-52.5 -33.5t-31.5 -57.5t-19 -84l-72 -414q-16 -90 -65.5 -141t-113 -77.5t-130 -33t-113.5 -6.5l-8 58q68 6 105.5 24.5t58 45t30 60t15.5 70.5z" />
<glyph horiz-adv-x="587" d="M389 -307h-102v2048h102v-2048z" />
<glyph horiz-adv-x="581" d="M389 -174h-110v752h110v-752zM389 856h-110v752h110v-752z" />
<glyph d="M606 1184v-424h418v-86h-418v-424h-94v424h-420v86h420v424h94z" />
<glyph d="M1012 911v-82h-930v82h930zM1012 604v-82h-930v82h930z" />
<glyph horiz-adv-x="1855" d="M1079 1055q-55 0 -115.5 -49.5t-111.5 -129t-84 -179t-33 -199.5q0 -59 18.5 -95t57.5 -36q63 0 126.5 53t115 133t82 174t30.5 176q0 59 -16.5 105.5t-69.5 46.5zM1053 446q-18 -23 -45 -49t-63 -49.5t-78 -39t-87 -15.5q-29 0 -70.5 9t-79.5 37t-64.5 79t-26.5 135 q0 104 43 205.5t115.5 183.5t166.5 132t199 50q55 0 88 -10t53.5 -23.5t34.5 -23.5t33 -10q16 0 30.5 12t38.5 41l89 -23l-21 -57q-35 -98 -68.5 -191.5t-62.5 -191.5q-16 -53 -32.5 -107.5t-16.5 -97.5q0 -37 17.5 -59.5t58.5 -22.5q84 0 151.5 52.5t114.5 138.5 t73.5 195.5t28.5 226.5q0 123 -43 211t-115.5 145t-168 85t-199.5 28q-143 0 -291.5 -54.5t-268.5 -165t-197 -278.5t-77 -393q0 -137 39 -243.5t107.5 -179.5t162 -110.5t203.5 -37.5q53 0 116 6t136 24l-4 -73q-160 -31 -287 -31q-164 0 -286.5 53t-206.5 142t-126 208 t-42 248q0 109 29.5 222.5t87 220t143.5 200.5t199.5 164t255 111t309.5 41q174 0 307 -47.5t222 -127t134.5 -184t45.5 -217.5q0 -145 -51.5 -266t-134.5 -207t-189.5 -134t-214.5 -48q-39 0 -74 7t-63.5 25.5t-47 49t-22.5 79.5h-8z" />
<glyph d="M571 1200v-362h357v-86h-357v-363h-94v363h-358v86h358v362h94zM119 223v86h809v-86h-809z" />
<glyph d="M444 428q0 47 32 78t79 31t78 -31t31 -78t-31 -79t-78 -32t-79 32t-32 79zM444 1004q0 47 32 77.5t79 30.5t78 -30.5t31 -77.5t-31 -79t-78 -32t-79 32t-32 79zM1020 758v-82h-930v82h930z" />
<glyph d="M891 821h-807v82h889v-479h-82v397z" />
<glyph horiz-adv-x="1204" d="M512 -37q-92 0 -161.5 37t-118 104.5t-73 162.5t-24.5 214q0 104 13.5 219t44 224.5t78.5 209t120 174t166 118.5t217 44q184 0 284.5 -135t100.5 -374q0 -104 -14.5 -219t-45 -225.5t-80.5 -211t-122 -176.5t-168 -121t-217 -45zM522 43q63 0 116.5 55.5t97.5 145.5 t78 206.5t56.5 241.5t35 247t12.5 222q0 111 -38 170.5t-116 59.5q-66 0 -120 -54.5t-97 -143.5t-76 -204t-54.5 -237.5t-31.5 -244.5t-10 -222q0 -111 34.5 -176.5t112.5 -65.5z" />
<glyph horiz-adv-x="917" d="M635 281q-12 -61 -12 -105q0 -61 27.5 -85.5t86.5 -24.5q18 0 40 2t48 6l-16 -80q-63 4 -108.5 7t-84 4t-74.5 1h-81h-83t-73 -1t-83 -4t-109 -7l16 80q39 -6 74 -6q82 0 123 46t63 167l137 776q6 37 6 61q0 47 -18 65.5t-49 18.5q-29 0 -69 -12t-80 -27.5t-74.5 -33 t-55.5 -25.5l-32 94q111 33 197.5 62.5t159.5 60.5t136.5 66.5t126.5 82.5l92 -34q-12 -33 -24.5 -76t-22.5 -89t-19 -91t-16 -82l-149 -817v0z" />
<glyph horiz-adv-x="1112" d="M31 -10q14 174 78.5 289.5t153.5 199.5t187.5 150.5t182.5 140.5t139 169t55 237q0 88 -41 153.5t-131 65.5q-156 0 -155 -146q0 -23 4 -43t4 -43q0 -80 -40 -126t-112 -46q-55 0 -98 39t-43 98q0 66 29.5 127.5t90 109.5t149.5 76.5t208 28.5q98 0 173 -27.5t125 -71.5 t77 -100.5t27 -113.5q0 -121 -41 -196.5t-107.5 -129t-151.5 -96.5t-171 -94q-66 -41 -131.5 -87t-121 -100.5t-93 -118t-50.5 -136.5q53 10 100.5 12t75.5 2h285q66 0 108 19.5t66.5 51t36.5 72.5t19 86l92 -18q-41 -109 -63.5 -210t-39.5 -222q-115 10 -191.5 12t-140.5 2 h-266q-29 0 -55.5 -1t-57 -3t-70.5 -5t-95 -7z" />
<glyph horiz-adv-x="1112" d="M461 782h22q74 0 137.5 23.5t111.5 73t76 124t30 177.5q0 41 -6.5 79.5t-23.5 68.5t-46 48.5t-72 18.5q-94 0 -128 -43t-36 -111q0 -49 -8 -91t-26.5 -71.5t-51 -46t-82.5 -16.5q-59 0 -92 35.5t-33 97.5q2 76 44 134t108 99t148.5 62.5t166.5 21.5q76 0 148 -19.5 t126 -58t87 -99t31 -140.5q-2 -129 -53.5 -206t-116 -119t-125 -56t-82.5 -16v-11q37 -2 85 -18t91 -51t72.5 -92.5t27.5 -141.5q-2 -141 -56 -233t-133 -146.5t-169 -76t-166 -21.5q-98 0 -175 22.5t-130 61.5t-81 92t-26 115q0 16 4 49t21.5 65.5t50.5 57.5t90 25 q61 0 94 -37t31 -84q0 -25 -6 -46.5t-13.5 -44t-13.5 -47t-6 -53.5q0 -33 14.5 -51t37 -28.5t48 -13.5t48.5 -3q51 0 99 26.5t86 79t61.5 129t25.5 177.5q2 88 -17.5 137t-53 73.5t-77.5 30.5t-90 6h-22t-23 -2z" />
<glyph horiz-adv-x="1157" d="M598 397h-401q-37 0 -73 -1t-89 -5l26 172q125 137 233.5 250t209 218.5t196 210t197.5 222.5l131 -45q-12 -61 -22.5 -108t-18.5 -90t-16 -85t-17 -94l-94 -507h82q35 0 78 1t90 5l-29 -150q-45 4 -87 5t-76 1h-82l-21 -116q-8 -41 -11 -72t-3 -53q0 -49 23.5 -67.5 t86.5 -18.5q18 0 40 1t46 3l-16 -80q-63 4 -105 7t-78 4t-70 1h-79h-79.5t-68.5 -1t-79 -4t-107 -7l15 80q45 -6 80 -6q43 0 70.5 10t46 34.5t29.5 65.5t22 103zM145 528q72 4 120 5.5t77 1.5h281l55 301q14 78 35.5 166t50.5 169l-12 5z" />
<glyph horiz-adv-x="1124" d="M969 1020q6 57 6 84q0 37 -7 59.5t-26.5 36.5t-53.5 19.5t-87 5.5h-271q-35 0 -63.5 -3t-50 -16.5t-36.5 -42t-28 -80.5q-27 -115 -41 -178t-32 -108l10 -9q49 51 131 83t194 32q82 0 158 -29.5t132.5 -83t90 -126t33.5 -156.5q0 -125 -35 -225.5t-103.5 -171 t-167.5 -109.5t-228 -39q-109 0 -188 27.5t-131 71.5t-76.5 99.5t-24.5 110.5q0 72 43 124.5t125 52.5q66 0 100.5 -36t34.5 -83q0 -39 -7.5 -61.5t-16.5 -41t-16 -39t-7 -55.5q0 -49 47 -72.5t106 -23.5q49 0 99.5 29.5t91.5 93t67.5 162t26.5 235.5q0 123 -57.5 192.5 t-155.5 69.5q-113 0 -179.5 -46t-119.5 -144l-92 26q25 102 53.5 219t54 226.5t42 200t16.5 139.5q25 -2 58.5 -4t71.5 -4t75.5 -3.5t70.5 -1.5h252q45 0 94 1.5t133 11.5q-10 -43 -18 -94.5t-12 -106.5t-6 -112.5t-2 -108.5z" />
<glyph horiz-adv-x="1185" d="M791 1395q-121 0 -199 -115t-133 -367q-10 -39 -23.5 -83t-23.5 -87l12 -4q53 88 132 120t175 32q72 0 135.5 -27.5t111.5 -79t75.5 -122t27.5 -156.5q0 -152 -47 -255.5t-123.5 -167t-174 -92t-199.5 -28.5q-111 0 -188 39t-125 107.5t-69.5 163t-21.5 202.5 q0 94 13.5 206t43 222.5t78.5 213t121 181t169 125.5t224 47q111 0 183.5 -26.5t116.5 -65.5t62.5 -85t18.5 -83q0 -25 -6 -58.5t-23.5 -64t-48 -52t-79.5 -21.5q-59 0 -96.5 32.5t-37.5 86.5q0 55 18.5 91t18.5 76q0 41 -24 67t-94 28zM551 41q72 0 122 51t82.5 126t47 158 t14.5 144q0 59 -4 111.5t-21.5 92.5t-49 62.5t-87.5 22.5q-59 0 -108 -41t-84 -111.5t-54.5 -164t-19.5 -197.5q0 -115 38 -184.5t124 -69.5z" />
<glyph horiz-adv-x="1005" d="M938 1219l-6 6q-39 -6 -73 -8.5t-83 -2.5h-280q-66 0 -107 -4t-68.5 -25.5t-46 -67.5t-36.5 -132l-91 12q16 51 32 112.5t28 121t21.5 115t15.5 98.5q84 -10 157.5 -13.5t118.5 -3.5h240q92 0 183 8.5t144 12.5l62 -82q-129 -170 -235.5 -320.5t-183.5 -280.5 t-120 -242.5t-43 -205.5q0 -29 1 -55t1 -53q0 -70 -14 -117t-36.5 -75.5t-53.5 -41t-64 -12.5q-72 0 -106.5 40t-34.5 106q0 70 25.5 138t73 147t114 172t150.5 212z" />
<glyph horiz-adv-x="1144" d="M457 735q-102 45 -161.5 123t-59.5 182q0 70 23.5 146t78.5 139.5t146 104t229 40.5q94 0 166.5 -23.5t123 -63.5t77 -94t26.5 -118q0 -80 -24.5 -142t-67.5 -109.5t-101.5 -80t-126.5 -53.5q49 -23 95.5 -55.5t80 -77.5t54 -102t20.5 -125q0 -94 -36.5 -178 t-106.5 -147.5t-170 -100.5t-225 -37q-92 0 -168 25.5t-130.5 71.5t-84 109.5t-29.5 139.5q0 90 32 160t84 122t118.5 88t136.5 56zM709 836q29 16 62.5 41.5t63 65.5t49 96.5t19.5 134.5q0 39 -9 79.5t-28.5 72.5t-53.5 52.5t-83 20.5q-66 0 -111 -29t-72.5 -69.5 t-39.5 -88t-12 -84.5q0 -74 27.5 -124t64.5 -83.5t73 -53t50 -31.5zM526 676q-35 -14 -75.5 -45t-75.5 -77t-58.5 -108.5t-23.5 -140.5q0 -51 11 -100t36 -87t64.5 -61.5t97.5 -23.5q74 0 125 31.5t81.5 81t45 106.5t14.5 110q0 76 -30.5 129.5t-71.5 90t-81.5 59.5 t-58.5 35z" />
<glyph horiz-adv-x="1165" d="M473 41q68 0 120 36t92 103.5t68.5 166.5t53.5 226q6 37 14 75t21 75l-11 6q-43 -78 -116.5 -113.5t-151.5 -35.5q-76 0 -142.5 23.5t-115.5 70.5t-76.5 116.5t-27.5 159.5q0 129 37.5 226.5t103.5 163t156 98t192 32.5q219 0 322.5 -133t103.5 -393q0 -94 -11 -204.5 t-39 -219t-75 -209t-116.5 -178.5t-166 -124t-223.5 -46q-113 0 -186.5 31t-117.5 76t-62.5 95t-18.5 87q0 29 6.5 62.5t25 63.5t50 50.5t80.5 20.5q59 0 97 -40t38 -94q0 -53 -19.5 -96t-19.5 -82q0 -45 29 -70.5t86 -25.5zM705 1393q-70 0 -118 -48.5t-78 -117t-43 -147.5 t-13 -140q0 -119 43 -193.5t120 -74.5q51 0 97.5 32.5t81 93t54 146.5t19.5 193q0 115 -39.5 185.5t-123.5 70.5z" />
</font>
</defs>
</svg>
