<?xml version="1.0" standalone="no"?>
<!DOCTYPE svg PUBLIC "-//W3C//DTD SVG 1.1//EN" "http://www.w3.org/Graphics/SVG/1.1/DTD/svg11.dtd" >
<svg xmlns="http://www.w3.org/2000/svg">
<metadata></metadata>
<defs>
<font id="media77_regularregular" horiz-adv-x="1024" >
<font-face units-per-em="2048" ascent="1536" descent="-512" />
<missing-glyph horiz-adv-x="495" />
<glyph unicode="&#xfb00;" horiz-adv-x="1265" d="M410 244q0 -57 4 -93t14 -56.5t30.5 -28t53.5 -7.5h14t19 2v-67q-61 6 -103.5 10t-107.5 4q-59 0 -124 -5t-122 -13v67q12 -2 27.5 -2h25.5q27 0 45.5 5.5t27.5 24.5t13 57t4 102v628h-188v70h188v92q0 109 31 184.5t84 124t126 70t159 21.5q102 0 154.5 -24t93.5 -56v-2 q35 43 93 72.5t152 29.5q41 0 81 -9t72 -26.5t51.5 -44t19.5 -61.5q0 -53 -27 -78t-64 -25q-41 0 -60 13.5t-28.5 34t-12.5 45t-11 45t-24.5 34t-53.5 13.5q-47 0 -73.5 -34t-26.5 -93q0 -29 2 -66t5 -72.5t6 -66.5t3 -47v-74h240v-70h-240v-628q0 -57 2 -93t11.5 -56.5 t31 -28t62.5 -7.5h34.5t38.5 2v-67q-61 6 -125.5 10t-130.5 4q-59 0 -123.5 -5t-121.5 -13v67q12 -2 27.5 -2h25.5q27 0 45 5.5t27.5 24.5t13.5 57t4 102v628h-395v-628zM805 1036q-2 92 -7 155.5t-22.5 103.5t-51.5 58.5t-93 18.5q-82 0 -126 -37t-65.5 -93t-25.5 -123.5 t-4 -131.5v-45h395v94z" />
<glyph unicode="&#xfb01;" horiz-adv-x="1220" d="M410 872v-628q0 -57 1 -93t10 -56.5t28.5 -28t56.5 -7.5h34.5t39.5 2v-67q-61 6 -121 10t-125 4q-59 0 -124 -5t-122 -13v67q12 -2 27.5 -2h25.5q27 0 45.5 5.5t27.5 24.5t13 57t4 102v628h-188v70h188v102q0 90 25 166t78 131.5t135 86t199 30.5q80 0 138 -16.5t96 -44 t55.5 -61t17.5 -68.5q0 -72 -36 -96.5t-79 -24.5q-41 0 -74.5 22.5t-33.5 92.5q0 63 -20.5 97t-96.5 34q-84 0 -129 -36t-66.5 -92.5t-25.5 -125t-4 -131.5v-66h309q63 0 139 5t148 28v-731q0 -57 2 -93t11 -56.5t30.5 -28t62.5 -7.5h34.5t39.5 2v-67q-61 6 -126 10t-130 4 q-59 0 -118.5 -5t-117.5 -13v67q12 -2 27.5 -2h26.5q27 0 43 5.5t24 24.5t10 57t2 102v481q0 47 -3 75.5t-14 45t-32.5 21.5t-58.5 5h-309z" />
<glyph unicode="&#xfb02;" horiz-adv-x="1220" d="M231 1090q0 182 99.5 267t273.5 85q53 0 105.5 -5t105.5 -5q45 0 92 7t99 19v-1214q0 -57 2 -93t11 -56.5t30.5 -28t62.5 -7.5h34.5t39.5 2v-67q-61 6 -126 10t-130 4q-59 0 -118.5 -5t-117.5 -13v67q12 -2 22.5 -2h20.5q27 0 45.5 5.5t27.5 24.5t13 57t4 102v846 q0 80 -3 134t-20.5 89t-54 50t-106.5 15q-78 0 -124 -21.5t-70.5 -60.5t-31.5 -92t-7 -114v-148h233v-70h-233v-628q0 -57 2 -93t11 -56.5t30.5 -28t62.5 -7.5h29.5t34.5 2v-67q-61 6 -121 10t-125 4q-59 0 -124 -5t-122 -13v67q12 -2 27.5 -2h25.5q27 0 45.5 5.5t27.5 24.5 t13 57t4 102v628h-188v70h188v148v0z" />
<glyph unicode="&#xfb03;" horiz-adv-x="1796" d="M985 872v-628v-93t8 -56.5t27.5 -28t60.5 -7.5h35t39 2v-67q-61 6 -120.5 10t-125.5 4q-59 0 -123.5 -5t-121.5 -13v67q12 -2 27.5 -2h25.5q27 0 45 5.5t27.5 24.5t13.5 57t4 102v628h-397v-628q0 -57 4 -93t14 -56.5t30.5 -28t53.5 -7.5h14t19 2v-67q-61 6 -103.5 10 t-107.5 4q-59 0 -124 -5t-122 -13v67q12 -2 27.5 -2h25.5q27 0 45.5 5.5t27.5 24.5t13 57t4 102v628h-188v70h188v82q0 109 29 186.5t80 126.5t121.5 73t156.5 24q98 0 166 -30t127 -81q27 27 52.5 51.5t59.5 43t79 29.5t110 11q88 0 151.5 -15.5t105.5 -42t61.5 -59 t19.5 -67.5q0 -72 -35.5 -98.5t-78.5 -26.5q-41 0 -75 24.5t-34 94.5q0 66 -24.5 95.5t-102.5 29.5q-84 0 -127 -36t-63.5 -91.5t-22.5 -123t-2 -130.5v-70h309q63 0 139 3t148 24v-725q0 -57 2 -93t11.5 -56.5t31 -28t62.5 -7.5h34.5t38.5 2v-67q-61 6 -125.5 10t-130.5 4 q-59 0 -118.5 -5t-116.5 -13v67q12 -2 27.5 -2h25.5q27 0 43 5.5t24.5 24.5t10.5 57t2 102v481q0 47 -3 75.5t-14.5 45t-33 21.5t-58.5 5h-309zM410 942h397q0 123 -5 205t-23.5 132t-53.5 70.5t-94 20.5q-82 0 -126 -38t-65.5 -96t-25.5 -127t-4 -132v-35z" />
<glyph unicode="&#xfb04;" horiz-adv-x="1794" d="M618 1434q49 0 86 -4.5t70 -12.5t64.5 -22.5t68.5 -34.5q96 82 271 82q53 0 105 -5t106 -5q45 0 92 7t98 19v-1214q0 -57 2 -93t11.5 -56.5t31 -28t62.5 -7.5h34.5t38.5 2v-67q-61 6 -125.5 10t-130.5 4q-59 0 -118.5 -5t-116.5 -13v67q12 -2 22 -2h21q27 0 45 5.5 t27.5 24.5t13.5 57t4 102v846q0 80 -3 134t-20.5 89t-54.5 50t-106 15q-78 0 -124 -21.5t-71 -60.5t-32 -92t-7 -114v-148h234v-70h-234v-628q0 -57 2 -93t11.5 -56.5t31 -28t62.5 -7.5h29.5t33.5 2v-67q-61 6 -120.5 10t-125.5 4q-59 0 -123.5 -5t-121.5 -13v67 q12 -2 27.5 -2h25.5q27 0 45 5.5t27.5 24.5t13.5 57t4 102v628h-395v-628q0 -57 4 -93t14 -56.5t30.5 -28t53.5 -7.5h14t19 2v-67q-61 6 -103.5 10t-107.5 4q-59 0 -124 -5t-122 -13v67q12 -2 27.5 -2h25.5q27 0 45.5 5.5t27.5 24.5t13 57t4 102v628h-186v70h186v92 q0 109 29 184.5t80 124t121.5 70t156.5 21.5zM410 942h395v37q0 113 -6 187.5t-24.5 119.5t-52.5 64.5t-91 19.5q-82 0 -126 -36t-65.5 -92t-25.5 -123.5t-4 -131.5v-45z" />
<glyph unicode="ffb" horiz-adv-x="2347" d="M1401 -6v1190q0 47 -5 84t-23.5 61.5t-55.5 37.5t-100 13q-78 0 -124 -22.5t-71 -61.5t-32 -92t-7 -114v-148h234v-70h-234v-628q0 -57 2 -93t11.5 -56.5t31 -28t62.5 -7.5h29.5t33.5 2v-67q-61 6 -120.5 10t-125.5 4q-59 0 -123.5 -5t-121.5 -13v67q12 -2 27.5 -2h25.5 q27 0 45 5.5t27.5 24.5t13.5 57t4 102v628h-395v-628q0 -57 4 -93t14 -56.5t30.5 -28t53.5 -7.5h14t19 2v-67q-61 6 -103.5 10t-107.5 4q-59 0 -124 -5t-122 -13v67q12 -2 27.5 -2h25.5q27 0 45.5 5.5t27.5 24.5t13 57t4 102v628h-188v70h188v82q0 109 29 186.5t80 126.5 t121.5 73t156.5 24q49 0 86 -4.5t70 -12.5t64.5 -22.5t68.5 -34.5q94 86 271 86q35 0 61.5 -2t52 -4t54 -4t67.5 -2q41 0 81 7t83 17v-368q0 -100 -1 -185.5t-11 -138.5l10 -2q10 31 32.5 65.5t59.5 65.5t87 50.5t118 19.5q76 0 146.5 -33t122.5 -95.5t84 -154.5t32 -211 q0 -113 -36 -205t-95.5 -156.5t-136 -99.5t-158.5 -35q-53 0 -94 12.5t-74 28t-60.5 28.5t-56.5 13q-51 0 -69 -63h-76zM2064 498q0 70 -13 140.5t-42 127.5t-73 92t-105 35q-55 0 -102.5 -35t-82 -96.5t-55 -144t-20.5 -177.5q0 -80 11 -151.5t38 -125.5t72 -87t112 -33 q57 0 104.5 34t82 94t54 144.5t19.5 182.5zM410 942h395q0 123 -6 205t-23.5 132t-52.5 70.5t-92 20.5q-82 0 -126 -38t-65.5 -96t-25.5 -127t-4 -132v-35z" />
<glyph unicode="ffh" horiz-adv-x="2392" d="M2198 244q0 -57 2 -93t11 -56.5t30.5 -28t62.5 -7.5h34.5t39.5 2v-67q-61 6 -126 10t-130 4q-59 0 -124 -5t-122 -13v67q12 -2 27.5 -2h25.5q27 0 45.5 5.5t27.5 24.5t13 57t4 102v327q0 180 -41 258t-145 78q-39 0 -84 -21.5t-83 -70.5t-62.5 -131t-24.5 -201v-239 q0 -57 2 -93t11.5 -56.5t31 -28t62.5 -7.5h34.5t38.5 2v-67q-61 6 -125.5 10t-130.5 4q-59 0 -123.5 -5t-122.5 -13v67q12 -2 27.5 -2h26.5q27 0 45 5.5t27.5 24.5t13.5 57t4 102v940q0 45 -5 82t-23.5 61.5t-55.5 37.5t-100 13q-78 0 -124 -21.5t-71 -60.5t-32 -92t-7 -114 v-148h234v-70h-234v-628q0 -57 2 -93t11.5 -56.5t31 -28t62.5 -7.5h29.5t33.5 2v-67q-61 6 -120.5 10t-125.5 4q-59 0 -123.5 -5t-121.5 -13v67q12 -2 27.5 -2h25.5q27 0 45 5.5t27.5 24.5t13.5 57t4 102v628h-395v-628q0 -57 4 -93t14 -56.5t30.5 -28t53.5 -7.5h14t19 2 v-67q-61 6 -103.5 10t-107.5 4q-59 0 -124 -5t-122 -13v67q12 -2 27.5 -2h25.5q27 0 45.5 5.5t27.5 24.5t13 57t4 102v628h-188v70h188v92q0 109 29 184.5t80 124t121.5 70t156.5 21.5q49 0 86 -4.5t70 -12.5t64.5 -22.5t68.5 -34.5q100 84 271 84q35 0 61.5 -2t52 -3t54 -3 t67.5 -2q41 0 82 7t84 17v-442v-94t-1 -58.5t-4 -43t-7 -48.5l12 -2q8 20 27.5 56t54.5 69t89 57.5t132 24.5q100 0 161.5 -34t95.5 -87t46.5 -117.5t12.5 -126.5v-368zM410 942h395v37q0 113 -6 187.5t-24.5 119.5t-52.5 64.5t-91 19.5q-82 0 -126 -36t-65.5 -92 t-25.5 -123.5t-4 -131.5v-45z" />
<glyph unicode="fh" horiz-adv-x="1818" d="M1624 244q0 -57 2 -93t11.5 -56.5t31 -28t62.5 -7.5h34.5t38.5 2v-67q-61 6 -125.5 10t-130.5 4q-59 0 -123.5 -5t-121.5 -13v67q12 -2 27.5 -2h25.5q27 0 45 5.5t27.5 24.5t13.5 57t4 102v327q0 180 -41 258t-145 78q-39 0 -84.5 -21.5t-83 -70.5t-62 -131t-24.5 -201 v-239q0 -57 2 -93t11 -56.5t30.5 -28t62.5 -7.5h34.5t39.5 2v-67q-61 6 -126 10t-130 4q-59 0 -124 -5t-122 -13v67q12 -2 27.5 -2h25.5q27 0 45.5 5.5t27.5 24.5t13 57t4 102v940q0 45 -5 82t-23.5 61.5t-55 37.5t-100.5 13q-78 0 -124 -21.5t-70.5 -60.5t-31.5 -92 t-7 -114v-148h233v-70h-233v-628q0 -57 2 -93t11 -56.5t30.5 -28t62.5 -7.5h29.5t34.5 2v-67q-61 6 -121 10t-125 4q-59 0 -124 -5t-122 -13v67q12 -2 27.5 -2h25.5q27 0 45.5 5.5t27.5 24.5t13 57t4 102v628h-188v70h188v148q0 182 99.5 268t273.5 86q35 0 61.5 -2t52 -3 t54.5 -3t68 -2q41 0 82 7t84 17v-442v-94t-1 -58.5t-4.5 -43t-7.5 -48.5l13 -2q8 20 27.5 56t54 69t89 57.5t132.5 24.5q100 0 161.5 -34t95 -87t46 -117.5t12.5 -126.5v-368z" />
<glyph unicode="fj" horiz-adv-x="1181" d="M410 872v-628q0 -61 1 -97t10 -55.5t28.5 -26t56.5 -6.5h34.5t39.5 2v-67q-61 6 -121 10t-125 4q-59 0 -124 -5t-122 -13v67q12 -2 27.5 -2h25.5q27 0 45.5 5.5t27.5 24.5t13 57t4 102v628h-188v70h188v113q0 86 24 159.5t74 128t131 85t197 30.5q80 0 140.5 -16.5 t99.5 -42t58.5 -59t19.5 -68.5q0 -72 -31 -98.5t-74 -26.5q-41 0 -79.5 24.5t-38.5 94.5q0 66 -25 98.5t-102 32.5q-84 0 -127 -34t-63.5 -86t-22.5 -118.5t-2 -130.5v-86h309q63 0 139 5t148 28v-977q0 -96 -4.5 -185t-20.5 -135q-33 -84 -104.5 -115.5t-147.5 -31.5 q-53 0 -99 12.5t-75 30.5l27 57q16 -14 45.5 -24t64.5 -10q31 0 56.5 7t44 34.5t28.5 82t10 150.5q0 70 -2 146.5t-2 154.5v553q0 47 -3 75.5t-14 45t-32.5 21.5t-58.5 5h-309z" />
<glyph unicode="fk" horiz-adv-x="1699" d="M1006 244q0 -57 2 -93t11 -56.5t30.5 -28t62.5 -7.5h34.5t39.5 2v-67q-61 6 -126 10t-130 4q-59 0 -124 -5t-122 -13v67q12 -2 27.5 -2h25.5q27 0 45.5 5.5t27.5 24.5t13 57t4 102v940q0 45 -5 82t-23.5 61.5t-55 37.5t-100.5 13q-78 0 -124 -21.5t-70.5 -60.5t-31.5 -92 t-7 -114v-148h233v-70h-233v-628q0 -57 2 -93t11 -56.5t30.5 -28t62.5 -7.5h29.5t34.5 2v-67q-61 6 -121 10t-125 4q-59 0 -124 -5t-122 -13v67q12 -2 27.5 -2h25.5q27 0 45.5 5.5t27.5 24.5t13 57t4 102v628h-188v70h188v148q0 182 99.5 268t273.5 86q35 0 61.5 -2t52 -3 t54.5 -3t68 -2q41 0 82 7t84 17v-897h41q53 0 81.5 27.5t71.5 68.5q49 47 82 79t52.5 53.5t27.5 34t8 22.5q0 37 -65 37q-16 0 -36 -2t-42 -4v67q47 -4 91 -6t91 -2q63 0 125.5 4t124.5 16v-67q-10 0 -18.5 1t-16.5 1q-27 0 -50.5 -6t-50 -20.5t-58 -42t-74.5 -70.5 l-183 -177q41 0 63.5 -24.5t45.5 -61.5l203 -333q18 -31 33.5 -49.5t30.5 -28.5t34.5 -14.5t48.5 -4.5q10 0 21.5 1t23.5 1v-67q-33 4 -59.5 7t-61.5 3q-86 0 -180 -22q-12 27 -29.5 62.5t-45 86.5t-68.5 121t-103 164q-29 41 -49 60.5t-67 19.5h-43v-252z" />
<glyph unicode="tt" horiz-adv-x="1249" d="M383 872v-641q0 -35 3 -68.5t12.5 -59t26.5 -41t46 -15.5q45 0 80 34t78 112l53 -35q-98 -195 -266 -195q-102 0 -156.5 65.5t-54.5 196.5v647h-172v70q84 0 139 18.5t87 56.5t44 96t12 138h68v-309h221q80 0 131 18.5t81 57.5t42 96t12 137h68v-309h248v-70h-248v-641 q0 -35 3 -68.5t12.5 -59t26.5 -41t46 -15.5q45 0 80 34t78 112l53 -35q-98 -195 -266 -195q-102 0 -156.5 65.5t-54.5 196.5v647h-377z" />
<glyph unicode="fb" horiz-adv-x="1773" d="M827 -6v1190q0 47 -5 84t-23.5 61.5t-55 37.5t-100.5 13q-78 0 -124 -22.5t-70.5 -61.5t-31.5 -92t-7 -114v-148h233v-70h-233v-628q0 -57 2 -93t11 -56.5t30.5 -28t62.5 -7.5h29.5t34.5 2v-67q-61 6 -121 10t-125 4q-59 0 -124 -5t-122 -13v67q12 -2 27.5 -2h25.5 q27 0 45.5 5.5t27.5 24.5t13 57t4 102v628h-188v70h188v145q0 184 99.5 271.5t273.5 87.5q35 0 61.5 -2t52 -4t54.5 -4t68 -2q41 0 81 7t83 17v-368q0 -100 -1.5 -185.5t-11.5 -138.5l10 -2q10 31 33 65.5t59.5 65.5t87 50.5t117.5 19.5q76 0 147 -33t123 -95.5t83.5 -154.5 t31.5 -211q0 -113 -35.5 -205t-95 -156.5t-136.5 -99.5t-159 -35q-53 0 -94 12.5t-73.5 28t-60.5 28.5t-56 13q-51 0 -70 -63h-76zM1491 498q0 70 -13.5 140.5t-42 127.5t-72.5 92t-106 35q-55 0 -102 -35t-82 -96.5t-55.5 -144t-20.5 -177.5q0 -80 11.5 -151.5t38 -125.5 t71.5 -87t113 -33q57 0 104 34t82 94t54.5 144.5t19.5 182.5z" />
<glyph unicode="ft" horiz-adv-x="1298" d="M231 1092q0 98 36 166.5t94.5 112.5t134 63.5t155.5 19.5q88 0 174 -21.5t158 -54.5v-436h250v-70h-248v-628q0 -35 3 -69t12.5 -59.5t26.5 -41t46 -15.5q45 0 80 34t78 112l53 -35q-98 -195 -266 -195q-102 0 -156.5 65.5t-54.5 197.5v634h-397v-628q0 -57 2 -93 t11 -56.5t30.5 -28t62.5 -7.5h29.5t34.5 2v-67q-61 6 -121 10t-125 4q-59 0 -124 -5t-122 -13v67q12 -2 27.5 -2h25.5q27 0 45.5 5.5t27.5 24.5t13 57t4 102v628h-188v70h188v150zM807 942v246q0 45 -4 82t-21.5 62.5t-50.5 38.5t-88 13q-78 0 -124 -22.5t-70.5 -61 t-31.5 -93t-7 -115.5v-150h397z" />
<glyph horiz-adv-x="0" />
<glyph unicode="&#xd;" />
<glyph horiz-adv-x="0" />
<glyph horiz-adv-x="0" />
<glyph unicode=" "  horiz-adv-x="495" />
<glyph unicode="&#x09;" horiz-adv-x="495" />
<glyph unicode="&#xa0;" horiz-adv-x="495" />
<glyph unicode="!" horiz-adv-x="622" d="M455 115q0 -59 -42 -101.5t-102 -42.5q-59 0 -101 42t-42 102q0 59 42 101t101 42t101.5 -42t42.5 -101zM311 1470q72 0 106 -56t34 -144q0 -47 -16.5 -121t-36 -167t-36 -202.5t-16.5 -228.5q0 -61 6 -123h-82q6 61 6 123q0 119 -16 228.5t-35.5 202.5t-36 167 t-16.5 121q0 88 33.5 144t105.5 56z" />
<glyph unicode="&#x22;" horiz-adv-x="696" d="M215 1470q49 0 67.5 -38.5t18.5 -102.5q0 -78 -17.5 -175t-33.5 -189h-70q-16 92 -33.5 189t-17.5 175q0 63 18.5 102t67.5 39zM481 1470q49 0 67.5 -38.5t18.5 -102.5q0 -78 -17.5 -175t-33.5 -189h-70q-16 92 -33.5 189t-17.5 175q0 63 18.5 102t67.5 39z" />
<glyph unicode="#" horiz-adv-x="1114" d="M487 911l-77 -346h233l80 346h-236zM817 911l-80 -346h203l-33 -143h-200l-101 -461h-96l102 461h-235l-101 -461h-90l103 461h-223l30 143h221l80 346h-223l33 142h221l90 420h92l-92 -420h236l92 420h92l-90 -420h201l-31 -142h-201z" />
<glyph unicode="$" horiz-adv-x="1116" d="M518 0q-119 0 -203 30.5t-136 76t-75.5 97.5t-23.5 95q0 23 4 47.5t17.5 46t38 34.5t63.5 13q55 0 82.5 -39t27.5 -75q0 -31 -4 -48.5t-8 -31t-8 -27.5t-4 -37q0 -29 19.5 -51t51 -36.5t72.5 -23t86 -8.5v603q-72 31 -141.5 62.5t-124.5 76.5t-89 108.5t-34 157.5 q0 150 98.5 248t290.5 115v184h70v-182q123 -2 201.5 -35t125 -78t64.5 -93t18 -79q0 -23 -4 -48.5t-16 -47t-35.5 -35.5t-62.5 -14q-55 0 -80 37.5t-25 74.5q0 27 3 43.5t7 31.5t7.5 31.5t3.5 45.5t-18.5 48t-48.5 31.5t-66.5 18.5t-73.5 6v-553q76 -31 153.5 -65.5 t141 -84.5t103.5 -121t40 -173q0 -96 -34 -165t-93 -114t-139 -67.5t-172 -28.5v-246h-70v244zM848 326q0 68 -20.5 114.5t-56.5 81.5t-83 61.5t-100 51.5v-567q129 16 194.5 88t65.5 170zM291 1120q0 -53 17.5 -93t48 -71.5t72.5 -56.5t89 -47v518q-61 -10 -105 -35.5 t-71 -61.5t-39 -76t-12 -77z" />
<glyph unicode="%" horiz-adv-x="1570" d="M1116 1548l84 -41l-794 -1716l-84 39zM389 745q57 0 92 33t53.5 83t23.5 110.5t5 113.5t-5 112.5t-23.5 110t-53.5 83t-92 32.5q-59 0 -93 -32.5t-51.5 -83t-22.5 -109.5t-5 -113q0 -53 5 -113.5t22.5 -110.5t51.5 -83t93 -33zM391 696q-61 0 -120.5 22.5t-105.5 70 t-74 120t-28 174.5t28 176t73 121t104.5 70t120.5 23t120.5 -23t106 -70t74 -120.5t27.5 -176.5q0 -102 -27.5 -174.5t-73 -120t-105 -70t-120.5 -22.5zM1178 12q57 0 92 33t53 83t23.5 110.5t5.5 113.5t-5.5 112.5t-23.5 110t-53 83t-92 32.5q-59 0 -93 -32.5t-51.5 -83 t-22.5 -109.5t-5 -113q0 -53 5 -113.5t22.5 -110.5t51.5 -83t93 -33zM1180 -37q-61 0 -121 22.5t-106 69.5t-73.5 120t-27.5 175t27.5 176t72.5 121t104.5 69.5t121.5 22.5q61 0 120.5 -22.5t105.5 -69.5t73.5 -120.5t27.5 -176.5q0 -102 -27.5 -175t-72.5 -120 t-104.5 -69.5t-120.5 -22.5z" />
<glyph unicode="&#x26;" horiz-adv-x="1531" d="M1057 287q55 84 73.5 173t18.5 142q0 37 -40 48.5t-83 11.5h-30.5t-26.5 -3v72q41 -4 86 -6t94 -2q59 0 116.5 3t110.5 11v-71q-10 2 -18 2h-19q-33 0 -53 -10.5t-32.5 -29t-18.5 -43t-12 -55.5q-12 -63 -41 -142t-76 -152q18 -23 46 -48.5t58.5 -48t64.5 -37t68 -14.5 q63 0 111 64l53 -46q-45 -66 -106.5 -99.5t-128.5 -33.5q-68 0 -137.5 35t-128.5 107q-55 -47 -109.5 -77t-107 -46.5t-102.5 -22.5t-99 -6q-109 0 -200 30t-157.5 85t-104.5 135t-38 180q0 129 78 231.5t262 166.5q-86 90 -134 179t-48 187q0 57 21.5 113.5t68.5 100.5 t120.5 71.5t178.5 27.5q80 0 147.5 -20t116.5 -58t77 -92.5t28 -123.5q0 -84 -39 -145.5t-95.5 -107.5t-119 -78t-111.5 -54zM594 848q45 27 87 56.5t76 67.5t54 87t20 115q0 61 -17 106t-45 73.5t-62.5 42t-67.5 13.5q-43 0 -83 -12.5t-69.5 -38t-48 -67.5t-18.5 -101 q0 -86 52 -171t122 -171zM471 731q-98 -51 -141 -140t-43 -192q0 -164 90 -263t270 -99q39 0 74 4t70.5 16.5t73.5 36t83 64.5z" />
<glyph unicode="'" horiz-adv-x="430" d="M215 1470q49 0 67.5 -38.5t18.5 -102.5q0 -78 -17.5 -175t-33.5 -189h-70q-16 92 -33.5 189t-17.5 175q0 63 18.5 102t67.5 39z" />
<glyph unicode="(" horiz-adv-x="598" d="M285 592q0 -166 21.5 -308.5t59 -263t89 -219t110.5 -172.5l-49 -39q-96 119 -176 243t-136.5 250t-87 253t-30.5 256t30.5 254t87 248t136.5 242.5t176 240.5l49 -39q-121 -150 -200.5 -383t-79.5 -563z" />
<glyph unicode=")" horiz-adv-x="598" d="M313 586q0 166 -21.5 307t-59 260t-89 215t-110.5 170l49 39q96 -121 176 -242t136.5 -244.5t87 -249.5t30.5 -255t-30.5 -256t-88 -251t-136.5 -247t-175 -242l-49 39q59 74 110.5 171.5t89 217t59 261t21.5 307.5z" />
<glyph unicode="*" horiz-adv-x="860" d="M453 1169q33 0 57.5 20.5t47 44t47 44t57.5 20.5q35 0 62.5 -24.5t27.5 -61.5q0 -35 -25 -61.5t-65 -26.5q-27 0 -60 7.5t-70 7.5q-31 0 -67 -11q25 -41 58.5 -60t63 -34.5t51 -34t21.5 -55.5q0 -35 -25.5 -63.5t-62.5 -28.5q-49 0 -63 24.5t-20.5 61.5t-14.5 82t-43 86 q-35 -41 -44 -86t-14 -82t-20.5 -61.5t-62.5 -24.5q-37 0 -62.5 28.5t-25.5 63.5q0 37 21.5 55.5t52 34t63.5 34.5t57 60q-37 10 -67 11q-37 0 -71 -7.5t-58 -7.5q-41 0 -65.5 27t-24.5 61q0 37 27.5 61.5t62.5 24.5q27 0 48 -17t43.5 -39.5t51.5 -44t70 -30.5 q0 33 -10.5 64t-23.5 58.5t-23.5 51t-10.5 41.5q0 37 25.5 62.5t62.5 25.5t62.5 -25.5t25.5 -62.5q0 -18 -10 -41.5t-23.5 -50t-23.5 -57.5t-10 -64z" />
<glyph unicode="+" d="M561 979v-424h418v-86h-418v-424h-94v424h-420v86h420v424h94z" />
<glyph unicode="," horiz-adv-x="555" d="M293 -41q-4 6 -16.5 9t-24.5 3q-23 0 -44.5 11.5t-38.5 31t-28.5 45t-11.5 56.5q0 59 42 101t101 42q72 0 114 -54t42 -128q0 -68 -27.5 -132.5t-67.5 -119.5t-85 -98t-80 -66l-49 51q14 8 44 35t60.5 60.5t53 69.5t22.5 61q0 12 -6 22z" />
<glyph unicode="-" horiz-adv-x="813" d="M152 594h510v-82h-510v82z" />
<glyph unicode="." horiz-adv-x="536" d="M125 115q0 59 42 101t101 42t101.5 -42t42.5 -101t-42 -101.5t-102 -42.5q-59 0 -101 42.5t-42 101.5z" />
<glyph unicode="/" horiz-adv-x="942" d="M797 1561l94 -43l-748 -1721l-94 43z" />
<glyph unicode="0" horiz-adv-x="1153" d="M111 657q0 162 31.5 292t92 220.5t147.5 138.5t196 48t194.5 -48t146 -138.5t92 -220.5t31.5 -292t-31.5 -290.5t-92 -218t-146.5 -137.5t-194 -48q-109 0 -196 48t-147.5 137.5t-92 218t-31.5 290.5zM307 657q0 -150 14.5 -267.5t46 -198t84 -123.5t126.5 -43t125 43 t82.5 123.5t46 198.5t14.5 267q0 150 -14.5 268.5t-46 200.5t-83 125t-124.5 43q-74 0 -126.5 -43t-84 -125t-46 -200.5t-14.5 -268.5z" />
<glyph unicode="1" horiz-adv-x="847" d="M598 229q0 -59 6 -93t20.5 -50t37 -21.5t55.5 -5.5q16 0 37.5 1t48.5 3v-67q-72 4 -147.5 7t-149.5 3q-72 0 -161 -3t-161 -7v67q10 0 26.5 -1t34 -2t33 -1h23.5q33 0 54.5 5.5t36 21.5t20.5 50t6 93v775q0 92 -20.5 125.5t-57.5 33.5q-25 0 -61.5 -13t-75.5 -32.5 t-74 -40t-53 -33.5l-31 86q106 37 175 64t117 49.5t85 45t80 52.5l30 21l78 -35q-4 -47 -8 -90t-4 -111v-897z" />
<glyph unicode="2" horiz-adv-x="1054" d="M729 1034q0 53 -16.5 101.5t-47 84t-75.5 56t-103 20.5q-35 0 -67.5 -9t-57 -25.5t-40 -38t-15.5 -45.5q0 -33 10.5 -62t10.5 -67q0 -45 -31 -77t-72 -32q-51 0 -82.5 28.5t-31.5 94.5q0 57 27.5 109.5t79.5 93.5t127 65.5t167 24.5q100 0 177 -31t128 -80t78 -108.5 t27 -116.5q0 -123 -51.5 -204t-128 -140.5t-168 -107.5t-170 -104t-134 -130t-59.5 -184q31 10 66.5 11t70.5 1h375q55 0 87 19.5t46 49t18.5 64.5t4.5 65l77 -10q-16 -88 -24 -146.5t-8 -121.5v-42t2 -44q-98 8 -168 9t-131 1h-230h-81.5t-71.5 -1t-71 -3t-75 -6 q0 158 47.5 262t117 180t151.5 132.5t151.5 120t116.5 143t47 200.5z" />
<glyph unicode="3" horiz-adv-x="1071" d="M344 1057q0 -47 -30.5 -81t-71.5 -34q-49 0 -82 34t-33 93q0 55 27.5 107.5t80 92.5t127 63.5t166.5 23.5q106 0 183 -30t126.5 -77t72 -104.5t22.5 -114.5q0 -104 -38 -169.5t-88 -102.5t-102.5 -51.5t-82.5 -16.5v-10q31 0 88 -12.5t113.5 -49t97.5 -104.5t41 -176 q0 -111 -46.5 -183.5t-114 -114.5t-144 -59.5t-138.5 -17.5q-207 0 -315.5 83t-108.5 214q0 20 5 43t19.5 41t39 30.5t61.5 12.5q27 0 46.5 -10t31.5 -26.5t18.5 -36t6.5 -35.5q0 -35 -13.5 -66t-13.5 -68q0 -66 57.5 -93t147.5 -27q53 0 102 21.5t86 62.5t58.5 103 t21.5 142q0 90 -30.5 147.5t-77 91.5t-103.5 46t-108 12h-26.5t-25.5 -2v72q14 0 27.5 -1t30.5 -1q47 0 98 9t93 41t69.5 94.5t27.5 166.5q0 51 -15 98.5t-46 84t-75 59t-101 22.5q-35 0 -67.5 -8t-57.5 -22.5t-40 -34t-15 -43.5q0 -31 9 -61.5t9 -67.5z" />
<glyph unicode="4" horiz-adv-x="1069" d="M774 483h107q35 0 56 1t64 5v-120q-43 4 -64.5 5t-55.5 1h-107v-148q0 -59 6 -93t19.5 -51t36 -22.5t55.5 -5.5q18 0 32.5 2t34.5 2v-63q-72 4 -136 7t-136 3q-74 0 -152.5 -3t-150.5 -7v63q23 -2 53.5 -3t46.5 -1q33 0 54.5 5.5t36 22.5t20.5 51t6 93v148h-309h-67.5 t-51.5 -2t-52.5 -4t-66.5 -7l-16 132q63 72 117.5 137t101.5 129l233 305q72 94 119 164.5t84 128.5l94 -37q-4 -55 -7 -98t-4 -82t-1 -81v-95v-482zM125 473q25 4 58.5 7t62.5 3h354v305q0 57 4 146.5t21 175.5l-9 4z" />
<glyph unicode="5" horiz-adv-x="1062" d="M492 -37q-111 0 -187 31t-122 75t-66.5 91t-20.5 80q0 20 5 42.5t18.5 42t37 32t60.5 12.5q27 0 45.5 -10.5t30.5 -27t18 -36t6 -35.5q0 -27 -3 -43t-8 -28.5t-8 -25.5t-3 -34q0 -55 55.5 -79.5t126.5 -24.5q51 0 102.5 18t93.5 63.5t68.5 119t26.5 184.5q0 70 -18.5 133 t-53 109t-86 74t-116.5 28q-102 0 -160 -44t-101 -118l-92 16q6 63 11.5 106.5t9.5 96.5l26 383v23.5v38t-1 40t-1 29.5q47 -4 111.5 -7t130.5 -3h223q43 0 99.5 1t136.5 9q-2 -16 -2 -33.5v-34.5q0 -66 7 -133t21 -143l-69 -8q-4 53 -9.5 91t-23.5 62.5t-57 36t-107 11.5 h-278q-63 0 -86 -41t-29 -134l-12 -186q-2 -29 -3 -46t-6 -48l9 -2q37 39 102.5 72.5t175.5 33.5q94 0 175 -28.5t139.5 -83t91 -130t32.5 -169.5q0 -127 -46 -213t-114.5 -138.5t-150 -75t-155.5 -22.5z" />
<glyph unicode="6" horiz-adv-x="1110" d="M301 741v-29.5t-1 -41l-2 -43t-3 -33.5q39 92 122 154.5t199 62.5q82 0 153 -26.5t123 -79t82 -131t30 -183.5q0 -96 -34 -175t-90.5 -135t-132 -87t-161.5 -31q-123 0 -213 50t-148.5 137.5t-86 204t-27.5 249.5q0 166 23.5 287t62.5 205t90 135t107.5 78.5t111.5 37 t104 9.5q111 0 181.5 -31t110.5 -73t54.5 -87t14.5 -73q0 -18 -4 -41t-17.5 -42.5t-36 -32.5t-59.5 -13q-27 0 -46.5 10t-31.5 26.5t-18 36t-6 35.5q0 27 4 43t8 31q4 12 7 24.5t3 32.5q0 23 -14.5 40.5t-37 28.5t-51 17t-59.5 6q-88 0 -147 -48t-96 -126t-52.5 -177.5 t-15.5 -201.5zM817 379q0 74 -17.5 139.5t-48 114.5t-74.5 77.5t-97 28.5q-55 0 -101.5 -26.5t-80 -73.5t-52 -113.5t-18.5 -146.5q0 -166 67.5 -260t184.5 -94q53 0 97 26.5t74.5 73.5t48 111.5t17.5 142.5z" />
<glyph unicode="7" horiz-adv-x="952" d="M766 1182q-35 -6 -75 -8.5t-107 -2.5h-250q-61 0 -99 -13t-59.5 -38.5t-31 -65.5t-13.5 -93l-74 8q16 80 22.5 156.5t6.5 146.5v53q78 -10 129 -11t96 -1h224q33 0 84 1t104 3t99 4t71 4l33 -57q-199 -311 -301.5 -562t-102.5 -419q0 -53 7.5 -102.5t7.5 -106.5 q0 -59 -38 -90t-79 -31q-123 0 -123 123q0 90 54.5 229.5t150.5 333.5z" />
<glyph unicode="8" horiz-adv-x="1093" d="M397 666q-113 49 -180 130t-67 216q0 61 23.5 122.5t73.5 110.5t128 80t184 31q88 0 161 -25.5t123 -68.5t77.5 -101.5t27.5 -122.5q0 -72 -21.5 -125t-58.5 -93t-88 -67.5t-108 -45.5q55 -23 111.5 -54.5t101.5 -77t73.5 -104.5t28.5 -133q0 -78 -27.5 -146.5 t-84 -118.5t-140.5 -80t-194 -30q-98 0 -179 24.5t-137.5 70.5t-87.5 110.5t-31 144.5q0 72 25 128.5t65 99.5t92 74t109 51zM612 745l60 40t60.5 54.5t46 82t18.5 125.5q0 45 -13.5 89t-42 79.5t-72.5 57t-106 21.5q-68 0 -114 -22.5t-73.5 -58t-39.5 -78.5t-12 -82 q0 -61 26.5 -107.5t68.5 -81.5t93 -63.5t100 -55.5zM805 285q0 82 -38 136t-93.5 92t-115.5 62.5t-103 49.5q-29 -18 -62 -40t-62.5 -55.5t-49 -88t-19.5 -136.5q0 -123 74 -201.5t196 -78.5q70 0 121.5 21.5t85 56t50 82t16.5 100.5z" />
<glyph unicode="9" horiz-adv-x="1112" d="M498 25q160 0 238.5 159.5t78.5 460.5v44.5t-4 43.5q-35 -96 -115 -154.5t-188 -58.5q-82 0 -153.5 24.5t-125 75t-84 127t-30.5 181.5q0 98 32.5 178t90 135t133 85t161.5 30q117 0 204 -53.5t146.5 -141.5t89 -204.5t29.5 -241.5q0 -250 -51 -399.5t-125.5 -227.5 t-162 -101.5t-158.5 -23.5q-113 0 -185.5 31t-115.5 75t-60.5 91t-17.5 80q0 20 5 42.5t18.5 42t37 32t60.5 12.5q27 0 46 -10.5t31.5 -27t18.5 -36t6 -35.5q0 -35 -11 -64.5t-11 -66.5q0 -55 50 -79.5t122 -24.5zM303 938q0 -74 17.5 -137.5t49 -111.5t74.5 -74.5t95 -26.5 q113 0 174 95t61 255q0 76 -17.5 141.5t-48 113.5t-73.5 74.5t-96 26.5q-55 0 -99.5 -25.5t-74 -72.5t-46 -112.5t-16.5 -145.5z" />
<glyph unicode=":" horiz-adv-x="589" d="M152 115q0 59 42 101t101 42t101 -42t42 -101t-42 -101.5t-101 -42.5t-101 42.5t-42 101.5zM152 825q0 59 42 101.5t101 42.5t101 -42t42 -102q0 -59 -42 -101t-101 -42t-101 42t-42 101z" />
<glyph unicode=";" horiz-adv-x="612" d="M158 825q0 59 42 101.5t101 42.5t101 -42t42 -102q0 -59 -42 -101t-101 -42t-101 42t-42 101zM322 -41q-4 6 -16.5 9t-24.5 3q-23 0 -44.5 11.5t-39 31t-28.5 45t-11 56.5q0 59 42 101t101 42q72 0 114 -54t42 -128q0 -68 -28 -132.5t-67.5 -119.5t-85 -98t-79.5 -66 l-50 51q14 8 44 35t61 60.5t53.5 69.5t22.5 61q0 12 -6 22z" />
<glyph unicode="&#x3c;" d="M84 541l790 436l39 -76l-731 -403l731 -418l-39 -80l-790 449v92z" />
<glyph unicode="=" d="M977 698v-82h-930v82h930zM977 391v-82h-930v82h930z" />
<glyph unicode="&#x3e;" d="M940 449l-790 -449l-39 80l731 418l-731 403l39 76l790 -436v-92z" />
<glyph unicode="?" horiz-adv-x="1001" d="M416 414q-2 16 -3 30.5t-1 28.5q0 88 23.5 152.5t59 115t77.5 91t78 83.5t59.5 92.5t23.5 114.5q0 59 -16.5 110.5t-50 90.5t-82.5 60.5t-113 21.5q-39 0 -76 -10.5t-64.5 -27.5t-44 -40.5t-16.5 -50.5q0 -31 3 -44t8.5 -24.5t8.5 -27t3 -45.5q0 -49 -33 -82t-74 -33 q-53 0 -88 29.5t-35 101.5q0 61 31 118.5t87.5 102.5t136 71.5t180.5 26.5q111 0 192.5 -29.5t136 -78.5t81 -110.5t26.5 -125.5q0 -94 -33 -155.5t-81 -106.5t-104.5 -80.5t-104.5 -80t-80.5 -103.5t-32.5 -151v-16.5t2 -18.5h-84zM315 115q0 59 42 101t102 42 q59 0 101 -42t42 -101t-42 -101.5t-101 -42.5t-101.5 42.5t-42.5 101.5z" />
<glyph unicode="@" horiz-adv-x="2039" d="M1126 156q-6 -10 -28.5 -38t-59.5 -57.5t-85 -52t-103 -22.5q-33 0 -82 9t-95 44t-79 106.5t-33 194.5q0 98 37 199.5t100.5 183.5t150.5 134t185 52q57 0 91 -10t58.5 -23.5t46 -23.5t50.5 -10q31 0 49.5 5t40.5 34l55 -11q-29 -125 -54 -244.5t-46 -244.5 q-6 -37 -14 -81t-8 -89q0 -63 25.5 -109.5t98.5 -46.5q72 0 137.5 43t116 117t80 175.5t29.5 217.5q0 172 -54.5 296t-146.5 204t-216 118t-263 38q-158 0 -312.5 -56.5t-277.5 -167t-198.5 -273.5t-75.5 -378q0 -197 57 -339t155.5 -236.5t229.5 -139.5t277 -45 q115 0 241 29l4 -72q-154 -31 -288 -30q-201 0 -354.5 62.5t-260 173t-161 261t-54.5 328.5q0 172 64.5 345t192.5 310.5t318.5 223.5t440.5 86q211 0 367.5 -60.5t260 -162t153.5 -234.5t50 -279q0 -133 -43 -248.5t-116.5 -200.5t-171 -134.5t-203.5 -49.5 q-121 0 -192.5 45.5t-71.5 131.5zM729 307q0 -131 37 -188.5t106 -57.5q68 0 129.5 51.5t109.5 131.5t75.5 175t27.5 183q0 43 -7 85t-23.5 76t-44 55.5t-70.5 21.5q-57 0 -117.5 -44t-109.5 -118t-81 -170.5t-32 -200.5z" />
<glyph unicode="A" horiz-adv-x="1437" d="M766 1470l479 -1241q10 -29 21.5 -58.5t29 -54t43 -41t66.5 -16.5q10 0 25.5 1t27.5 3v-69q-80 6 -146.5 9t-142.5 3q-147 0 -309 -12v69q23 -4 44.5 -4h41.5q59 0 90 16.5t31 61.5q0 39 -20 94l-113 291h-549l-102 -291q-18 -55 -19 -88q0 -47 30 -65.5t89 -18.5h35.5 t42.5 4v-69q-82 6 -141.5 9t-135.5 3q-39 0 -63.5 -1t-46 -2t-43 -4t-51.5 -5v69q10 -2 19 -2h19q41 0 70 12.5t49.5 36t34.5 55.5t31 73l467 1232h96zM410 588h499q-59 166 -124.5 328.5t-116.5 328.5l-11 2z" />
<glyph unicode="B" horiz-adv-x="1312" d="M965 1102q0 131 -81 205.5t-222 74.5q-68 0 -106 -6t-55.5 -24.5t-21.5 -52t-4 -89.5v-422q20 -2 40 -3t40 -1q86 0 161 18.5t130 57.5t87 99.5t32 142.5zM68 1440q137 -12 278 -13q47 0 73.5 2.5t58.5 5.5t80 5t140 2q145 0 236.5 -33t142.5 -85t69.5 -114.5 t18.5 -119.5q0 -72 -27.5 -129.5t-72.5 -99.5t-102.5 -65.5t-118.5 -25.5v-10q57 0 119.5 -22.5t116 -66.5t88 -110.5t34.5 -154.5q0 -219 -134 -315.5t-402 -96.5q-68 0 -140.5 6t-146.5 6q-150 0 -311 -12v69q49 -6 86 -6q72 0 102.5 34t30.5 132v987q0 96 -30 131 t-101 35q-37 0 -88 -6v70zM649 51q61 0 123 14.5t113 52.5t82.5 105.5t31.5 171.5q0 90 -31.5 153.5t-87 103.5t-128 57.5t-154.5 17.5q-29 0 -60.5 -2t-62.5 -6v-496q0 -61 8.5 -96t27.5 -51.5t53 -20.5t85 -4z" />
<glyph unicode="C" horiz-adv-x="1347" d="M1233 1417q0 -55 1 -102t4 -90t9 -86t15 -92l-74 -7q-4 106 -37 177t-83 113t-112.5 58.5t-126.5 16.5q-109 0 -204 -42t-164.5 -126t-109.5 -213t-40 -301q0 -330 135.5 -510t372.5 -180q68 0 130.5 21.5t116.5 59.5t96 88t69 109l69 -30q-84 -166 -217 -242t-305 -76 q-152 0 -276.5 50t-213.5 146.5t-138.5 238t-49.5 325.5q0 180 54.5 319.5t150.5 234.5t229.5 144t290.5 49q139 0 240.5 -18.5t167.5 -34.5z" />
<glyph unicode="D" horiz-adv-x="1536" d="M1434 719q0 -186 -55.5 -322.5t-152 -225.5t-228.5 -133t-285 -44q-61 0 -108.5 2t-87.5 4t-79 4t-88 2q-141 0 -278 -12v69q27 -4 48 -6t40 -2q72 0 101.5 36t29.5 132v987q0 96 -31 131t-102 35q-37 0 -86 -6v70q82 -4 149.5 -8.5t143.5 -4.5q66 0 146.5 6.5t197.5 6.5 q160 0 293 -39t229 -125t149.5 -223t53.5 -334zM1223 719q0 125 -23.5 242.5t-82 209t-158 146.5t-252.5 55q-80 0 -126 -6t-69 -24.5t-28 -50t-5 -81.5v-987q0 -51 7.5 -82.5t31 -49t68.5 -24t121 -6.5q143 0 241.5 54.5t159.5 144.5t88 210t27 249z" />
<glyph unicode="E" horiz-adv-x="1304" d="M287 1192q0 57 -5.5 92t-19.5 55.5t-40.5 27.5t-67.5 7q-16 0 -37 -1t-43 -3v70q135 -8 259 -10.5t240 -2.5q150 0 289 3.5t281 9.5q0 -55 2 -99.5t7 -87.5t11 -90t17 -108l-70 -11q-6 113 -31.5 177.5t-75 97.5t-122 40t-174.5 7q-86 0 -133.5 -6t-69 -24.5t-25.5 -53.5 t-4 -90v-414q35 -4 66.5 -4h58.5q98 0 150.5 15.5t77 44t28.5 69.5t6 94l70 -4q-8 -70 -12.5 -130t-4.5 -118q0 -63 4.5 -123.5t12.5 -121.5l-70 -4q-2 51 -7 92t-29.5 69.5t-77 43t-148.5 14.5h-59.5t-65.5 -4v-471q0 -55 4 -89t23.5 -52.5t62.5 -24.5t123 -6q125 0 208 9 t135 45t78 106.5t36 193.5l72 -10q-12 -61 -20.5 -112.5t-12.5 -100.5t-7 -98.5t-6 -106.5q-326 12 -628 12q-121 0 -237 -2t-232 -10v69q25 -4 45 -4h39q37 0 62.5 7.5t39.5 27t20.5 55t6.5 91.5v952z" />
<glyph unicode="F" horiz-adv-x="1198" d="M477 244q0 -63 7.5 -100.5t23.5 -55.5t40.5 -23.5t61.5 -5.5q18 0 40 1t46 3v-69q-78 4 -156.5 8t-158.5 4q-156 0 -311 -12v69q25 -2 46 -3t40 -1q37 0 61.5 5.5t40.5 23.5t23.5 55t7.5 101v948q0 57 -5 92t-19.5 55.5t-41 27.5t-67.5 7q-16 0 -37 -1t-43 -3v70 q135 -8 246.5 -10.5t228.5 -2.5q150 0 289 3.5t280 9.5q0 -55 2 -99.5t7.5 -87.5t11.5 -90t16 -108l-70 -11q-6 113 -31.5 177.5t-74.5 97.5t-122 40t-175 7q-78 0 -120 -6t-61.5 -24.5t-22.5 -53.5t-3 -90v-434q35 -4 66.5 -4h58.5q98 0 150.5 15t76 44t27.5 70t8 94l70 -4 q-8 -70 -12 -130.5t-4 -117.5q0 -63 4 -123.5t12 -122.5l-70 -4q-2 51 -7 92t-29.5 70t-77 43t-148.5 14h-59.5t-65.5 -4v-446z" />
<glyph unicode="G" horiz-adv-x="1488" d="M1085 432q0 98 -30.5 132t-102.5 34q-16 0 -37.5 -2t-44.5 -4v70q160 -12 310 -13q39 0 70.5 1t64.5 2t66.5 3t74.5 7v-70q-20 2 -36.5 3t-33.5 1q-61 0 -86.5 -32t-25.5 -130v-164q0 -55 1 -111.5t7 -117.5q-72 -25 -194.5 -51.5t-282.5 -26.5q-147 0 -258 38 t-188.5 100.5t-129 142.5t-80 165t-40 167.5t-11.5 150.5q0 121 36 253t124 241.5t235.5 180.5t370.5 71q92 0 183.5 -13.5t199.5 -44.5q0 -45 1 -87t3 -87t7.5 -93t15.5 -104l-74 -12q-2 72 -17.5 139.5t-56.5 119.5t-113.5 84t-189.5 32q-109 0 -189.5 -35t-138 -91 t-93 -128t-56 -145.5t-29 -145t-8.5 -125.5q0 -43 6.5 -111.5t24.5 -147.5t52 -158.5t89.5 -144t135 -105.5t190.5 -41q104 0 160.5 15t82 48t30.5 84t5 121v135z" />
<glyph unicode="H" horiz-adv-x="1642" d="M475 244q0 -63 7 -100.5t23.5 -55.5t41 -23.5t61.5 -5.5q18 0 37 1t43 3v-69q-78 6 -153.5 9t-155.5 3t-153.5 -3t-151.5 -9v69q25 -2 43 -3t37 -1q37 0 61.5 5.5t40.5 23.5t23.5 55t7.5 101v946q0 63 -7.5 100t-23.5 55.5t-41 23.5t-61 5q-18 0 -37 -1t-43 -3v70 q78 -6 151.5 -9.5t153.5 -3.5t155.5 3.5t153.5 9.5v-70q-25 2 -43 3t-37 1q-37 0 -61.5 -5t-41 -23.5t-23.5 -55.5t-7 -100v-406h692v406q0 63 -7 100t-23.5 55.5t-41 23.5t-61.5 5q-18 0 -36.5 -1t-43.5 -3v70q78 -6 152 -9.5t154 -3.5t155.5 3.5t153.5 9.5v-70 q-25 2 -43.5 3t-36.5 1q-37 0 -61.5 -5t-41 -23.5t-23.5 -55.5t-7 -100v-946q0 -63 7 -100.5t23.5 -55.5t41 -23.5t61.5 -5.5q18 0 36.5 1t43.5 3v-69q-78 6 -154 9t-155 3q-80 0 -154 -3t-152 -9v69q25 -2 43.5 -3t36.5 -1q37 0 61.5 5.5t41 23.5t23.5 55t7 101v475h-692 v-475z" />
<glyph unicode="I" horiz-adv-x="761" d="M475 244q0 -63 7 -100.5t23.5 -55.5t41 -23.5t61.5 -5.5q18 0 37 1t43 3v-69q-78 6 -153.5 9t-155.5 3t-153.5 -3t-151.5 -9v69q25 -2 43 -3t37 -1q37 0 61.5 5.5t40.5 23.5t23.5 55t7.5 101v946q0 63 -7.5 100t-23.5 55.5t-41 23.5t-61 5q-18 0 -37 -1t-43 -3v70 q78 -6 151.5 -9.5t153.5 -3.5t155.5 3.5t153.5 9.5v-70q-25 2 -43 3t-37 1q-37 0 -61.5 -5t-41 -23.5t-23.5 -55.5t-7 -100v-946z" />
<glyph unicode="J" horiz-adv-x="876" d="M612 293q0 -86 -27.5 -148.5t-71.5 -102.5t-101.5 -59.5t-114.5 -19.5t-106.5 12.5t-87 31t-64.5 39t-39 34.5l51 53q35 -33 85 -58.5t122 -25.5q74 0 120 54.5t46 185.5v901q0 63 -7 100t-23.5 55.5t-41 23.5t-61.5 5q-18 0 -36.5 -1t-43.5 -3v70q78 -6 151.5 -9.5 t153.5 -3.5t156 3.5t153 9.5v-70q-25 2 -43 3t-37 1q-37 0 -61.5 -5t-40.5 -23.5t-23.5 -55.5t-7.5 -100v-897z" />
<glyph unicode="K" horiz-adv-x="1441" d="M475 244q0 -63 7 -100.5t23.5 -55.5t41 -23.5t61.5 -5.5q18 0 37 1t43 3v-69q-78 6 -153.5 9t-155.5 3t-153.5 -3t-151.5 -9v69q25 -2 43 -3t37 -1q37 0 61.5 5.5t40.5 23.5t23.5 55t7.5 101v946q0 63 -7.5 100t-23.5 55.5t-41 23.5t-61 5q-18 0 -37 -1t-43 -3v70 q78 -6 151.5 -9.5t153.5 -3.5t155.5 3.5t153.5 9.5v-70q-25 2 -43 3t-37 1q-37 0 -61.5 -5t-41 -23.5t-23.5 -55.5t-7 -100v-410q35 0 57.5 3t40 10.5t33 21.5t37.5 39l275 311q41 47 74.5 91t33.5 73q0 25 -23.5 35t-62.5 10q-12 0 -27.5 -1t-31.5 -3v70q61 -6 115.5 -9.5 t125.5 -3.5q63 0 110.5 2.5t117.5 10.5v-70q-12 2 -24.5 2h-22.5q-47 0 -82 -12t-67 -38t-64.5 -62.5t-75.5 -85.5l-330 -375q39 0 69.5 -14.5t53 -38t41 -52t37.5 -55.5l233 -358q35 -53 63.5 -95.5t59.5 -71t68 -43t88 -14.5q31 0 67 6v-69q-35 4 -65.5 5t-69.5 1 q-66 0 -130 -4t-126 -21q-39 86 -83 158t-93 148l-182 282q-31 45 -53.5 75t-47 47t-57.5 23.5t-82 6.5v-471z" />
<glyph unicode="L" horiz-adv-x="1208" d="M475 240q0 -55 4 -89t23.5 -52.5t62.5 -24.5t123 -6q109 0 184.5 12t123.5 49t74 106.5t34 186.5l72 -10q-12 -61 -20.5 -112.5t-12.5 -100.5t-7 -98.5t-6 -106.5q-82 2 -155.5 5t-144 4t-141.5 2t-146 1q-121 0 -237 -2t-232 -10v69q25 -4 45 -4h39q37 0 62.5 7.5 t39.5 27t20.5 55t6.5 91.5v950q0 63 -7.5 100t-23.5 55.5t-41 23.5t-61 5q-18 0 -37 -1t-43 -3v70q78 -2 151.5 -7.5t153.5 -5.5t155.5 4.5t153.5 8.5v-70q-25 2 -43 3t-37 1q-37 0 -61.5 -5t-41 -23.5t-23.5 -55.5t-7 -100v-950z" />
<glyph unicode="M" horiz-adv-x="1894" d="M1608 244q0 -63 7 -100.5t22.5 -55.5t41 -23.5t62.5 -5.5q18 0 36.5 1t43.5 3v-69q-78 6 -153 9t-155 3t-153.5 -3t-151.5 -9v69q25 -2 43.5 -3t36.5 -1q37 0 61.5 5.5t41 23.5t23.5 55t7 101q-2 195 -2 331t-1 225t-1 140v79v37v15q0 63 2 135t11 131h-11l-483 -1292 h-92l-381 1036q-23 57 -44.5 118t-45.5 138h-11l-10 -1114q0 -33 4 -62.5t17.5 -52t38 -36t67.5 -13.5q16 0 36 1t42 3v-69q-41 2 -68.5 5t-53 4t-52.5 2t-66 1q-37 0 -66.5 -1l-59 -2t-61.5 -4t-73 -5v69q20 -4 39 -4h35q39 0 66.5 6.5t44 25t24.5 50t8 82.5l11 1004 q2 86 -22.5 116.5t-84.5 30.5q-16 0 -38.5 -1t-45.5 -3v70q41 -4 67.5 -6t50.5 -3t48.5 -2.5t63.5 -1.5h59.5t41.5 2.5t43 4.5t62 6q6 -29 22.5 -78t37.5 -105l272 -755q20 -53 38 -114.5t34 -121.5h8l365 977q12 31 19 50.5t13.5 38t14.5 43t20 65.5q39 -4 63.5 -6t43 -4.5 t36 -2.5h46.5q47 0 76.5 1.5t55 2.5t52.5 3t68 6v-70q-25 2 -46.5 4t-39.5 2q-78 0 -106 -44t-26 -120z" />
<glyph unicode="N" horiz-adv-x="1624" d="M1274 272v938q0 53 -7 85t-24.5 49.5t-45.5 23.5t-67 6q-14 0 -31.5 -2t-33.5 -2v70q39 -4 68.5 -6t55 -3t54.5 -2.5t66 -1.5q39 0 66.5 1.5t54 2.5t56.5 3t73 6v-70q-23 2 -42.5 3t-35.5 1q-76 0 -104.5 -31.5t-28.5 -132.5v-1247h-84l-760 1114q-29 41 -65 98.5 t-77 131.5h-12v-1086q0 -98 29 -130t102 -32q16 0 36 1t42 3v-69q-41 2 -69.5 5t-54 4t-52.5 2t-66 1q-37 0 -65.5 -1t-56 -3t-58.5 -4t-71 -4v69q23 -2 43 -3t36 -1q74 0 102.5 32t28.5 130v989q0 98 -27.5 132t-98.5 34q-18 0 -39 -2t-45 -4v70q41 -4 73.5 -6t60 -3 t54.5 -2.5t57 -1.5q45 0 89 2.5t96 10.5q20 -35 33.5 -58.5t25.5 -42t23.5 -36t29.5 -43.5l541 -791q20 -31 36.5 -56.5t29 -48t24.5 -44t25 -48.5h10z" />
<glyph unicode="O" horiz-adv-x="1515" d="M100 717q0 168 48.5 306t134.5 238.5t206.5 156t268.5 55.5q147 0 268 -55.5t207 -156t134 -238.5t48 -306t-48 -307.5t-134 -238.5t-207 -153.5t-268 -54.5t-268 54.5t-207 153.5t-134.5 238.5t-48.5 307.5zM311 717q0 -158 30 -285t87 -217t140 -138t190 -48 q106 0 189 48t140.5 138t87 217t29.5 285t-29.5 284.5t-87 217t-140.5 139.5t-189 49t-189.5 -49t-140.5 -139.5t-87 -217t-30 -284.5z" />
<glyph unicode="P" horiz-adv-x="1214" d="M475 244q0 -63 7 -100.5t23.5 -55.5t41 -23.5t61.5 -5.5q18 0 37 1t43 3v-69q-78 4 -153.5 8t-155.5 4t-153.5 -4t-151.5 -8v69q25 -2 43 -3t37 -1q37 0 61.5 5.5t40.5 23.5t23.5 55t7.5 101v966q0 96 -28 131t-97 35q-37 0 -88 -6v70q70 -6 135 -9.5t137 -3.5 q47 0 68.5 2.5t49.5 5.5t76 5t146 2q150 0 244 -38t146 -94.5t70.5 -124t18.5 -126.5q0 -66 -23.5 -138.5t-87 -134t-178 -101.5t-294.5 -40h-52.5t-54.5 4v-405zM965 1061q0 78 -25 137t-65.5 100t-98 62.5t-121.5 21.5q-63 0 -99 -6t-54.5 -24.5t-22.5 -52t-4 -89.5v-487 q31 -6 59.5 -8t57.5 -2q174 0 273.5 93t99.5 255z" />
<glyph unicode="Q" horiz-adv-x="1515" d="M635 -25q-121 20 -220.5 83t-169 159t-107.5 223t-38 277q0 168 48.5 306t134.5 238.5t206.5 156t268.5 55.5q147 0 268 -55.5t207 -156t134 -238.5t48 -306q0 -158 -42 -288t-119.5 -227.5t-186.5 -155.5t-240 -71q16 -14 50 -57t69 -82q63 -72 117.5 -100.5 t103.5 -28.5q51 0 95.5 24.5t85.5 57.5l53 -47q-76 -70 -150.5 -100.5t-146.5 -30.5q-66 0 -126 21.5t-114.5 58.5t-100.5 87t-83 107q-14 23 -26.5 44t-18.5 46zM311 717q0 -158 30 -285t87 -216t140 -137t190 -48q106 0 190 48t141.5 137t87 216t29.5 285t-29.5 284.5 t-87 216t-141.5 137.5t-190 48t-189.5 -48t-140.5 -137.5t-87 -216t-30 -284.5z" />
<glyph unicode="R" horiz-adv-x="1396" d="M475 244q0 -63 7 -100.5t23.5 -55.5t41 -23.5t61.5 -5.5q18 0 37 1t43 3v-69q-80 4 -161 7t-165 3q-70 0 -141 -3t-147 -7v69q25 -2 43 -3t37 -1q37 0 61.5 5.5t40.5 23.5t23.5 55t7.5 101v966q0 96 -30 131t-99 35q-37 0 -86 -6v70q137 -12 278 -13q45 0 67.5 2.5 t50.5 4.5t75 4t143 2q150 0 243 -36t145 -89t69.5 -112.5t17.5 -108.5q0 -70 -23.5 -131.5t-70.5 -108.5t-118.5 -76.5t-166.5 -36.5v-10q227 0 301 -250l95 -299q16 -74 58 -98.5t114 -24.5q12 0 25.5 1t29.5 3h12v-69q-47 4 -85 7t-81 3t-96 -5t-127 -15q-8 35 -16 75.5 t-19 81.5l-92 297q-16 55 -38.5 104.5t-62.5 86.5t-100.5 58.5t-148.5 21.5q-18 0 -36.5 -2t-39.5 -2v-461zM961 1094q0 61 -23 114.5t-62.5 92t-95 60t-121.5 21.5q-63 0 -100 -6t-55.5 -24.5t-23.5 -52t-5 -89.5v-442q25 -2 40 -2h32q193 0 303.5 87t110.5 241z" />
<glyph unicode="S" horiz-adv-x="1173" d="M887 307q0 111 -56.5 176.5t-140.5 110.5t-182 81t-182 86t-140.5 125t-56.5 199q0 90 38 162t102.5 122t152.5 77t188 27q170 0 355 -50q0 -51 1 -93t5 -83t11 -87t19 -103l-77 -8q-2 61 -17.5 124.5t-52.5 115.5t-98.5 85t-155.5 33q-84 0 -140.5 -25.5t-92 -64.5 t-51 -86t-15.5 -90q0 -74 33 -124t87 -87t123.5 -65.5t142.5 -59.5t142.5 -65.5t124 -85t87 -121t32.5 -168.5q0 -100 -45 -176t-118.5 -126.5t-169 -75t-195.5 -24.5q-127 0 -216 15.5t-177 39.5q0 59 -2.5 108.5t-5.5 95.5t-11 94.5t-20 105.5l80 10q2 -61 17 -132 t54 -131t107.5 -100t179.5 -40q82 0 144.5 22.5t105.5 61.5t64.5 89t21.5 105z" />
<glyph unicode="T" horiz-adv-x="1249" d="M719 244q0 -63 7 -100.5t23.5 -55.5t41 -23.5t61.5 -5.5q18 0 36.5 1t43.5 3v-69q-78 4 -154 8t-155 4q-80 0 -154 -4t-152 -8v69q25 -2 43.5 -3t36.5 -1q37 0 61.5 5.5t41 23.5t23.5 55t7 101v934q0 70 -10 108.5t-32.5 56t-58.5 20.5t-87 3q-84 0 -128 -28.5 t-64.5 -73.5t-25.5 -101.5t-13 -113.5l-74 12q12 55 18 101t9.5 90t5.5 89t2 99q41 -4 112.5 -6t152.5 -3t157.5 -2.5t130.5 -1.5q53 0 131 1.5t157.5 2.5t151.5 3t113 6q0 -53 2 -98.5t5 -89.5t9 -90t18 -101l-73 -12q-8 57 -13.5 113.5t-26 101.5t-64.5 73.5t-128 28.5 q-51 0 -87 -3t-58.5 -20.5t-32.5 -56.5t-10 -108v-934z" />
<glyph unicode="U" horiz-adv-x="1570" d="M446 596q0 -92 4.5 -158.5t13.5 -117t25.5 -88t42.5 -70.5q59 -72 135 -101.5t152 -29.5q123 0 201 45t131 121q59 84 72.5 223t13.5 317v473q0 100 -30.5 132t-106.5 32q-18 0 -38 -1t-42 -3v70q41 -2 72.5 -4t61.5 -4t60.5 -3.5t67.5 -1.5t63.5 1.5t52 3.5t54.5 4t70 4 v-70q-25 2 -45.5 3t-38.5 1q-72 0 -97.5 -32.5t-25.5 -131.5v-475q0 -94 -2 -173t-11.5 -148.5t-29 -131t-55.5 -118.5q-55 -88 -164 -144.5t-248 -56.5q-129 0 -230.5 30t-172 101.5t-107.5 190t-37 295.5v610q0 63 -7 100t-23.5 55.5t-41 23.5t-61.5 5q-18 0 -36.5 -1 t-43.5 -3v70q78 -6 151.5 -9.5t153.5 -3.5t156 3.5t153 9.5v-70q-25 2 -43 3t-36 1q-37 0 -61.5 -5t-41 -23.5t-24 -55.5t-7.5 -100v-594z" />
<glyph unicode="V" horiz-adv-x="1388" d="M756 211l346 924q27 72 33 105.5t6 49.5q0 47 -31 65.5t-90 18.5h-36.5t-43.5 -4v70q59 -4 118.5 -8.5t121.5 -4.5q55 0 112.5 4.5t116.5 8.5v-70q-10 2 -26.5 3t-26.5 1q-41 0 -64.5 -15.5t-40 -43t-29 -63t-26.5 -76.5l-455 -1215h-86l-458 1223q-14 39 -26.5 73.5 t-29 60t-41 41t-63.5 15.5q-10 0 -27.5 -1t-29.5 -3v70q150 -12 303 -13q141 0 295 13v-70q-23 4 -44.5 4h-41.5q-59 0 -90 -16.5t-31 -61.5q0 -18 8 -52t18 -62l287 -766q20 -53 35.5 -100.5t25.5 -104.5h11z" />
<glyph unicode="W" horiz-adv-x="2021" d="M1018 1178l-363 -1217h-88l-360 1227q-12 45 -25.5 80t-33 58.5t-47 35.5t-70.5 12q-12 0 -24.5 -1t-26.5 -3v70q63 -6 121.5 -9.5t136.5 -3.5q74 0 164 4.5t169 8.5v-70q-20 0 -38.5 2t-34.5 2q-59 0 -89 -18.5t-30 -69.5q0 -47 20 -110l201 -687q12 -41 20.5 -69.5 t14.5 -53l12 -49t12 -55.5h9l356 1172h102l277 -949q12 -41 20.5 -69.5t14.5 -53t12 -47t12 -53.5h8l228 750q29 96 44 161.5t15 106.5q0 53 -29.5 73.5t-95.5 20.5q-18 0 -39.5 -1t-46.5 -3v70q72 -4 130.5 -8.5t123.5 -4.5q49 0 77 1.5t49.5 3.5t46 4t69.5 4v-70 q-10 2 -20.5 3t-20.5 1q-43 0 -73 -16.5t-51.5 -44t-35.5 -64.5t-26 -78l-359 -1210h-88l-287 979q-10 37 -17 63.5t-13.5 53t-11.5 54.5t-11 67h-10z" />
<glyph unicode="X" horiz-adv-x="1421" d="M977 1118q109 141 108 201q0 53 -102 53h-37.5t-44.5 -4v70q70 -4 121 -7.5t111 -3.5q55 0 81.5 1.5t46 2.5t42 3t67.5 4v-70q-8 0 -14 1t-13 1q-59 0 -114 -50t-117.5 -132t-136.5 -188.5t-168 -217.5l332 -493q45 -66 72.5 -110t51 -70.5t46 -38t57.5 -11.5 q12 0 25.5 1t29.5 3v-69q-80 6 -145.5 9t-140.5 3q-152 0 -314 -12v69q23 -4 43.5 -4h38.5q51 0 78 11.5t27 42.5q0 37 -47 108l-287 443l-324 -426q-51 -70 -51 -113q0 -68 113 -68q29 0 69 6v-69q-82 6 -141 9t-135 3q-39 0 -63.5 -1t-46 -2t-43 -4t-52.5 -5v69 q10 -2 31 -2q45 0 76.5 15.5t58.5 41t49.5 57.5t48.5 67l363 475l-332 491q-23 33 -42.5 64t-42 52.5t-51 34.5t-71.5 13h-20.5t-20.5 -2v70q63 -6 121.5 -9.5t136.5 -3.5q74 0 164 4.5l170 8.5v-70q-25 0 -45.5 1t-38.5 1q-45 0 -69.5 -8t-24.5 -33q0 -39 59 -127l244 -362 z" />
<glyph unicode="Y" horiz-adv-x="1310" d="M748 244q0 -63 7 -100.5t23.5 -55.5t41 -23.5t61.5 -5.5q18 0 36.5 1t43.5 3v-69q-78 6 -154 9t-156 3t-153.5 -3t-151.5 -9v69q25 -2 43.5 -3t36.5 -1q37 0 61.5 5.5t41 23.5t23.5 55t7 101v362l-330 594q-23 39 -39 71t-35.5 55.5t-45 35.5t-64.5 12q-10 0 -21.5 -1 t-23.5 -3v70q63 -6 121.5 -9.5t136.5 -3.5q74 0 164 4.5l170 8.5v-70q-29 2 -51.5 3t-42.5 1q-53 0 -81 -11t-28 -42q0 -39 45 -121l180 -319q23 -41 44.5 -83t43.5 -106h9l202 357q55 98 83 161.5t28 98.5q0 37 -26.5 51t-77.5 14q-16 0 -37 -1t-43 -3v70q70 -4 121 -7 t110 -3q55 0 82 1t46.5 2t42 3t67.5 4v-70q-10 2 -17.5 2h-17.5q-41 0 -69.5 -15.5t-51.5 -41t-41 -61t-41 -74.5l-323 -574v-362z" />
<glyph unicode="Z" horiz-adv-x="1208" d="M756 1176q10 16 25.5 40.5t34 51t36.5 51t33 41.5q-55 4 -98.5 4h-94.5h-164q-86 0 -148.5 -9t-105.5 -42t-66.5 -96.5t-29.5 -172.5l-72 11q10 57 17.5 98t11.5 74t5 64.5t1 74.5v74q102 -4 224 -8.5t239 -4.5h135h82t71 2.5t80 4.5t111 6l23 -49l-672 -1090 q-18 -29 -33.5 -53.5t-32 -49t-36 -53t-45.5 -67.5q33 -4 67.5 -5t77.5 -2t96.5 -1h126.5q104 0 179 14t123.5 53t74 108.5t31.5 178.5l74 -10q-14 -70 -22.5 -120t-13.5 -95t-7 -93.5t-2 -111.5q-102 4 -246 8t-293 4h-148.5t-106.5 -2t-95 -4t-117 -6l-31 41z" />
<glyph unicode="[" horiz-adv-x="610" d="M563 -270v-78h-368v1821h368v-78h-201v-1665h201z" />
<glyph unicode="\" horiz-adv-x="942" d="M893 -160l-94 -43l-748 1721l94 43z" />
<glyph unicode="]" horiz-adv-x="610" d="M248 -270v1665h-201v78h369v-1821h-369v78h201z" />
<glyph unicode="^" d="M537 1444l446 -793l-61 -37l-412 732l-410 -732l-59 37l436 793h60z" />
<glyph unicode="_" d="M1024 -276h-1024v81h1024v-81z" />
<glyph unicode="`" horiz-adv-x="819" d="M324 1272q-49 41 -68.5 72.5t-19.5 60.5t25.5 44t45.5 15q37 0 72 -30.5t69.5 -78.5t68.5 -107.5t69 -117.5l-47 -45z" />
<glyph unicode="a" horiz-adv-x="1071" d="M487 979q197 0 284 -91t87 -247v-440q0 -49 11.5 -91t54.5 -42q20 0 38.5 10t30.5 22q14 14 27 35l43 -45q-41 -61 -95.5 -91t-103.5 -30q-66 0 -109.5 49.5t-43.5 149.5l-11 2q-16 -57 -53 -100q-33 -39 -91 -70t-157 -31q-96 0 -156.5 27t-94 65.5t-46 85t-12.5 84.5 q0 55 30 109.5t98.5 98.5t181 72t280.5 28v129q0 45 -7 90t-28.5 80.5t-59.5 57.5t-102 22q-82 0 -124 -27t-42 -74q0 -27 6.5 -48t6.5 -46q0 -55 -31 -77.5t-70 -22.5q-14 0 -31.5 3t-32.5 15t-26.5 35.5t-11.5 62.5q0 37 24.5 79t70.5 78t113.5 59.5t151.5 23.5zM680 477 q-82 0 -153.5 -8t-126 -34.5t-85 -75t-30.5 -128.5q0 -2 3 -32.5t18.5 -65.5t49 -64.5t97.5 -29.5q66 0 109.5 33.5t69 83t37 104.5t11.5 98v119z" />
<glyph unicode="b" horiz-adv-x="1126" d="M838 498q0 70 -13.5 140.5t-42 127.5t-71.5 92t-105 35q-55 0 -102 -35t-82 -96.5t-55.5 -144t-20.5 -177.5q0 -80 11.5 -151.5t38 -125.5t71.5 -87t113 -33q57 0 104 34t81 94t53.5 144.5t19.5 182.5zM176 1225q0 47 -3 75.5t-13 45t-30.5 21.5t-57.5 5q-16 0 -37 -1 t-43 -5v68q37 -2 70.5 -3t54.5 -1q63 0 114.5 3t124.5 25v-461q0 -51 -3 -110.5t-13 -118.5l10 -2l10 16q14 27 36 58.5t54.5 59.5t81 46.5t115.5 18.5q84 0 155.5 -33t123 -95.5t80 -154.5t28.5 -211q0 -113 -35.5 -204t-96 -155.5t-137.5 -99.5t-159 -35q-45 0 -85 13.5 t-74.5 30t-64.5 29.5t-54 13q-51 0 -76 -63h-76v1225z" />
<glyph unicode="c" horiz-adv-x="983" d="M567 918q-57 0 -107 -27t-87 -82t-58.5 -139t-21.5 -197q0 -225 72.5 -332.5t212.5 -107.5q76 0 152.5 49t123.5 170q4 -2 10 -4q4 -2 10.5 -5t12.5 -5q14 -8 33 -15q-53 -117 -141.5 -187.5t-231.5 -70.5q-213 0 -335 134t-122 374q0 106 35 199.5t96.5 161t146.5 106.5 t185 39q94 0 161.5 -23.5t111.5 -59.5t64.5 -79t20.5 -80q0 -39 -11 -64.5t-27.5 -40t-34 -20.5t-31.5 -6q-39 0 -70.5 25.5t-31.5 83.5q0 25 7 48t7 50q0 47 -33 76t-119 29z" />
<glyph unicode="d" horiz-adv-x="1159" d="M289 424q0 -78 13 -147.5t42 -122t72 -83t104 -30.5q55 0 102.5 32.5t82 91t55 139.5t20.5 175q0 80 -11 155t-37.5 134t-72 95t-112.5 36q-57 0 -104.5 -37t-81 -101.5t-53 -151.5t-19.5 -185zM786 207q-6 -29 -26.5 -70t-58 -77.5t-93 -63.5t-129.5 -27 q-78 0 -147.5 32t-122.5 93.5t-85 151.5t-32 205q0 117 33 212t91 161.5t136 103.5t168 37q86 0 155.5 -38t110.5 -116l9 2q-8 27 -13.5 63.5t-7.5 75.5t-2 73v54v146q0 47 -3 75.5t-14.5 45t-32 21.5t-56.5 5q-16 0 -37 -1t-43 -5v68q27 -2 60.5 -3t60.5 -1q63 0 117.5 3 t125.5 25v-1182q0 -68 6.5 -110.5t19.5 -66t35.5 -33t55.5 -9.5q16 0 36.5 1t43.5 5v-67q-16 4 -32.5 4h-33.5q-66 0 -133 -9t-127 -26q-10 43 -17 100.5t-7 139.5z" />
<glyph unicode="e" horiz-adv-x="1017" d="M932 219q-53 -121 -144.5 -188.5t-244.5 -67.5q-104 0 -188.5 38t-142.5 104.5t-90 159.5t-32 204q0 113 31 206t89 160.5t140 105.5t185 38q117 0 193.5 -43t122.5 -105.5t64.5 -133t18.5 -124.5q0 -35 -13.5 -55t-42 -30.5t-76.5 -13.5t-118 -3h-397 q0 -225 75.5 -333.5t210.5 -108.5q37 0 78 11t81 35.5t74 65.5t58 103zM500 539q84 0 132 6t71.5 23.5t29.5 46t6 73.5t-15 86t-42 73t-64.5 51.5t-82.5 19.5q-61 0 -107.5 -35t-77.5 -89.5t-46 -122t-15 -132.5h211z" />
<glyph unicode="f" horiz-adv-x="692" d="M410 244q0 -57 2 -93t11 -56.5t30.5 -28t62.5 -7.5h34.5t39.5 2v-67q-61 6 -126 10t-130 4q-59 0 -124 -5t-122 -13v67q12 -2 27.5 -2h25.5q27 0 45.5 5.5t27.5 24.5t13 57t4 102v628h-186v70h186v152q0 33 6.5 94t37 119.5t95 102.5t181.5 44q41 0 81 -9t71.5 -26.5 t51 -44t19.5 -61.5q0 -53 -26.5 -76t-63.5 -23q-41 0 -60.5 13.5t-28.5 34t-12 43t-11.5 43t-25 34t-52.5 13.5q-47 0 -72 -31t-25 -76q0 -59 6.5 -125.5t6.5 -146.5v-74h241l-2 -70h-239v-628z" />
<glyph unicode="g" horiz-adv-x="985" d="M481 -401q86 0 151.5 17t110.5 46t68 65.5t23 75.5q0 57 -33 88t-82 45.5t-108.5 16.5t-112.5 2h-75t-57.5 2t-46 5t-43.5 7q-35 -20 -55 -41.5t-29.5 -42t-11.5 -37t-2 -26.5q0 -33 14.5 -72t50.5 -72.5t94 -56t144 -22.5zM281 631q0 -129 52 -207t144 -78 q90 0 142.5 78t52.5 207q0 127 -52.5 205.5t-142.5 78.5q-92 0 -144 -78.5t-52 -205.5zM965 870q-43 0 -79 -1t-65 -1q-31 0 -54.5 2t-41.5 9q57 -41 90 -104.5t33 -143.5q0 -76 -26.5 -139.5t-76 -108.5t-118 -69.5t-150.5 -24.5q-78 0 -139 18q-59 -35 -76.5 -60.5 t-17.5 -45.5q0 -31 12 -49.5t54 -29.5t120 -14.5t211 -3.5q76 0 130 -21.5t90 -55t53.5 -75.5t17.5 -83q0 -78 -34 -141.5t-95.5 -107.5t-146.5 -67.5t-187 -23.5q-92 0 -171 15.5t-137.5 47t-92 82t-33.5 119.5q0 27 11 56.5t34.5 57t59.5 48t83 27.5q-35 16 -70.5 53 t-35.5 108q0 51 46 101.5t120 85.5q-86 43 -136.5 120.5t-50.5 180.5q0 76 28 138t79 107.5t120.5 71t153.5 25.5q33 0 72 -6t80 -13.5t83 -13.5t79 -6q51 0 72.5 1t33.5 2t24.5 3t43.5 2v-72z" />
<glyph unicode="h" horiz-adv-x="1189" d="M997 244q0 -57 2 -93t11.5 -56.5t31 -28t62.5 -7.5h34.5t39.5 2v-67q-61 6 -126 10t-130 4q-59 0 -124 -5t-122 -13v67q12 -2 27.5 -2h25.5q27 0 45.5 5.5t27.5 24.5t13 57t4 102v323q0 180 -41 258t-145 78q-39 0 -84 -20.5t-83 -69.5t-62.5 -130t-24.5 -200v-239 q0 -57 2 -93t11 -56.5t30.5 -28t62.5 -7.5h35t39 2v-67q-61 6 -125.5 10t-130.5 4q-59 0 -123.5 -5t-122.5 -13v67q12 -2 27.5 -2h26.5q27 0 45 5.5t27.5 24.5t13.5 57t4 102v981q0 47 -3 75.5t-14.5 45t-32 21.5t-57.5 5q-16 0 -36.5 -1t-43.5 -5v68q37 -2 62.5 -3t46.5 -1 q63 0 123.5 3t132.5 25v-545q0 -29 -1 -61.5t-7 -75.5l6 -2q8 20 28.5 53t55.5 66t89 56.5t132 23.5q100 0 161.5 -34t95.5 -87t46 -117.5t12 -126.5v-364z" />
<glyph unicode="i" horiz-adv-x="628" d="M414 244q0 -57 2 -93t11 -56.5t30.5 -28t62.5 -7.5h35t39 2v-67q-61 6 -126 10t-130 4q-59 0 -123.5 -5t-122.5 -13v67q12 -2 27.5 -2h25.5q27 0 45.5 5.5t27.5 24.5t13.5 57t4.5 102v489q0 47 -3.5 76t-14.5 45t-31.5 21.5t-57.5 5.5q-16 0 -36.5 -1t-43.5 -6v68 q25 -2 49.5 -3t48.5 -1q63 0 129 4t138 25v-723zM324 1206q-61 0 -93 39t-32 86t31.5 86t93.5 39q61 0 93 -39t32 -86t-32 -86t-93 -39z" />
<glyph unicode="j" horiz-adv-x="569" d="M393 -2q0 -96 -4 -185t-20 -135q-33 -84 -104.5 -115.5t-147.5 -31.5q-53 0 -99.5 12.5t-74.5 30.5l26 57q16 -14 46 -24t65 -10q31 0 56.5 7t44 34.5t28.5 82t10 150.5q0 70 -2 146.5t-2 154.5v561q0 47 -3 76t-14.5 45t-32 21.5t-56.5 5.5q-16 0 -37 -1t-43 -6v68 q23 -2 43 -3t43 -1q66 0 133 3t145 26v-969zM303 1206q-61 0 -93 39t-32 86t32 86t93 39t93 -39t32 -86t-32 -86t-93 -39z" />
<glyph unicode="k" horiz-adv-x="1079" d="M201 1225q0 47 -3 75.5t-14.5 45t-32 21.5t-57.5 5q-16 0 -36.5 -1t-43.5 -5v68q25 -2 50.5 -3t50.5 -1q63 0 127.5 5t136.5 23v-903q10 -2 21.5 -2h21.5q27 0 46 7t35.5 20.5t32 31t37.5 37.5q49 47 82 80t52.5 55.5t27.5 37t8 24.5q0 37 -65 37q-16 0 -35.5 -2 t-42.5 -4v67q47 -4 91 -6t91 -2q63 0 126 4t124 16v-67q-10 0 -18 1t-17 1q-27 0 -48 -4t-45.5 -18.5t-56.5 -42t-79 -74.5l-178 -183q41 0 60.5 -20.5t41.5 -56.5l209 -336q18 -31 33.5 -49.5t31 -28.5t35 -14.5t48.5 -4.5q10 0 21 1t24 1v-67q-33 4 -59.5 7t-61.5 3 q-86 0 -180 -22q-12 27 -31 61.5t-47.5 84.5t-71.5 117.5t-104 162.5q-29 41 -49.5 61t-67.5 20h-20.5t-22.5 -2v-243q0 -57 3 -93t15.5 -56.5t35 -28t63.5 -7.5h29.5t33.5 2v-67q-61 6 -125.5 10t-130.5 4q-59 0 -123.5 -5t-122.5 -13v67q12 -2 27.5 -2h26.5q27 0 45 5.5 t27.5 24.5t13.5 57t4 102v981z" />
<glyph unicode="l" horiz-adv-x="606" d="M213 1225q0 47 -3 75.5t-14.5 45t-32 21.5t-57.5 5q-16 0 -36.5 -1t-42.5 -5v68q25 -2 49 -3t49 -1q63 0 128.5 4t137.5 24v-1214q0 -57 2 -93t11.5 -56.5t31 -28t62.5 -7.5h34.5t38.5 2v-67q-61 6 -125.5 10t-130.5 4q-59 0 -123.5 -5t-121.5 -13v67q12 -2 27.5 -2h25.5 q27 0 45 5.5t27.5 24.5t13.5 57t4 102v981z" />
<glyph unicode="m" horiz-adv-x="1740" d="M1546 244q0 -57 2 -93t11.5 -56.5t31 -28t62.5 -7.5h34.5t38.5 2v-67q-61 6 -125.5 10t-130.5 4q-59 0 -121.5 -5t-119.5 -13v67q12 -2 26.5 -2h24.5q27 0 45 5.5t27.5 24.5t13.5 57t4 102v323q0 180 -32.5 258t-123.5 78q-39 0 -80.5 -21.5t-75.5 -70.5t-56.5 -131 t-22.5 -201v-235q0 -57 2 -93t11 -56.5t30.5 -28t62.5 -7.5h34t38 2v-67q-61 6 -124.5 10t-129.5 4q-59 0 -121.5 -5t-119.5 -13v67q12 -2 26 -2h25q27 0 45 5.5t27.5 24.5t13.5 57t4 102v323q0 180 -33 258t-123 78q-39 0 -81 -20.5t-75.5 -69.5t-56 -130t-22.5 -200v-239 q0 -57 2 -93t11 -56.5t30.5 -28t62.5 -7.5h33.5t38.5 2v-67q-61 6 -125 10t-129 4q-59 0 -122.5 -5t-121.5 -13v67q12 -2 27.5 -2h25.5q27 0 45.5 5.5t27.5 24.5t13.5 57t4.5 102v418q0 68 -5.5 110.5t-18.5 66t-35.5 33t-55.5 9.5q-16 0 -37 -1t-43 -6v68q23 -4 43 -4h43 q57 0 114.5 6t118.5 23q10 -43 16.5 -94.5t6.5 -133.5l10 -2q4 27 22.5 68t55.5 78t93.5 63.5t133.5 26.5q63 0 108.5 -17.5t77 -47t51 -69.5t30.5 -83q8 31 30.5 68.5t59.5 70.5t89 55.5t122 22.5q90 0 145 -34t85 -87t40 -117.5t10 -126.5v-364z" />
<glyph unicode="n" horiz-adv-x="1220" d="M1026 244q0 -57 2 -93t11.5 -56.5t31 -28t62.5 -7.5h34.5t38.5 2v-67q-61 6 -125.5 10t-130.5 4q-59 0 -123.5 -5t-121.5 -13v67q12 -2 27.5 -2h25.5q27 0 45 5.5t27.5 24.5t13.5 57t4 102v323q0 180 -40 258t-144 78q-39 0 -83 -20.5t-81 -69.5t-61.5 -130t-24.5 -200 v-239q0 -57 2 -93t11 -56.5t30.5 -28t62.5 -7.5h35t39 2v-67q-61 6 -126 10t-130 4q-59 0 -123.5 -5t-122.5 -13v67q12 -2 27.5 -2h25.5q27 0 45.5 5.5t27.5 24.5t13.5 57t4.5 102v418q0 68 -6.5 110.5t-19.5 66t-35.5 33t-55.5 9.5q-16 0 -37 -1t-43 -6v68q23 -4 43 -4h43 q57 0 114.5 6t118.5 23q10 -43 16.5 -94.5t6.5 -133.5l10 -2q4 27 26.5 68t62.5 78t98.5 63.5t136.5 26.5q100 0 160.5 -34t94.5 -87t45 -117.5t11 -126.5v-364z" />
<glyph unicode="o" horiz-adv-x="1099" d="M90 471q0 115 34 209t95.5 160.5t145.5 102.5t184 36t185 -36t146.5 -102.5t95.5 -160.5t34 -209t-34 -208t-95.5 -159.5t-146.5 -103.5t-185 -37t-184 37t-145.5 103.5t-95.5 159.5t-34 208zM291 471q0 -205 62.5 -325.5t195.5 -120.5t196.5 120.5t63.5 325.5t-63.5 326 t-196.5 121t-195.5 -121t-62.5 -326z" />
<glyph unicode="p" horiz-adv-x="1163" d="M874 518q0 78 -13 147.5t-41.5 122t-71.5 83t-105 30.5q-55 0 -102 -33.5t-82 -93t-55.5 -140.5t-20.5 -175q0 -80 11.5 -155t38 -134t71.5 -95t112 -36q57 0 104.5 38t81.5 102.5t53 152.5t19 186zM391 -211q0 -57 2 -93t11.5 -56.5t31 -27.5t62.5 -7h34.5t38.5 2v-68 q-61 6 -125.5 10.5t-130.5 4.5q-59 0 -123.5 -5.5t-121.5 -13.5v68q12 -2 27.5 -2h25.5q27 0 45 5t27.5 24.5t13.5 57.5t4 101v873q0 68 -6 110.5t-19.5 66t-36 33t-55.5 9.5q-16 0 -36.5 -1t-43.5 -6v68q23 -4 44.5 -4h43.5q57 0 116 6t122 23q10 -43 16.5 -97.5 t6.5 -136.5l12 -2q6 29 26.5 70t58.5 80t93 65.5t129 26.5q76 0 146.5 -32t124 -93.5t85 -151.5t31.5 -204q0 -117 -32.5 -212.5t-91 -164t-136.5 -105.5t-168 -37q-86 0 -146.5 30t-111.5 93l-6 -4q10 -37 12 -70.5t2 -66.5q0 -29 -1 -52.5t-1 -43.5v-70z" />
<glyph unicode="q" horiz-adv-x="1124" d="M287 440q0 -72 13 -141.5t42 -126.5t72 -92t104 -35q55 0 102.5 36t82 98.5t55 146.5t20.5 178q0 80 -11 152.5t-38 128t-72 88t-112 32.5q-57 0 -104.5 -35.5t-81 -98t-53 -148t-19.5 -183.5zM948 -213q0 -63 4 -100t13.5 -55.5t27 -22.5t45.5 -4h25.5t28.5 2v-68 q-57 8 -122 11.5t-124 3.5q-66 0 -130.5 -6.5t-125.5 -12.5v68q14 -2 38.5 -2h35.5q39 0 61.5 7t31.5 27.5t11 57.5t2 94v131q0 31 1 70t2 76.5t5 73.5t10 61h-10q-12 -29 -32.5 -68t-55.5 -73.5t-87 -59.5t-126 -25q-78 0 -147.5 33t-122.5 95.5t-85 154.5t-32 211 q0 113 36 206t96.5 158.5t137 102.5t158.5 37q51 0 89 -13.5t68 -30t56.5 -29.5t59.5 -13q63 0 81 67h76v-1165z" />
<glyph unicode="r" horiz-adv-x="909" d="M393 737q14 51 44 95.5t69 76t83 50t87 18.5q119 0 167 -42t48 -108q0 -47 -25.5 -80.5t-83.5 -33.5q-53 0 -70.5 27.5t-25.5 59t-19.5 59.5t-52.5 28q-31 0 -65.5 -25.5t-65 -79t-50 -133.5t-19.5 -186v-219q0 -57 2 -93t11 -56.5t30.5 -28t62.5 -7.5h42t46 2v-67 q-61 6 -133 10t-137 4q-59 0 -123.5 -5t-122.5 -13v67q12 -2 27.5 -2h25.5q27 0 45.5 5.5t27.5 24.5t13.5 57t4.5 102v418q0 68 -6.5 110.5t-19.5 66t-35.5 33t-55.5 9.5q-16 0 -37 -1t-43 -6v68q23 -4 43 -4h43q57 0 114.5 6t118.5 23q10 -43 17.5 -94.5t7.5 -133.5z" />
<glyph unicode="s" horiz-adv-x="911" d="M760 930v-70t2 -58.5t6 -55t12 -60.5l-65 -6q0 23 -8.5 62.5t-32 78.5t-69.5 68t-122 29q-47 0 -84 -14.5t-64.5 -37t-41.5 -53.5t-14 -63q0 -61 40.5 -97.5t101 -62t131.5 -48t131 -57t101 -90t41 -143.5q0 -80 -35.5 -134.5t-93 -89t-128 -50t-140.5 -15.5 q-84 0 -166 13.5t-147 41.5q0 51 -3 114t-14 136l66 6q2 -49 18.5 -94t47 -79.5t77.5 -55t109 -20.5q117 0 172 51t55 127q0 66 -40 103.5t-99.5 65t-130 50t-130 55.5t-99.5 85t-40 136q0 51 24 102.5t69 90.5t112.5 63.5t155.5 24.5q63 0 108 -5t79 -12.5t58.5 -16.5 t49.5 -15z" />
<glyph unicode="t" horiz-adv-x="688" d="M33 872v70q84 0 139 18.5t87 56.5t44 96t12 138h68v-309h248v-70h-248v-641q0 -35 3 -68.5t12.5 -59t26.5 -41t46 -15.5q45 0 80 34t78 112l53 -35q-98 -195 -266 -195q-102 0 -156.5 65.5t-54.5 196.5v647h-172z" />
<glyph unicode="u" horiz-adv-x="1210" d="M834 199q-4 -29 -25 -68t-59.5 -73.5t-97 -59.5t-136.5 -25q-100 0 -161.5 33t-96.5 85t-47 115.5t-12 125.5v401q0 47 -3 76t-14.5 45t-32 21.5t-57.5 5.5q-16 0 -36.5 -1t-43.5 -6v68q31 -2 62.5 -3t64.5 -1q57 0 116.5 6t121.5 23v-596q0 -180 43 -254t145 -74 q39 0 84 19.5t83 66.5t62.5 126t24.5 200v278q0 47 -3 76t-14 45t-31.5 21.5t-57.5 5.5q-16 0 -37 -1t-43 -6v68q31 -2 62.5 -3t64.5 -1q57 0 116.5 6t120.5 23v-691q0 -68 6.5 -110.5t19.5 -66t35.5 -33t55.5 -9.5q16 0 36.5 3t43.5 8v-68q-18 2 -36.5 3t-37.5 1 q-59 0 -120.5 -8t-131.5 -23q-10 43 -16 93.5t-6 132.5h-12z" />
<glyph unicode="v" horiz-adv-x="1038" d="M391 670q59 -150 109.5 -265.5t72.5 -189.5h11l145 352q8 20 21.5 53t27 71t23.5 74t10 62q0 35 -26.5 45.5t-61.5 10.5q-16 0 -31.5 -1t-27.5 -3v67q41 -4 79.5 -6t79.5 -2q49 0 98.5 3t102.5 11v-67q-10 2 -31 2q-31 0 -50 -12.5t-34.5 -41t-32 -74.5t-42.5 -112 l-281 -684h-53l-258 604q-43 100 -69 163t-45 95.5t-36.5 44t-46.5 11.5h-18.5t-20.5 -2v67q57 -4 123 -7t125 -3t114.5 3t118.5 13v-67q-10 0 -23 1t-30 1q-35 0 -64.5 -10.5t-29.5 -45.5q0 -23 14 -64.5t37 -96.5z" />
<glyph unicode="w" horiz-adv-x="1536" d="M1227 551q23 76 50.5 148.5t29.5 125.5q0 35 -27 45.5t-61 10.5q-16 0 -32 -1t-28 -3v67q41 -4 80 -6t80 -2q49 0 98 3t103 11v-67q-8 0 -14.5 1t-12.5 1q-33 0 -54.5 -15.5t-38 -46t-32.5 -78t-41 -114.5l-240 -668h-63q-41 115 -78 213q-16 43 -31.5 86t-30 83 t-25.5 73t-19 53q-10 29 -28.5 87t-29.5 124h-10l-258 -719h-61l-209 588q-37 106 -61.5 170.5t-45 99.5t-41 46.5t-49.5 11.5h-18.5t-20.5 -2v67q57 -4 123 -7t125 -3t114.5 3t118.5 13v-67q-10 0 -23 1t-30 1q-35 0 -64.5 -10.5t-29.5 -45.5q0 -23 11.5 -69.5t33.5 -108.5 l68 -182q14 -37 26.5 -80t22.5 -78q10 -41 22 -82h11l258 713h59q39 -113 76 -211q14 -41 29.5 -83t28.5 -76.5t23.5 -61.5t14.5 -39q14 -37 27.5 -80t23.5 -78q12 -43 23 -84h10z" />
<glyph unicode="x" horiz-adv-x="1058" d="M369 270q-51 -59 -89 -106t-38 -74q0 -18 17 -25.5t40 -7.5q16 0 37.5 2t44.5 4v-67q-43 4 -79 6t-79 2q-47 0 -108.5 -2t-108.5 -12v67q6 -2 16.5 -2h12.5q33 0 63.5 19.5t59 49.5t58.5 65.5t58 70.5l170 199l-161 223q-20 29 -41 63.5t-44.5 65.5t-49 51.5t-58.5 20.5 q-8 0 -19.5 -1t-21.5 -3v67q27 -4 59.5 -5t63.5 -3t57.5 -2h42.5q66 0 127.5 3t132.5 13v-69q-10 4 -20 3t-20 1q-53 0 -77 -5t-24 -32q0 -29 60 -111l41 -57q27 -37 47 -66.5t32 -66.5l99 117q49 59 88 107t39 77q0 20 -18.5 26.5t-47.5 6.5h-35.5t-42.5 -4v67q43 -4 79 -6 t79 -2q47 0 101.5 2t101.5 12v-73q-6 2 -22.5 3t-20.5 1q-29 0 -51.5 -15.5t-45 -43t-50 -64.5t-64.5 -82l-142 -170l183 -252q25 -35 48 -69.5t50 -62.5t53.5 -46.5t57.5 -18.5q10 0 19 1t20 3v-67q-27 2 -62 4t-68.5 4t-63.5 2h-44q-66 0 -127 -3t-133 -13v67h43 q47 0 72.5 4.5t25.5 28.5q-2 27 -57 109l-70 100q-18 25 -40.5 55.5t-26.5 65.5z" />
<glyph unicode="y" horiz-adv-x="1050" d="M655 178q-68 -172 -104.5 -296t-68 -201.5t-72.5 -114.5t-119 -37q-113 0 -113 102q0 33 25.5 64t85.5 31q23 0 40 -5.5t29 -5.5q25 0 41.5 7.5t28.5 28t25.5 57t33.5 98.5l31 94q-20 0 -30.5 7t-18.5 24.5t-17.5 46t-27.5 74.5l-170 411q-43 102 -68.5 165t-46 96.5 t-39 45t-47.5 11.5q-8 0 -19 -1t-22 -1v67q57 -4 123 -7t125 -3t114.5 3t119.5 13v-67q-10 0 -23.5 1t-30.5 1q-35 0 -64.5 -10.5t-29.5 -45.5q0 -23 13.5 -58.5t42 -104t72.5 -178t106 -281.5h10q61 152 105 259t71 181t40 117t13 68q0 29 -26.5 39t-61.5 10 q-16 0 -31.5 -1t-27.5 -3v67q41 -4 80 -6t79 -2q49 0 102.5 3t106.5 11v-67q-8 2 -19 2h-17q-33 0 -52.5 -13.5t-35 -43t-32 -75.5t-42.5 -112z" />
<glyph unicode="z" horiz-adv-x="944" d="M367 870q-104 0 -149.5 -62.5t-53.5 -186.5l-62 8q10 53 16.5 89t9.5 67.5t3 63.5v75v24q47 -6 140.5 -9t199.5 -3q98 0 191.5 3t158.5 9l21 -49l-480 -717q-29 -43 -46 -65.5t-40 -44.5h287q76 0 122 19.5t70.5 54t33 85t12.5 111.5l65 -8q-12 -57 -18 -98t-9 -78 t-3 -75v-89q-49 4 -151.5 8t-219.5 4q-109 0 -211 -3t-166 -9l-18 49l456 678q29 41 55.5 78t55.5 71h-270z" />
<glyph unicode="{" horiz-adv-x="604" d="M369 784q0 -88 -29 -141t-109 -74v-8q80 -20 109 -73.5t29 -141.5v-436q0 -31 6 -63.5t25.5 -61.5t54 -52.5t92.5 -31.5v-49q-37 0 -95.5 10t-113.5 40t-94 84t-39 144v447q0 41 -4 70.5t-19.5 49t-44 30t-78.5 16.5q-8 8 -8 22t8 23q49 4 78 15t44.5 33.5t19.5 57.5 t4 84v416q0 90 39 144.5t93 84t112.5 40t95.5 10.5v-50q-57 -10 -92 -32.5t-53.5 -51t-24.5 -61.5t-6 -64v-430v0z" />
<glyph unicode="|" horiz-adv-x="495" d="M303 -512h-110v2048h110v-2048z" />
<glyph unicode="}" horiz-adv-x="604" d="M236 1214q0 31 -6.5 64t-25 61.5t-53 51t-92.5 32.5v50q37 0 95.5 -10.5t113 -40t93 -84t38.5 -144.5v-416q0 -49 4.5 -84t19.5 -57.5t44 -33.5t78 -15q8 -8 8 -23q0 -14 -8 -22q-49 -6 -78 -16.5t-44 -30t-19.5 -49t-4.5 -70.5v-447q0 -90 -38.5 -144t-94 -84t-114 -40 t-95.5 -10v49q57 8 92 31.5t54.5 52.5t26 61.5t6.5 63.5v436q0 88 28.5 141.5t108.5 73.5v8q-80 20 -108.5 73.5t-28.5 141.5v430z" />
<glyph unicode="~" d="M932 573q-45 -90 -104.5 -126.5t-127.5 -36.5q-41 0 -91 15t-97 38q-51 25 -90 43t-92 18t-90 -32.5t-70 -79.5l-78 43q41 74 101.5 113.5t148.5 39.5q61 0 113.5 -23.5t95.5 -43.5q51 -23 90 -36t68 -13q51 0 80.5 31.5t64.5 86.5z" />
<glyph unicode="&#xa1;" horiz-adv-x="577" d="M145 887q0 59 42 101t102 42q59 0 101 -42t42 -101t-42 -101.5t-101 -42.5t-101.5 42.5t-42.5 101.5zM289 -469q-72 0 -105.5 56.5t-33.5 144.5q0 47 16 120.5t35.5 167t36 203t16.5 228.5q0 61 -6 122h82q-6 -61 -6 -122q0 -119 16 -228.5t35.5 -203t36 -167 t16.5 -120.5q0 -88 -33.5 -144.5t-105.5 -56.5z" />
<glyph unicode="&#xa2;" horiz-adv-x="1007" d="M590 977q86 -4 147.5 -28.5t101.5 -59.5t59.5 -75t19.5 -77q0 -39 -11.5 -64.5t-28 -40t-34 -20.5t-31.5 -6q-39 0 -70.5 25.5t-31.5 83.5q0 25 7 48t7 50q0 43 -29.5 71.5t-105.5 33.5v-887q37 0 74.5 12t73.5 37.5t67 67.5t55 102q4 -2 10 -4q4 -2 10.5 -5t12.5 -5 q14 -8 33 -15q-51 -111 -130 -178.5t-206 -77.5v-209h-70v209q-199 10 -311.5 144.5t-112.5 363.5q0 102 32 190.5t88 156t134 108.5t170 49v205h70v-205zM297 473q0 -199 56.5 -306.5t166.5 -129.5v874q-98 -23 -160.5 -131t-62.5 -307z" />
<glyph unicode="&#xa3;" horiz-adv-x="1232" d="M72 780h241q6 139 15.5 264t52.5 220.5t132 152t253 56.5q90 0 153.5 -25t104.5 -61.5t60.5 -78.5t19.5 -75q0 -16 -5 -36.5t-18.5 -38t-35 -29t-54.5 -11.5q-47 0 -76.5 36t-29.5 67q0 23 1 32t2 15t2 13t1 26q0 49 -37 74.5t-90 25.5q-102 0 -151.5 -51t-71 -138.5 t-24.5 -201t-9 -236.5h295v-71h-301q-6 -80 -20.5 -162t-41 -159t-68.5 -146.5t-106 -128.5l10 -11q72 47 140.5 65.5t134.5 18.5q55 0 108.5 -9t102.5 -20.5t93 -20.5t83 -9q53 0 95 26.5t71 100.5l59 -23q-31 -76 -65.5 -125t-74.5 -77.5t-84 -40t-93 -11.5 q-47 0 -99.5 7.5t-107.5 16.5t-114.5 16.5t-123.5 7.5q-66 0 -135 -11.5t-141 -40.5l-43 56q66 70 107.5 150.5t66.5 167.5t36 179t17 183h-237v71z" />
<glyph unicode="&#xa4;" horiz-adv-x="1150" d="M928 195l-137 157q-47 -33 -103.5 -52t-109.5 -19t-114 18t-108 51l-131 -155l-90 90l137 129q-47 66 -70.5 124t-23.5 140q0 80 24.5 138t69.5 120l-137 135l90 86l133 -153q47 35 104.5 52t117.5 17q49 0 108.5 -18.5t106.5 -50.5l133 153l90 -86l-137 -133 q45 -59 69.5 -119.5t24.5 -140.5q0 -82 -24.5 -140.5t-71.5 -121.5l139 -131zM578 991q-51 0 -96.5 -23.5t-79 -64.5t-53 -99.5t-19.5 -125.5q0 -70 19.5 -127t53 -99t79.5 -66t98 -24q51 0 95 24t77.5 66t53 99t19.5 127q0 68 -19.5 126t-53 99t-78.5 64.5t-96 23.5z" />
<glyph unicode="&#xa5;" horiz-adv-x="1386" d="M543 713l-254 487q-35 78 -71 126t-114 48q-10 0 -21 -1t-24 -3v70q63 -6 122 -9.5t136 -3.5q74 0 164 4.5l170 8.5v-70q-29 2 -51 3t-43 1q-53 0 -80.5 -11t-27.5 -42q0 -23 11 -50.5t34 -70.5q72 -143 115.5 -226t68 -130t38 -74t23.5 -57h15l178 336q51 96 80.5 158.5 t29.5 99.5q0 41 -24.5 54t-77.5 13q-16 0 -36.5 -1t-43.5 -3v70q70 -4 121 -7t111 -3q55 0 81.5 1t46 2t42 3t67.5 4v-70q-10 2 -17 2h-18q-41 0 -68.5 -15.5t-49 -41t-41 -61t-43.5 -74.5l-248 -467h295v-82h-340l-13 -25v-106h353v-86h-353v-170q0 -63 7.5 -100.5 t24 -55.5t41 -23.5t61.5 -5.5q18 0 36.5 1t42.5 3v-69q-78 6 -153.5 9t-155.5 3t-153.5 -2t-151.5 -10v69q25 -2 43 -3t37 -1q37 0 61.5 5.5t41 23.5t23.5 55t7 101v170h-352v86h352v106l-12 25h-340v82h297z" />
<glyph unicode="&#xa6;" horiz-adv-x="491" d="M301 -375h-111v750h111v-750zM301 649h-111v750h111v-750z" />
<glyph unicode="&#xa7;" horiz-adv-x="1058" d="M373 879q-43 25 -81 50t-65.5 58t-43 78t-15.5 111q0 57 25.5 110t72.5 94t113.5 65.5t146.5 24.5q66 0 133.5 -16t122 -48t88 -77t33.5 -102q0 -59 -26.5 -92t-77.5 -33t-79 30.5t-28 86.5l15 69q0 33 -16.5 56.5t-42 38t-57.5 20.5t-65 6q-29 0 -65.5 -11.5t-68.5 -34 t-54.5 -58t-22.5 -84.5q0 -66 31 -107t77 -68.5t100.5 -47t103.5 -40.5q61 -27 120.5 -56.5t106.5 -69t77 -95t30 -131.5q0 -100 -63.5 -188t-209.5 -156q37 -20 78 -39.5t73.5 -53.5t54 -87t21.5 -141q0 -57 -30.5 -110.5t-82.5 -95.5t-123 -66.5t-151 -24.5 q-66 0 -134 18.5t-124.5 52t-92.5 83.5t-36 116q0 59 27 92t78 33t78.5 -31t27.5 -86l-14 -90q0 -33 17.5 -57.5t45 -40t60.5 -22.5t65 -7q43 0 86 14.5t76 41t53.5 65.5t20.5 88q0 63 -34 105t-84 71t-107.5 49.5t-106.5 40.5q-61 27 -120.5 56.5t-106.5 71.5t-77 97.5 t-30 131.5q0 125 66 204t211 138zM618 293q35 16 68 38.5t59.5 52.5t42 67.5t15.5 83.5q0 70 -39 120t-96.5 84.5t-122 60t-113.5 50.5q-70 -33 -124 -93.5t-54 -152.5q0 -72 38 -120t94 -82.5t119.5 -59t112.5 -49.5z" />
<glyph unicode="&#xa8;" horiz-adv-x="819" d="M127 1249q0 47 34 82t81 35t81.5 -35t34.5 -82t-34.5 -80.5t-81.5 -33.5t-81 33.5t-34 80.5zM461 1249q0 47 33.5 82t80.5 35t82 -35t35 -82t-34.5 -80.5t-82.5 -33.5q-47 0 -80.5 33.5t-33.5 80.5z" />
<glyph unicode="&#xa9;" horiz-adv-x="1603" d="M1057 1126q-2 -12 -2 -25.5v-23.5q0 -35 3 -75.5t13 -75.5l-57 -4q-2 57 -18.5 94t-42 58.5t-56.5 29.5t-63 8q-109 0 -181.5 -89t-72.5 -271q0 -176 66.5 -266.5t182.5 -90.5q66 0 122.5 39t84.5 103l56 -21q-47 -92 -119 -132t-166 -40q-84 0 -152.5 26.5t-120 78 t-79 128t-27.5 175.5q0 96 30.5 171.5t85 127t128 78t162.5 26.5q76 0 130 -9.5t93 -19.5zM98 715q0 147 54.5 275t149.5 223.5t223 150.5t276 55q147 0 275 -55t223.5 -150.5t150.5 -223.5t55 -275t-55 -275.5t-150.5 -223.5t-223.5 -149.5t-275 -54.5t-275.5 54.5 t-223.5 149.5t-149.5 223.5t-54.5 275.5zM164 715q0 -131 50 -247t137 -203t203 -137t247 -50t247.5 50t203.5 137t137.5 203t50.5 247t-50.5 247.5t-137.5 203.5t-203.5 137.5t-247.5 50.5t-247 -50.5t-203 -137.5t-137 -203.5t-50 -247.5z" />
<glyph unicode="&#xaa;" horiz-adv-x="815" d="M371 1458q123 0 178 -54t55 -151v-262q0 -29 4 -52.5t23 -23.5q23 0 41 23q8 10 16 25l37 -37q-27 -39 -61.5 -57.5t-67.5 -18.5q-35 0 -64.5 20.5t-42.5 61.5q-6 -12 -17 -26.5t-30.5 -27t-49.5 -20.5t-73 -8q-61 0 -99 16.5t-60.5 41t-30.5 52t-8 50.5q0 33 17.5 64.5 t59.5 58t109.5 43t165.5 18.5v76q0 27 -4 53.5t-14.5 48t-32 33.5t-53.5 12q-86 0 -86 -57q0 -14 3 -27.5t3 -29.5q0 -35 -21.5 -50.5t-50.5 -15.5q-20 0 -47 13.5t-27 62.5q0 23 15.5 48t44 47t72 36t96.5 14zM473 1155q-43 0 -82 -6t-67.5 -21.5t-45 -44t-16.5 -73.5 q0 -2 1 -19.5t9.5 -39t26.5 -39t51 -17.5q39 0 62.5 18.5t37 47t18.5 62.5t5 62v70z" />
<glyph unicode="&#xab;" horiz-adv-x="888" d="M463 133l-45 -33l-242 275q-35 39 -59.5 65.5t-24.5 63.5t24.5 63.5t59.5 65.5l242 274l45 -33l-193 -370zM788 133l-45 -33l-241 275q-35 39 -59.5 65.5t-24.5 63.5t24.5 63.5t59.5 65.5l241 274l45 -33l-192 -370z" />
<glyph unicode="&#xac;" d="M874 616h-806v82h888v-479h-82v397z" />
<glyph unicode="&#xad;" horiz-adv-x="813" d="M152 594h510v-82h-510v82z" />
<glyph unicode="&#xae;" horiz-adv-x="1181" d="M539 844q0 -45 8 -55.5t28 -10.5h13.5t27.5 2v-39q-39 2 -66.5 4.5t-53.5 2.5q-29 0 -56.5 -2.5t-62.5 -4.5v39q16 -2 23.5 -2h11.5q23 0 32 10.5t9 55.5v340q0 33 -10.5 44t-34.5 11h-14.5t-18.5 -2v41q31 -4 57.5 -5t50.5 -1q27 0 53.5 2t65.5 2q57 0 94 -13.5 t56.5 -33t26.5 -42t7 -40.5q0 -45 -31.5 -80t-90.5 -51q47 -4 65.5 -27.5t28.5 -66.5l33 -101q8 -25 20 -34t39 -9h13t16 2v-39q-20 0 -38 2t-34 2t-35.5 -1t-50.5 -5l-45 166q-8 27 -15.5 45.5t-20.5 27.5t-36.5 13t-64.5 4v-151zM696 1147q0 47 -28.5 72.5t-73.5 25.5 q-39 0 -47 -11t-8 -50v-156q70 0 113.5 23.5t43.5 95.5zM109 981q0 100 36.5 189.5t102 154t152.5 102t190 37.5q100 0 189 -37.5t153.5 -102t102.5 -154t38 -189.5q0 -98 -38 -185t-102.5 -154t-153.5 -104.5t-189 -37.5q-102 0 -189.5 37.5t-153 104.5t-102 154t-36.5 185 zM168 981q0 -88 32.5 -165t90 -134t134.5 -90t165 -33t166 33t135 90t90 134t33 165t-33 166t-90 135t-135 90t-166 33t-165 -33t-134.5 -90t-90 -135t-32.5 -166z" />
<glyph unicode="&#xaf;" horiz-adv-x="1058" d="M246 1303h567v-93h-569z" />
<glyph unicode="&#xb0;" horiz-adv-x="796" d="M397 956q43 0 80 17.5t64.5 47.5t44 69.5t16.5 85.5q0 45 -16.5 84.5t-44 69.5t-64.5 47.5t-80 17.5t-79.5 -17.5t-64.5 -47.5t-43 -69.5t-15 -84.5t15 -85t43 -70t64.5 -47.5t79.5 -17.5zM399 881q-61 0 -114.5 23.5t-93 63.5t-63.5 93t-24 115q0 61 23 114t62.5 93 t93 63.5t114.5 23.5t114.5 -23.5t93.5 -63.5t63.5 -93t23.5 -114t-22.5 -114.5t-62.5 -93.5t-93.5 -63.5t-114.5 -23.5z" />
<glyph unicode="&#xb1;" d="M561 979v-363h357v-86h-357v-362h-94v362h-358v86h358v363h94zM109 0v86h809v-86h-809z" />
<glyph unicode="&#xb2;" horiz-adv-x="735" d="M481 1253q0 68 -37.5 118t-103.5 50q-41 0 -71.5 -22.5t-30.5 -52.5q0 -23 7 -41.5t7 -40.5q0 -31 -24.5 -57.5t-57.5 -26.5q-41 0 -66.5 23.5t-25.5 70.5q0 37 19.5 71.5t55 60.5t87 42t116.5 16q78 0 131.5 -20.5t87 -52t49 -70.5t15.5 -76q0 -76 -34 -127t-84 -89 t-109.5 -68.5t-110.5 -67.5t-87 -84t-38 -117q4 4 19.5 6t34 4.5t36 2.5h25.5h209q31 0 48 13t26.5 33.5t12.5 44t3 44.5l72 -9q-12 -59 -17.5 -105t-5.5 -91v-26.5t2 -28.5q-78 8 -124 9t-87 1h-149q-51 0 -102.5 -2t-108.5 -8q0 98 30.5 164.5t75.5 115.5t99.5 87t99.5 80 t75.5 94t30.5 132z" />
<glyph unicode="&#xb3;" horiz-adv-x="743" d="M258 1270q0 -37 -22.5 -60.5t-57.5 -23.5q-41 0 -66.5 25.5t-25.5 66.5q0 74 75 130t204 56q74 0 127 -19.5t86.5 -50t50 -68.5t16.5 -75q0 -55 -18.5 -94t-47 -63.5t-63.5 -39t-70 -20.5v-8q27 -2 65 -13.5t71.5 -36t57.5 -67.5t24 -106q0 -74 -32 -122t-79 -75.5 t-99.5 -39t-95.5 -11.5q-143 0 -217.5 54.5t-74.5 140.5q0 31 19 62.5t77 31.5q43 0 63.5 -26.5t20.5 -55.5q0 -20 -8.5 -40t-8.5 -46q0 -41 33 -59.5t84 -18.5q63 0 111.5 54.5t48.5 158.5q0 57 -19.5 94t-50 58.5t-67.5 29.5t-70 8q-10 0 -18.5 -1t-16.5 -1v56 q10 0 19.5 -1t19.5 -1q31 0 63.5 6t59.5 25.5t44 59.5t17 107q0 33 -9 64t-26.5 54.5t-43 37.5t-58.5 14q-41 0 -71.5 -20.5t-30.5 -48.5q0 -20 5 -38.5t5 -43.5z" />
<glyph unicode="&#xb4;" horiz-adv-x="819" d="M281 1085l-48 45q35 55 69 115t69 108t69.5 79.5t71.5 31.5q20 0 46 -15t26 -44q0 -25 -19.5 -60.5t-68.5 -76.5z" />
<glyph unicode="&#xb5;" horiz-adv-x="1228" d="M225 -434q8 80 12.5 156.5t5.5 164.5t2 194.5t1 246.5v59v307q0 55 -2 90t-14.5 54.5t-39 26.5t-75.5 7h-28.5t-29.5 -2v68q31 -2 67 -4t75 -2q53 0 107 5t106 17l-2 -485q0 -113 3 -188.5t16 -121.5t42 -65.5t80 -19.5q49 0 93 27.5t79 84t55.5 143.5t20.5 208v401h178 q-6 -129 -9 -239.5t-3 -231.5q0 -139 3 -220t15 -122t35.5 -52.5t66.5 -11.5h39t43 5v-66q-25 2 -49 2h-51q-55 0 -112.5 -4t-112.5 -14q-10 43 -15.5 88t-7.5 127l-10 2q-8 -31 -27.5 -66t-53.5 -64.5t-84 -49t-120 -21.5q-82 4 -133 33v-463z" />
<glyph unicode="&#xb6;" horiz-adv-x="1161" d="M485 514q-201 0 -311.5 89t-110.5 286q0 176 111 278.5t311 102.5h600v-76h-172v-1532h-92v1532h-243v-1532h-93v852v0z" />
<glyph unicode="&#xb7;" horiz-adv-x="569" d="M141 545q0 59 42 101t102 42q59 0 101 -42t42 -101t-42 -101.5t-101 -42.5t-101.5 42.5t-42.5 101.5z" />
<glyph unicode="&#xb8;" horiz-adv-x="614" d="M158 -330q23 -12 46 -20t52 -8q12 0 26.5 2t29 9t23.5 19.5t9 34.5q0 23 -15.5 36t-32.5 25.5t-32.5 29t-15.5 46.5q0 47 49 83t123 77l24 -22q-45 -31 -68.5 -49.5t-23.5 -53.5q0 -29 19.5 -43t42 -29.5t42 -40t19.5 -69.5q0 -61 -52 -91t-118 -30q-39 0 -88 7t-80 30z " />
<glyph unicode="&#xb9;" horiz-adv-x="595" d="M424 748q0 -74 13.5 -91.5t47.5 -17.5q10 0 23 2q10 0 23.5 1t27.5 3v-63q-47 4 -104.5 7t-104.5 3t-113.5 -3t-113.5 -7v63q23 -4 52.5 -5t39.5 -1q35 0 48 17.5t13 91.5v491q0 33 -9 63.5t-42 30.5q-10 0 -31.5 -8t-46 -20.5t-49 -25.5t-39.5 -24l-24 62q86 31 172 72 t158 88l67 -31q-4 -29 -6 -58.5t-2 -70.5v-569z" />
<glyph unicode="&#xba;" horiz-adv-x="794" d="M111 1153q0 139 80.5 222t205.5 83q127 0 207 -83t80 -222t-80 -223t-207 -84q-61 0 -114.5 22.5t-91 62.5t-59 96t-21.5 126zM254 1153q0 -123 36 -194.5t107 -71.5q72 0 108 71.5t36 194.5q0 121 -36 192.5t-108 71.5t-107.5 -71.5t-35.5 -192.5z" />
<glyph unicode="&#xbb;" horiz-adv-x="888" d="M618 504l-192 370l45 33l242 -274q35 -39 59.5 -65.5t24.5 -63.5t-24.5 -63.5t-59.5 -65.5l-242 -275l-45 33zM293 504l-193 370l45 33l242 -274q35 -39 59.5 -65.5t24.5 -63.5t-24.5 -63.5t-59.5 -65.5l-242 -275l-45 33z" />
<glyph unicode="&#xbc;" horiz-adv-x="1613" d="M1450 340q20 0 43 2t51 4v-92q-35 2 -54.5 2h-39.5h-55v-82q0 -37 3 -58.5t10 -31.5t19.5 -14t28.5 -4h28.5t31.5 2v-58q-53 2 -98.5 5t-96.5 3q-43 0 -100.5 -3t-110.5 -7v62q20 -4 45 -5.5t35 -1.5q35 0 48 18.5t13 92.5v82h-252h-47t-59 -2l-10 86q16 23 31.5 41 t31.5 39q78 98 138.5 172t104.5 131t75.5 98t52.5 74l82 -29q-4 -45 -4 -71.5v-55.5v-399h55zM1130 1548l84 -41l-794 -1716l-84 39zM449 748q0 -74 13 -91.5t48 -17.5q10 0 22 2q10 0 23.5 1t28.5 3v-63q-47 4 -104.5 7t-104.5 3t-113.5 -3t-114.5 -7v63q23 -4 52.5 -5 t40.5 -1q35 0 48 17.5t13 91.5v491q0 33 -9 63.5t-42 30.5q-10 0 -31.5 -8t-46.5 -20.5t-49.5 -25.5t-38.5 -24l-25 62q86 31 172 72t158 88l68 -31q-4 -29 -6 -58.5t-2 -70.5v-569zM1251 340v217v80t4 63l-8 2l-280 -362h284z" />
<glyph unicode="&#xbd;" horiz-adv-x="1656" d="M449 748q0 -74 13 -91.5t48 -17.5q10 0 22 2q10 0 23.5 1t28.5 3v-63q-47 4 -104.5 7t-104.5 3t-113.5 -3t-114.5 -7v63q23 -4 52.5 -5t40.5 -1q35 0 48 17.5t13 91.5v491q0 33 -9 63.5t-42 30.5q-10 0 -31.5 -8t-46.5 -20.5t-49.5 -25.5t-38.5 -24l-25 62q86 31 172 72 t158 88l68 -31q-4 -29 -6 -58.5t-2 -70.5v-569zM1130 1548l84 -41l-794 -1716l-84 39zM1397 670q0 68 -38 118t-104 50q-41 0 -71.5 -22.5t-30.5 -53.5q0 -23 7 -41.5t7 -40.5q0 -31 -24.5 -57.5t-57.5 -26.5q-41 0 -66.5 23.5t-25.5 70.5q0 37 19.5 72t55.5 60.5t87 42 t117 16.5q78 0 131 -20.5t87 -52.5t49 -71t15 -75q0 -76 -33.5 -127.5t-84 -89t-109.5 -68.5t-110.5 -68t-87 -84t-37.5 -116q4 4 19 6t33.5 4t36 2h25.5h209q31 0 48.5 13t26.5 33.5t12 44.5t3 44l72 -8q-12 -59 -17.5 -105.5t-5.5 -91.5v-26.5t2 -28.5q-78 8 -124 9t-86 1 h-150q-51 0 -102.5 -2t-108.5 -8q0 98 31 164.5t76 116t99 87t99 79.5t76 94.5t31 132.5z" />
<glyph unicode="&#xbe;" horiz-adv-x="1640" d="M1483 340q20 0 42.5 2t51.5 4v-92q-35 2 -54.5 2h-39.5h-56v-82q0 -37 3.5 -58.5t10.5 -31.5t19.5 -14t28.5 -4h28.5t30.5 2v-58q-53 2 -98 5t-96 3q-43 0 -100.5 -3t-110.5 -7v62q20 -4 44.5 -5.5t35.5 -1.5q35 0 48 18.5t13 92.5v82h-252h-47t-59 -2l-11 86 q16 23 32 41t32 39q78 98 138.5 172t104.5 131t75.5 98t52.5 74l82 -29q-4 -45 -4.5 -71.5t-0.5 -55.5v-399h56zM264 1270q0 -37 -22.5 -60.5t-57.5 -23.5q-41 0 -66.5 25.5t-25.5 66.5q0 74 75 130t204 56q74 0 127 -19.5t86.5 -50t50 -68.5t16.5 -75q0 -55 -18.5 -94 t-47 -63.5t-63.5 -39t-69 -20.5v-8q27 -2 64.5 -13.5t71.5 -36t57.5 -67.5t23.5 -106q0 -74 -32 -122t-79 -75.5t-99 -39t-95 -11.5q-143 0 -218 54.5t-75 140.5q0 31 19.5 62.5t76.5 31.5q43 0 63.5 -26.5t20.5 -55.5q0 -20 -8 -40t-8 -46q0 -41 32.5 -59.5t83.5 -18.5 q63 0 111.5 54.5t48.5 158.5q0 57 -19.5 94t-50 58.5t-67.5 29.5t-70 8q-10 0 -18 -1t-17 -1v56q10 0 19.5 -1t19.5 -1q31 0 64 6t59.5 25.5t44 59.5t17.5 107q0 33 -9.5 64t-27 54.5t-43 37.5t-58.5 14q-41 0 -71.5 -20.5t-30.5 -48.5q0 -20 5 -38.5t5 -43.5zM1184 1548 l84 -41l-795 -1716l-84 39zM1284 340v217v80t4 63l-8 2l-281 -362h285z" />
<glyph unicode="&#xbf;" horiz-adv-x="985" d="M578 588q2 -16 3 -30.5t1 -29.5q0 -88 -23.5 -152.5t-59.5 -114.5t-78 -91t-78 -84t-59.5 -92t-23.5 -115q0 -59 16.5 -110.5t50 -90t82 -60t113.5 -21.5q39 0 76 10t64.5 27.5t44 41t16.5 50.5q0 31 -3 44t-8 24t-8.5 26.5t-3.5 46.5q0 49 33 82t74 33q53 0 88 -30 t35 -102q0 -61 -31 -118.5t-87 -102.5t-136 -71.5t-180 -26.5q-111 0 -193 29.5t-136 79t-81 111t-27 124.5q0 94 33 155.5t81 106.5t104.5 81t104.5 80t81 103.5t33 151.5v16.5t-2 18.5h84zM678 887q0 -59 -42 -101.5t-101 -42.5t-101.5 42t-42.5 102q0 59 42 101t102 42 q59 0 101 -42t42 -101z" />
<glyph unicode="&#xc0;" horiz-adv-x="1437" d="M766 1470l479 -1241q10 -29 21.5 -58.5t29 -54t43 -41t66.5 -16.5q10 0 25.5 1t27.5 3v-69q-80 6 -146.5 9t-142.5 3q-147 0 -309 -12v69q23 -4 44.5 -4h41.5q59 0 90 16.5t31 61.5q0 39 -20 94l-113 291h-549l-102 -291q-18 -55 -19 -88q0 -47 30 -65.5t89 -18.5h35.5 t42.5 4v-69q-82 6 -141.5 9t-135.5 3q-39 0 -63.5 -1t-46 -2t-43 -4t-51.5 -5v69q10 -2 19 -2h19q41 0 70 12.5t49.5 36t34.5 55.5t31 73l467 1232h96zM410 588h499q-59 166 -124.5 328.5t-116.5 328.5l-11 2zM590 1683q-61 35 -89 65t-28 54q0 39 28.5 55.5t51.5 16.5 q35 0 75 -27.5t81 -69.5t84 -93.5t84 -100.5l-43 -57z" />
<glyph unicode="&#xc1;" horiz-adv-x="1437" d="M766 1470l479 -1241q10 -29 21.5 -58.5t29 -54t43 -41t66.5 -16.5q10 0 25.5 1t27.5 3v-69q-80 6 -146.5 9t-142.5 3q-147 0 -309 -12v69q23 -4 44.5 -4h41.5q59 0 90 16.5t31 61.5q0 39 -20 94l-113 291h-549l-102 -291q-18 -55 -19 -88q0 -47 30 -65.5t89 -18.5h35.5 t42.5 4v-69q-82 6 -141.5 9t-135.5 3q-39 0 -63.5 -1t-46 -2t-43 -4t-51.5 -5v69q10 -2 19 -2h19q41 0 70 12.5t49.5 36t34.5 55.5t31 73l467 1232h96zM410 588h499q-59 166 -124.5 328.5t-116.5 328.5l-11 2zM596 1526l-43 57q41 49 84 100.5t84 93.5t81 69.5t75 27.5 q23 0 51 -16.5t28 -55.5q0 -25 -27.5 -54.5t-88.5 -64.5z" />
<glyph unicode="&#xc2;" horiz-adv-x="1437" d="M766 1470l479 -1241q10 -29 21.5 -58.5t29 -54t43 -41t66.5 -16.5q10 0 25.5 1t27.5 3v-69q-80 6 -146.5 9t-142.5 3q-147 0 -309 -12v69q23 -4 44.5 -4h41.5q59 0 90 16.5t31 61.5q0 39 -20 94l-113 291h-549l-102 -291q-18 -55 -19 -88q0 -47 30 -65.5t89 -18.5h35.5 t42.5 4v-69q-82 6 -141.5 9t-135.5 3q-39 0 -63.5 -1t-46 -2t-43 -4t-51.5 -5v69q10 -2 19 -2h19q41 0 70 12.5t49.5 36t34.5 55.5t31 73l467 1232h96zM410 588h499q-59 166 -124.5 328.5t-116.5 328.5l-11 2zM715 1716l-215 -190l-49 47q66 92 106.5 150.5t68 92t47 46 t42.5 12.5q20 0 40.5 -12.5t48 -46t68.5 -92t107 -150.5l-49 -47z" />
<glyph unicode="&#xc3;" horiz-adv-x="1437" d="M766 1470l479 -1241q10 -29 21.5 -58.5t29 -54t43 -41t66.5 -16.5q10 0 25.5 1t27.5 3v-69q-80 6 -146.5 9t-142.5 3q-147 0 -309 -12v69q23 -4 44.5 -4h41.5q59 0 90 16.5t31 61.5q0 39 -20 94l-113 291h-549l-102 -291q-18 -55 -19 -88q0 -47 30 -65.5t89 -18.5h35.5 t42.5 4v-69q-82 6 -141.5 9t-135.5 3q-39 0 -63.5 -1t-46 -2t-43 -4t-51.5 -5v69q10 -2 19 -2h19q41 0 70 12.5t49.5 36t34.5 55.5t31 73l467 1232h96zM410 588h499q-59 166 -124.5 328.5t-116.5 328.5l-11 2zM1047 1761q-49 -96 -107.5 -136t-118.5 -40q-49 0 -84 18.5 t-62.5 40t-53 40t-60.5 18.5q-27 0 -57.5 -21.5t-61.5 -72.5l-57 32q49 96 107.5 136.5t117.5 40.5q49 0 83 -18.5t61.5 -40t54.5 -40t61 -18.5q27 0 57.5 21.5t61.5 72.5z" />
<glyph unicode="&#xc4;" horiz-adv-x="1437" d="M766 1470l479 -1241q10 -29 21.5 -58.5t29 -54t43 -41t66.5 -16.5q10 0 25.5 1t27.5 3v-69q-80 6 -146.5 9t-142.5 3q-147 0 -309 -12v69q23 -4 44.5 -4h41.5q59 0 90 16.5t31 61.5q0 39 -20 94l-113 291h-549l-102 -291q-18 -55 -19 -88q0 -47 30 -65.5t89 -18.5h35.5 t42.5 4v-69q-82 6 -141.5 9t-135.5 3q-39 0 -63.5 -1t-46 -2t-43 -4t-51.5 -5v69q10 -2 19 -2h19q41 0 70 12.5t49.5 36t34.5 55.5t31 73l467 1232h96zM410 588h499q-59 166 -124.5 328.5t-116.5 328.5l-11 2zM412 1700q0 47 33.5 82t80.5 35t82 -35t35 -82t-35 -81t-82 -34 t-80.5 34t-33.5 81zM786 1700q0 47 34 82t81 35t82 -35t35 -82t-35 -81t-82 -34t-81 34t-34 81z" />
<glyph unicode="&#xc5;" horiz-adv-x="1437" d="M766 1470l479 -1241q10 -29 21.5 -58.5t29 -54t43 -41t66.5 -16.5q10 0 25.5 1t27.5 3v-69q-80 6 -146.5 9t-142.5 3q-147 0 -309 -12v69q23 -4 44.5 -4h41.5q59 0 90 16.5t31 61.5q0 39 -20 94l-113 291h-549l-102 -291q-18 -55 -19 -88q0 -47 30 -65.5t89 -18.5h35.5 t42.5 4v-69q-82 6 -141.5 9t-135.5 3q-39 0 -63.5 -1t-46 -2t-43 -4t-51.5 -5v69q10 -2 19 -2h19q41 0 70 12.5t49.5 36t34.5 55.5t31 73l467 1232h96zM410 588h499q-59 166 -124.5 328.5t-116.5 328.5l-11 2zM715 1870q80 0 127 -51.5t47 -118.5q0 -70 -47 -121t-127 -51 t-127 51t-47 121q0 68 47 119t127 51zM612 1700q0 -53 30 -84t73 -31q45 0 73.5 31t28.5 84q0 51 -28.5 81.5t-73.5 30.5q-43 0 -73 -30.5t-30 -81.5z" />
<glyph unicode="&#xc6;" horiz-adv-x="2086" d="M940 59q37 0 62.5 7.5t40 27t20.5 55t6 91.5v432h-539l-213 -387q-16 -29 -33.5 -69t-17.5 -75t24.5 -58.5t92.5 -23.5h35.5t42.5 4v-69q-82 6 -141.5 9t-135.5 3q-39 0 -63.5 -1t-46 -2t-43 -4t-51.5 -5v69q10 -2 22 -2h23q33 0 59.5 16.5t50 44.5t46 64.5t44.5 77.5 l496 901q25 43 39 81t14 67t-18.5 45t-59.5 16q-16 0 -36.5 -1t-43.5 -3v70q135 -8 262.5 -10.5t243.5 -2.5q74 0 182.5 1.5t223 2.5t221 3t176.5 6q0 -55 2 -99.5t7 -87.5t11.5 -90t16.5 -108l-70 -11q-6 113 -31.5 177.5t-74.5 97.5t-122 40t-175 7q-86 0 -133 -6 t-68.5 -24.5t-26 -53.5t-4.5 -90v-455q35 -4 67 -4h58q98 0 150.5 15.5t77 44t28.5 69.5t7 94l69 -4q-8 -70 -12 -130t-4 -117q0 -63 4 -124t12 -122l-69 -4q-2 51 -7.5 92t-30 69.5t-76.5 43t-149 14.5h-59.5t-65.5 -4v-430q0 -55 4.5 -89t24 -52.5t62.5 -24.5t122 -6 q125 0 208 9t135.5 45t78 106.5t35.5 193.5l72 -10q-12 -61 -20.5 -112.5t-12.5 -100.5t-7 -98.5t-5 -106.5q-326 12 -629 12q-121 0 -236.5 -2t-232.5 -10v69q25 -4 45.5 -4h38.5zM567 735h502v621q-14 2 -32.5 4t-32.5 2q-25 0 -44.5 -5t-40 -21.5t-42 -47.5t-50.5 -80z " />
<glyph unicode="&#xc7;" horiz-adv-x="1347" d="M592 -330q23 -12 46.5 -20t51.5 -8q12 0 26.5 2t29 9t23.5 19.5t9 34.5q0 23 -15 36t-32.5 25.5t-33 29t-15.5 46.5q0 35 26.5 62.5t71.5 56.5h-2q-152 0 -276.5 50t-213.5 146.5t-138.5 238t-49.5 325.5q0 180 54.5 319.5t150.5 234.5t229.5 144t290.5 49 q139 0 240.5 -18t167.5 -35q0 -55 1 -102t4 -90t9 -86t15 -92l-74 -7q-4 106 -37 177t-83 113t-112.5 58.5t-126.5 16.5q-109 0 -204 -42t-164.5 -126t-109.5 -213t-40 -301q0 -330 135.5 -510t372.5 -180q68 0 130.5 21.5t116.5 59.5t96 88t69 109l69 -30 q-74 -147 -187.5 -222t-256.5 -92q-35 -23 -52.5 -41t-17.5 -47t19.5 -43t42 -29.5t42 -40t19.5 -69.5q0 -61 -52 -91t-118 -30q-39 0 -88 7t-80 30z" />
<glyph unicode="&#xc8;" horiz-adv-x="1304" d="M287 1192q0 57 -5.5 92t-19.5 55.5t-40.5 27.5t-67.5 7q-16 0 -37 -1t-43 -3v70q135 -8 259 -10.5t240 -2.5q150 0 289 3.5t281 9.5q0 -55 2 -99.5t7 -87.5t11 -90t17 -108l-70 -11q-6 113 -31.5 177.5t-75 97.5t-122 40t-174.5 7q-86 0 -133.5 -6t-69 -24.5t-25.5 -53.5 t-4 -90v-414q35 -4 66.5 -4h58.5q98 0 150.5 15.5t77 44t28.5 69.5t6 94l70 -4q-8 -70 -12.5 -130t-4.5 -118q0 -63 4.5 -123.5t12.5 -121.5l-70 -4q-2 51 -7 92t-29.5 69.5t-77 43t-148.5 14.5h-59.5t-65.5 -4v-471q0 -55 4 -89t23.5 -52.5t62.5 -24.5t123 -6q125 0 208 9 t135 45t78 106.5t36 193.5l72 -10q-12 -61 -20.5 -112.5t-12.5 -100.5t-7 -98.5t-6 -106.5q-326 12 -628 12q-121 0 -237 -2t-232 -10v69q25 -4 45 -4h39q37 0 62.5 7.5t39.5 27t20.5 55t6.5 91.5v952zM520 1683q-61 35 -89 65t-28 54q0 39 29 55.5t51 16.5q35 0 75 -27.5 t81 -69.5t84 -93.5t84 -100.5l-43 -57z" />
<glyph unicode="&#xc9;" horiz-adv-x="1304" d="M287 1192q0 57 -5.5 92t-19.5 55.5t-40.5 27.5t-67.5 7q-16 0 -37 -1t-43 -3v70q135 -8 259 -10.5t240 -2.5q150 0 289 3.5t281 9.5q0 -55 2 -99.5t7 -87.5t11 -90t17 -108l-70 -11q-6 113 -31.5 177.5t-75 97.5t-122 40t-174.5 7q-86 0 -133.5 -6t-69 -24.5t-25.5 -53.5 t-4 -90v-414q35 -4 66.5 -4h58.5q98 0 150.5 15.5t77 44t28.5 69.5t6 94l70 -4q-8 -70 -12.5 -130t-4.5 -118q0 -63 4.5 -123.5t12.5 -121.5l-70 -4q-2 51 -7 92t-29.5 69.5t-77 43t-148.5 14.5h-59.5t-65.5 -4v-471q0 -55 4 -89t23.5 -52.5t62.5 -24.5t123 -6q125 0 208 9 t135 45t78 106.5t36 193.5l72 -10q-12 -61 -20.5 -112.5t-12.5 -100.5t-7 -98.5t-6 -106.5q-326 12 -628 12q-121 0 -237 -2t-232 -10v69q25 -4 45 -4h39q37 0 62.5 7.5t39.5 27t20.5 55t6.5 91.5v952zM547 1526l-43 57q41 49 84 100.5t84 93.5t81 69.5t74 27.5 q23 0 51.5 -16.5t28.5 -55.5q0 -25 -27.5 -54.5t-88.5 -64.5z" />
<glyph unicode="&#xca;" horiz-adv-x="1304" d="M287 1192q0 57 -5.5 92t-19.5 55.5t-40.5 27.5t-67.5 7q-16 0 -37 -1t-43 -3v70q135 -8 259 -10.5t240 -2.5q150 0 289 3.5t281 9.5q0 -55 2 -99.5t7 -87.5t11 -90t17 -108l-70 -11q-6 113 -31.5 177.5t-75 97.5t-122 40t-174.5 7q-86 0 -133.5 -6t-69 -24.5t-25.5 -53.5 t-4 -90v-414q35 -4 66.5 -4h58.5q98 0 150.5 15.5t77 44t28.5 69.5t6 94l70 -4q-8 -70 -12.5 -130t-4.5 -118q0 -63 4.5 -123.5t12.5 -121.5l-70 -4q-2 51 -7 92t-29.5 69.5t-77 43t-148.5 14.5h-59.5t-65.5 -4v-471q0 -55 4 -89t23.5 -52.5t62.5 -24.5t123 -6q125 0 208 9 t135 45t78 106.5t36 193.5l72 -10q-12 -61 -20.5 -112.5t-12.5 -100.5t-7 -98.5t-6 -106.5q-326 12 -628 12q-121 0 -237 -2t-232 -10v69q25 -4 45 -4h39q37 0 62.5 7.5t39.5 27t20.5 55t6.5 91.5v952zM666 1716l-215 -190l-50 47q66 92 107 150.5t68.5 92t47 46t42.5 12.5 q20 0 40.5 -12.5t48 -46t68.5 -92t107 -150.5l-49 -47z" />
<glyph unicode="&#xcb;" horiz-adv-x="1304" d="M287 1192q0 57 -5.5 92t-19.5 55.5t-40.5 27.5t-67.5 7q-16 0 -37 -1t-43 -3v70q135 -8 259 -10.5t240 -2.5q150 0 289 3.5t281 9.5q0 -55 2 -99.5t7 -87.5t11 -90t17 -108l-70 -11q-6 113 -31.5 177.5t-75 97.5t-122 40t-174.5 7q-86 0 -133.5 -6t-69 -24.5t-25.5 -53.5 t-4 -90v-414q35 -4 66.5 -4h58.5q98 0 150.5 15.5t77 44t28.5 69.5t6 94l70 -4q-8 -70 -12.5 -130t-4.5 -118q0 -63 4.5 -123.5t12.5 -121.5l-70 -4q-2 51 -7 92t-29.5 69.5t-77 43t-148.5 14.5h-59.5t-65.5 -4v-471q0 -55 4 -89t23.5 -52.5t62.5 -24.5t123 -6q125 0 208 9 t135 45t78 106.5t36 193.5l72 -10q-12 -61 -20.5 -112.5t-12.5 -100.5t-7 -98.5t-6 -106.5q-326 12 -628 12q-121 0 -237 -2t-232 -10v69q25 -4 45 -4h39q37 0 62.5 7.5t39.5 27t20.5 55t6.5 91.5v952zM737 1700q0 47 34 82t81 35t82 -35t35 -82t-35 -81t-82 -34t-81 34 t-34 81zM362 1700q0 47 34 82t81 35t82 -35t35 -82t-35 -81t-82 -34t-81 34t-34 81z" />
<glyph unicode="&#xcc;" horiz-adv-x="761" d="M475 244q0 -63 7 -100.5t23.5 -55.5t41 -23.5t61.5 -5.5q18 0 37 1t43 3v-69q-78 6 -153.5 9t-155.5 3t-153.5 -3t-151.5 -9v69q25 -2 43 -3t37 -1q37 0 61.5 5.5t40.5 23.5t23.5 55t7.5 101v946q0 63 -7.5 100t-23.5 55.5t-41 23.5t-61 5q-18 0 -37 -1t-43 -3v70 q78 -6 151.5 -9.5t153.5 -3.5t155.5 3.5t153.5 9.5v-70q-25 2 -43 3t-37 1q-37 0 -61.5 -5t-41 -23.5t-23.5 -55.5t-7 -100v-946zM256 1683q-61 35 -89 65t-28 54q0 39 29 55.5t51 16.5q35 0 75 -27.5t81 -69.5t84 -93.5t84 -100.5l-43 -57z" />
<glyph unicode="&#xcd;" horiz-adv-x="761" d="M475 244q0 -63 7 -100.5t23.5 -55.5t41 -23.5t61.5 -5.5q18 0 37 1t43 3v-69q-78 6 -153.5 9t-155.5 3t-153.5 -3t-151.5 -9v69q25 -2 43 -3t37 -1q37 0 61.5 5.5t40.5 23.5t23.5 55t7.5 101v946q0 63 -7.5 100t-23.5 55.5t-41 23.5t-61 5q-18 0 -37 -1t-43 -3v70 q78 -6 151.5 -9.5t153.5 -3.5t155.5 3.5t153.5 9.5v-70q-25 2 -43 3t-37 1q-37 0 -61.5 -5t-41 -23.5t-23.5 -55.5t-7 -100v-946zM262 1526l-43 57q41 49 84 100.5t84 93.5t81 69.5t75 27.5q23 0 51.5 -16.5t28.5 -55.5q0 -25 -28 -54.5t-89 -64.5z" />
<glyph unicode="&#xce;" horiz-adv-x="761" d="M475 244q0 -63 7 -100.5t23.5 -55.5t41 -23.5t61.5 -5.5q18 0 37 1t43 3v-69q-78 6 -153.5 9t-155.5 3t-153.5 -3t-151.5 -9v69q25 -2 43 -3t37 -1q37 0 61.5 5.5t40.5 23.5t23.5 55t7.5 101v946q0 63 -7.5 100t-23.5 55.5t-41 23.5t-61 5q-18 0 -37 -1t-43 -3v70 q78 -6 151.5 -9.5t153.5 -3.5t155.5 3.5t153.5 9.5v-70q-25 2 -43 3t-37 1q-37 0 -61.5 -5t-41 -23.5t-23.5 -55.5t-7 -100v-946zM381 1716l-215 -190l-49 47q66 92 106.5 150.5t68 92t47 46t42.5 12.5q20 0 40.5 -12.5t48.5 -46t69 -92t106 -150.5l-49 -47z" />
<glyph unicode="&#xcf;" horiz-adv-x="761" d="M475 244q0 -63 7 -100.5t23.5 -55.5t41 -23.5t61.5 -5.5q18 0 37 1t43 3v-69q-78 6 -153.5 9t-155.5 3t-153.5 -3t-151.5 -9v69q25 -2 43 -3t37 -1q37 0 61.5 5.5t40.5 23.5t23.5 55t7.5 101v946q0 63 -7.5 100t-23.5 55.5t-41 23.5t-61 5q-18 0 -37 -1t-43 -3v70 q78 -6 151.5 -9.5t153.5 -3.5t155.5 3.5t153.5 9.5v-70q-25 2 -43 3t-37 1q-37 0 -61.5 -5t-41 -23.5t-23.5 -55.5t-7 -100v-946zM78 1700q0 47 33.5 82t81.5 35q47 0 81.5 -35t34.5 -82t-34.5 -81t-81.5 -34t-81 34t-34 81zM453 1700q0 47 33.5 82t80.5 35t82 -35t35 -82 t-35 -81t-82 -34t-80.5 34t-33.5 81z" />
<glyph unicode="&#xd0;" horiz-adv-x="1536" d="M131 803h160v407q0 96 -31 131t-102 35q-37 0 -86 -6v70q82 -4 149.5 -8.5t143.5 -4.5q66 0 146.5 6.5t197.5 6.5q160 0 293 -39t229 -125t149.5 -223.5t53.5 -333.5q0 -186 -55.5 -322.5t-152 -225.5t-228.5 -133t-285 -44q-61 0 -108.5 2t-87.5 4t-79 4t-88 2 q-141 0 -278 -12v69q27 -4 48 -6t40 -2q72 0 101.5 36t29.5 132v496h-160v84zM1223 719q0 125 -23.5 242.5t-82 209t-158 146.5t-252.5 55q-80 0 -126 -6t-69 -24.5t-28 -50t-5 -81.5v-407h162v-84h-162v-496q0 -51 7.5 -82.5t31 -49t68.5 -24t121 -6.5q143 0 241.5 54.5 t159.5 144.5t88 210t27 249z" />
<glyph unicode="&#xd1;" horiz-adv-x="1624" d="M1274 272v938q0 53 -7 85t-24.5 49.5t-45.5 23.5t-67 6q-14 0 -31.5 -2t-33.5 -2v70q39 -4 68.5 -6t55 -3t54.5 -2.5t66 -1.5q39 0 66.5 1.5t54 2.5t56.5 3t73 6v-70q-23 2 -42.5 3t-35.5 1q-76 0 -104.5 -31.5t-28.5 -132.5v-1247h-84l-760 1114q-29 41 -65 98.5 t-77 131.5h-12v-1086q0 -98 29 -130t102 -32q16 0 36 1t42 3v-69q-41 2 -69.5 5t-54 4t-52.5 2t-66 1q-37 0 -65.5 -1t-56 -3t-58.5 -4t-71 -4v69q23 -2 43 -3t36 -1q74 0 102.5 32t28.5 130v989q0 98 -27.5 132t-98.5 34q-18 0 -39 -2t-45 -4v70q41 -4 73.5 -6t60 -3 t54.5 -2.5t57 -1.5q45 0 89 2.5t96 10.5q20 -35 33.5 -58.5t25.5 -42t23.5 -36t29.5 -43.5l541 -791q20 -31 36.5 -56.5t29 -48t24.5 -44t25 -48.5h10zM1153 1761q-49 -96 -107.5 -136t-117.5 -40q-49 0 -84 18.5t-62.5 40t-53.5 40t-60 18.5q-27 0 -57.5 -21.5t-61.5 -72.5 l-57 32q49 96 107 136.5t118 40.5q49 0 83 -18.5t61.5 -40t54 -40t61.5 -18.5q27 0 57.5 21.5t61.5 72.5z" />
<glyph unicode="&#xd2;" horiz-adv-x="1515" d="M100 717q0 168 48.5 306t134.5 238.5t206.5 156t268.5 55.5q147 0 268 -55.5t207 -156t134 -238.5t48 -306t-48 -307.5t-134 -238.5t-207 -153.5t-268 -54.5t-268 54.5t-207 153.5t-134.5 238.5t-48.5 307.5zM311 717q0 -158 30 -285t87 -217t140 -138t190 -48 q106 0 189 48t140.5 138t87 217t29.5 285t-29.5 284.5t-87 217t-140.5 139.5t-189 49t-189.5 -49t-140.5 -139.5t-87 -217t-30 -284.5zM633 1683q-61 35 -89 65t-28 54q0 39 28.5 55.5t51.5 16.5q35 0 75 -27.5t81 -69.5t84 -93.5t84 -100.5l-43 -57z" />
<glyph unicode="&#xd3;" horiz-adv-x="1515" d="M100 717q0 168 48.5 306t134.5 238.5t206.5 156t268.5 55.5q147 0 268 -55.5t207 -156t134 -238.5t48 -306t-48 -307.5t-134 -238.5t-207 -153.5t-268 -54.5t-268 54.5t-207 153.5t-134.5 238.5t-48.5 307.5zM311 717q0 -158 30 -285t87 -217t140 -138t190 -48 q106 0 189 48t140.5 138t87 217t29.5 285t-29.5 284.5t-87 217t-140.5 139.5t-189 49t-189.5 -49t-140.5 -139.5t-87 -217t-30 -284.5zM639 1528l-43 57q41 49 84 100.5t84 93.5t81 69.5t75 27.5q23 0 51 -16.5t28 -55.5q0 -25 -27.5 -54.5t-88.5 -63.5z" />
<glyph unicode="&#xd4;" horiz-adv-x="1515" d="M100 717q0 168 48.5 306t134.5 238.5t206.5 156t268.5 55.5q147 0 268 -55.5t207 -156t134 -238.5t48 -306t-48 -307.5t-134 -238.5t-207 -153.5t-268 -54.5t-268 54.5t-207 153.5t-134.5 238.5t-48.5 307.5zM311 717q0 -158 30 -285t87 -217t140 -138t190 -48 q106 0 189 48t140.5 138t87 217t29.5 285t-29.5 284.5t-87 217t-140.5 139.5t-189 49t-189.5 -49t-140.5 -139.5t-87 -217t-30 -284.5zM758 1716l-215 -190l-49 47q66 92 106.5 150.5t68 92t47 46t42.5 12.5q20 0 40.5 -12.5t48 -46t68.5 -92t107 -150.5l-49 -47z" />
<glyph unicode="&#xd5;" horiz-adv-x="1515" d="M100 717q0 168 48.5 306t134.5 238.5t206.5 156t268.5 55.5q147 0 268 -55.5t207 -156t134 -238.5t48 -306t-48 -307.5t-134 -238.5t-207 -153.5t-268 -54.5t-268 54.5t-207 153.5t-134.5 238.5t-48.5 307.5zM311 717q0 -158 30 -285t87 -217t140 -138t190 -48 q106 0 189 48t140.5 138t87 217t29.5 285t-29.5 284.5t-87 217t-140.5 139.5t-189 49t-189.5 -49t-140.5 -139.5t-87 -217t-30 -284.5zM1090 1761q-49 -96 -107.5 -136t-118.5 -40q-49 0 -84 18.5t-62.5 40t-53 40t-60.5 18.5q-27 0 -57.5 -21.5t-61.5 -72.5l-57 32 q49 96 107.5 136.5t117.5 40.5q49 0 83 -18.5t61.5 -40t54.5 -40t61 -18.5q27 0 57.5 21.5t61.5 72.5z" />
<glyph unicode="&#xd6;" horiz-adv-x="1515" d="M100 717q0 168 48.5 306t134.5 238.5t206.5 156t268.5 55.5q147 0 268 -55.5t207 -156t134 -238.5t48 -306t-48 -307.5t-134 -238.5t-207 -153.5t-268 -54.5t-268 54.5t-207 153.5t-134.5 238.5t-48.5 307.5zM311 717q0 -158 30 -285t87 -217t140 -138t190 -48 q106 0 189 48t140.5 138t87 217t29.5 285t-29.5 284.5t-87 217t-140.5 139.5t-189 49t-189.5 -49t-140.5 -139.5t-87 -217t-30 -284.5zM455 1700q0 47 33.5 82t80.5 35t82 -35t35 -82t-35 -81t-82 -34t-80.5 34t-33.5 81zM829 1700q0 47 34 82t81 35t82 -35t35 -82t-35 -81 t-82 -34t-81 34t-34 81z" />
<glyph unicode="&#xd7;" d="M217 874l299 -301l297 297l59 -61l-294 -295l299 -301l-66 -66l-301 299l-297 -296l-59 61l297 297l-301 299z" />
<glyph unicode="&#xd8;" horiz-adv-x="1515" d="M100 717q0 168 48.5 306t134.5 238.5t206.5 156t268.5 55.5q150 0 274 -60l80 174l78 -35l-84 -180q145 -96 227 -264t82 -391q0 -168 -48 -307.5t-134 -238.5t-207 -153.5t-268 -54.5q-152 0 -271 55l-81 -178l-78 35l84 184q-145 94 -228.5 263.5t-83.5 394.5zM311 717 q0 -180 38 -319.5t112 -229.5l532 1159q-102 80 -235 80q-106 0 -189.5 -49t-140.5 -139.5t-87 -217t-30 -284.5zM1204 717q0 178 -38 316t-109 229l-531 -1158q98 -76 232 -75q106 0 189 48t140.5 138t87 217t29.5 285z" />
<glyph unicode="&#xd9;" horiz-adv-x="1570" d="M446 596q0 -92 4.5 -158.5t13.5 -117t25.5 -88t42.5 -70.5q59 -72 135 -101.5t152 -29.5q123 0 201 45t131 121q59 84 72.5 223t13.5 317v473q0 100 -30.5 132t-106.5 32q-18 0 -38 -1t-42 -3v70q41 -2 72.5 -4t61.5 -4t60.5 -3.5t67.5 -1.5t63.5 1.5t52 3.5t54.5 4t70 4 v-70q-25 2 -45.5 3t-38.5 1q-72 0 -97.5 -32.5t-25.5 -131.5v-475q0 -94 -2 -173t-11.5 -148.5t-29 -131t-55.5 -118.5q-55 -88 -164 -144.5t-248 -56.5q-129 0 -230.5 30t-172 101.5t-107.5 190t-37 295.5v610q0 63 -7 100t-23.5 55.5t-41 23.5t-61.5 5q-18 0 -36.5 -1 t-43.5 -3v70q78 -6 151.5 -9.5t153.5 -3.5t156 3.5t153 9.5v-70q-25 2 -43 3t-36 1q-37 0 -61.5 -5t-41 -23.5t-24 -55.5t-7.5 -100v-594zM631 1683q-61 35 -89 65t-28 54q0 39 28.5 55.5t51.5 16.5q35 0 75 -27.5t81 -69.5t84 -93.5t84 -100.5l-44 -57z" />
<glyph unicode="&#xda;" horiz-adv-x="1570" d="M446 596q0 -92 4.5 -158.5t13.5 -117t25.5 -88t42.5 -70.5q59 -72 135 -101.5t152 -29.5q123 0 201 45t131 121q59 84 72.5 223t13.5 317v473q0 100 -30.5 132t-106.5 32q-18 0 -38 -1t-42 -3v70q41 -2 72.5 -4t61.5 -4t60.5 -3.5t67.5 -1.5t63.5 1.5t52 3.5t54.5 4t70 4 v-70q-25 2 -45.5 3t-38.5 1q-72 0 -97.5 -32.5t-25.5 -131.5v-475q0 -94 -2 -173t-11.5 -148.5t-29 -131t-55.5 -118.5q-55 -88 -164 -144.5t-248 -56.5q-129 0 -230.5 30t-172 101.5t-107.5 190t-37 295.5v610q0 63 -7 100t-23.5 55.5t-41 23.5t-61.5 5q-18 0 -36.5 -1 t-43.5 -3v70q78 -6 151.5 -9.5t153.5 -3.5t156 3.5t153 9.5v-70q-25 2 -43 3t-36 1q-37 0 -61.5 -5t-41 -23.5t-24 -55.5t-7.5 -100v-594zM719 1526l-43 57q41 49 84 100.5t84 93.5t81 69.5t74 27.5q23 0 51.5 -16.5t28.5 -55.5q0 -25 -27.5 -54.5t-88.5 -64.5z" />
<glyph unicode="&#xdb;" horiz-adv-x="1570" d="M446 596q0 -92 4.5 -158.5t13.5 -117t25.5 -88t42.5 -70.5q59 -72 135 -101.5t152 -29.5q123 0 201 45t131 121q59 84 72.5 223t13.5 317v473q0 100 -30.5 132t-106.5 32q-18 0 -38 -1t-42 -3v70q41 -2 72.5 -4t61.5 -4t60.5 -3.5t67.5 -1.5t63.5 1.5t52 3.5t54.5 4t70 4 v-70q-25 2 -45.5 3t-38.5 1q-72 0 -97.5 -32.5t-25.5 -131.5v-475q0 -94 -2 -173t-11.5 -148.5t-29 -131t-55.5 -118.5q-55 -88 -164 -144.5t-248 -56.5q-129 0 -230.5 30t-172 101.5t-107.5 190t-37 295.5v610q0 63 -7 100t-23.5 55.5t-41 23.5t-61.5 5q-18 0 -36.5 -1 t-43.5 -3v70q78 -6 151.5 -9.5t153.5 -3.5t156 3.5t153 9.5v-70q-25 2 -43 3t-36 1q-37 0 -61.5 -5t-41 -23.5t-24 -55.5t-7.5 -100v-594zM838 1716l-215 -190l-50 47q66 92 107 150.5t68.5 92t47 46t42.5 12.5q20 0 40.5 -12.5t48 -46t68.5 -92t107 -150.5l-49 -47z" />
<glyph unicode="&#xdc;" horiz-adv-x="1570" d="M446 596q0 -92 4.5 -158.5t13.5 -117t25.5 -88t42.5 -70.5q59 -72 135 -101.5t152 -29.5q123 0 201 45t131 121q59 84 72.5 223t13.5 317v473q0 100 -30.5 132t-106.5 32q-18 0 -38 -1t-42 -3v70q41 -2 72.5 -4t61.5 -4t60.5 -3.5t67.5 -1.5t63.5 1.5t52 3.5t54.5 4t70 4 v-70q-25 2 -45.5 3t-38.5 1q-72 0 -97.5 -32.5t-25.5 -131.5v-475q0 -94 -2 -173t-11.5 -148.5t-29 -131t-55.5 -118.5q-55 -88 -164 -144.5t-248 -56.5q-129 0 -230.5 30t-172 101.5t-107.5 190t-37 295.5v610q0 63 -7 100t-23.5 55.5t-41 23.5t-61.5 5q-18 0 -36.5 -1 t-43.5 -3v70q78 -6 151.5 -9.5t153.5 -3.5t156 3.5t153 9.5v-70q-25 2 -43 3t-36 1q-37 0 -61.5 -5t-41 -23.5t-24 -55.5t-7.5 -100v-594zM535 1700q0 47 33.5 82t80.5 35t82 -35t35 -82t-35 -81t-82 -34t-80.5 34t-33.5 81zM909 1700q0 47 34 82t81 35t82 -35t35 -82 t-35 -81t-82 -34t-81 34t-34 81z" />
<glyph unicode="&#xdd;" horiz-adv-x="1310" d="M748 244q0 -63 7 -100.5t23.5 -55.5t41 -23.5t61.5 -5.5q18 0 36.5 1t43.5 3v-69q-78 6 -154 9t-156 3t-153.5 -3t-151.5 -9v69q25 -2 43.5 -3t36.5 -1q37 0 61.5 5.5t41 23.5t23.5 55t7 101v362l-330 594q-23 39 -39 71t-35.5 55.5t-45 35.5t-64.5 12q-10 0 -21.5 -1 t-23.5 -3v70q63 -6 121.5 -9.5t136.5 -3.5q74 0 164 4.5l170 8.5v-70q-29 2 -51.5 3t-42.5 1q-53 0 -81 -11t-28 -42q0 -39 45 -121l180 -319q23 -41 44.5 -83t43.5 -106h9l202 357q55 98 83 161.5t28 98.5q0 37 -26.5 51t-77.5 14q-16 0 -37 -1t-43 -3v70q70 -4 121 -7 t110 -3q55 0 82 1t46.5 2t42 3t67.5 4v-70q-10 2 -17.5 2h-17.5q-41 0 -69.5 -15.5t-51.5 -41t-41 -61t-41 -74.5l-323 -574v-362zM547 1526l-43 57q41 49 84 100.5t84 93.5t81 69.5t74 27.5q23 0 51.5 -16.5t28.5 -55.5q0 -25 -27.5 -54.5t-88.5 -64.5z" />
<glyph unicode="&#xde;" horiz-adv-x="1228" d="M475 1151q29 2 75 6t136 4q150 0 244 -38t146 -96t70.5 -127t18.5 -128q0 -66 -23.5 -136.5t-87 -130t-178 -98t-294.5 -38.5q-25 0 -51.5 1t-55.5 3v-129q0 -63 7 -100.5t23.5 -55.5t41 -23.5t61.5 -5.5q18 0 37 1t43 3v-69q-78 6 -153.5 9t-155.5 3t-153.5 -3 t-151.5 -9v69q25 -2 43 -3t37 -1q35 0 60.5 5.5t41.5 23.5t23.5 55t7.5 101v946q0 63 -7.5 100t-23.5 55.5t-41 23.5t-61 5q-18 0 -37 -1t-43 -3v70q78 -6 151.5 -9.5t153.5 -3.5t155.5 3.5t153.5 9.5v-70q-25 2 -43 3t-37 1q-37 0 -61.5 -5t-41 -23.5t-23.5 -55.5t-7 -100 v-39zM965 774q0 78 -25 137.5t-65.5 100.5t-98 61.5t-121.5 20.5q-59 0 -94 -5.5t-54.5 -20.5t-25.5 -43t-6 -73v-506q31 -6 59.5 -8t57.5 -2q174 0 273.5 88t99.5 250z" />
<glyph unicode="&#xdf;" horiz-adv-x="1224" d="M379 244q0 -57 2 -93t11 -56.5t30.5 -28t62.5 -7.5h35t39 2v-67q-61 6 -125.5 10t-130.5 4q-59 0 -123.5 -5t-122.5 -13v67q12 -2 27.5 -2h26.5q27 0 45 5.5t27.5 24.5t13.5 57t4 102v784q0 88 18.5 168t66.5 141.5t132 98.5t215 37q106 0 173.5 -29t107.5 -68t55.5 -81 t15.5 -68q0 -68 -23.5 -112t-58.5 -74.5t-77 -50t-76.5 -40t-58 -45t-23.5 -63.5q0 -61 35.5 -99t89 -67t116 -56.5t115.5 -69.5t89 -105.5t36 -161.5q0 -45 -18.5 -97.5t-57.5 -96.5t-99.5 -73.5t-144.5 -29.5q-53 0 -102 10t-88 27l25 57q63 -31 143 -31q45 0 81 18.5 t60.5 48t36.5 66.5t12 72q0 68 -33.5 111t-83 72.5t-108.5 54t-108.5 57.5t-83 80t-33.5 123q0 55 20.5 94t51 70.5t65.5 59.5t65.5 60.5t51 73.5t20.5 100q0 55 -20.5 93t-52 62t-67.5 34t-67 10q-104 0 -169.5 -84t-65.5 -260v-821z" />
<glyph unicode="&#xe0;" horiz-adv-x="1071" d="M487 979q197 0 284 -91t87 -247v-440q0 -49 11.5 -91t54.5 -42q20 0 38.5 10t30.5 22q14 14 27 35l43 -45q-41 -61 -95.5 -91t-103.5 -30q-66 0 -109.5 49.5t-43.5 149.5l-11 2q-16 -57 -53 -100q-33 -39 -91 -70t-157 -31q-96 0 -156.5 27t-94 65.5t-46 85t-12.5 84.5 q0 55 30 109.5t98.5 98.5t181 72t280.5 28v129q0 45 -7 90t-28.5 80.5t-59.5 57.5t-102 22q-82 0 -124 -27t-42 -74q0 -27 6.5 -48t6.5 -46q0 -55 -31 -77.5t-70 -22.5q-14 0 -31.5 3t-32.5 15t-26.5 35.5t-11.5 62.5q0 37 24.5 79t70.5 78t113.5 59.5t151.5 23.5zM680 477 q-82 0 -153.5 -8t-126 -34.5t-85 -75t-30.5 -128.5q0 -2 3 -32.5t18.5 -65.5t49 -64.5t97.5 -29.5q66 0 109.5 33.5t69 83t37 104.5t11.5 98v119zM377 1272q-49 41 -68.5 72.5t-19.5 60.5t25.5 44t45.5 15q37 0 72 -30.5t70 -78.5t68.5 -107.5t68.5 -117.5l-47 -45z" />
<glyph unicode="&#xe1;" horiz-adv-x="1071" d="M487 979q197 0 284 -91t87 -247v-440q0 -49 11.5 -91t54.5 -42q20 0 38.5 10t30.5 22q14 14 27 35l43 -45q-41 -61 -95.5 -91t-103.5 -30q-66 0 -109.5 49.5t-43.5 149.5l-11 2q-16 -57 -53 -100q-33 -39 -91 -70t-157 -31q-96 0 -156.5 27t-94 65.5t-46 85t-12.5 84.5 q0 55 30 109.5t98.5 98.5t181 72t280.5 28v129q0 45 -7 90t-28.5 80.5t-59.5 57.5t-102 22q-82 0 -124 -27t-42 -74q0 -27 6.5 -48t6.5 -46q0 -55 -31 -77.5t-70 -22.5q-14 0 -31.5 3t-32.5 15t-26.5 35.5t-11.5 62.5q0 37 24.5 79t70.5 78t113.5 59.5t151.5 23.5zM680 477 q-82 0 -153.5 -8t-126 -34.5t-85 -75t-30.5 -128.5q0 -2 3 -32.5t18.5 -65.5t49 -64.5t97.5 -29.5q66 0 109.5 33.5t69 83t37 104.5t11.5 98v119zM424 1085l-47 45q35 55 68.5 115t68.5 108t69.5 79.5t71.5 31.5q20 0 46 -15t26 -44q0 -25 -19.5 -60.5t-68.5 -76.5z" />
<glyph unicode="&#xe2;" horiz-adv-x="1071" d="M487 979q197 0 284 -91t87 -247v-440q0 -49 11.5 -91t54.5 -42q20 0 38.5 10t30.5 22q14 14 27 35l43 -45q-41 -61 -95.5 -91t-103.5 -30q-66 0 -109.5 49.5t-43.5 149.5l-11 2q-16 -57 -53 -100q-33 -39 -91 -70t-157 -31q-96 0 -156.5 27t-94 65.5t-46 85t-12.5 84.5 q0 55 30 109.5t98.5 98.5t181 72t280.5 28v129q0 45 -7 90t-28.5 80.5t-59.5 57.5t-102 22q-82 0 -124 -27t-42 -74q0 -27 6.5 -48t6.5 -46q0 -55 -31 -77.5t-70 -22.5q-14 0 -31.5 3t-32.5 15t-26.5 35.5t-11.5 62.5q0 37 24.5 79t70.5 78t113.5 59.5t151.5 23.5zM680 477 q-82 0 -153.5 -8t-126 -34.5t-85 -75t-30.5 -128.5q0 -2 3 -32.5t18.5 -65.5t49 -64.5t97.5 -29.5q66 0 109.5 33.5t69 83t37 104.5t11.5 98v119zM508 1290l-221 -205l-47 48q66 94 106.5 157.5t69 102.5t49 55t43.5 16t43 -16t49 -55t70 -102.5t106 -157.5l-47 -48z" />
<glyph unicode="&#xe3;" horiz-adv-x="1071" d="M487 979q197 0 284 -91t87 -247v-440q0 -49 11.5 -91t54.5 -42q20 0 38.5 10t30.5 22q14 14 27 35l43 -45q-41 -61 -95.5 -91t-103.5 -30q-66 0 -109.5 49.5t-43.5 149.5l-11 2q-16 -57 -53 -100q-33 -39 -91 -70t-157 -31q-96 0 -156.5 27t-94 65.5t-46 85t-12.5 84.5 q0 55 30 109.5t98.5 98.5t181 72t280.5 28v129q0 45 -7 90t-28.5 80.5t-59.5 57.5t-102 22q-82 0 -124 -27t-42 -74q0 -27 6.5 -48t6.5 -46q0 -55 -31 -77.5t-70 -22.5q-14 0 -31.5 3t-32.5 15t-26.5 35.5t-11.5 62.5q0 37 24.5 79t70.5 78t113.5 59.5t151.5 23.5zM680 477 q-82 0 -153.5 -8t-126 -34.5t-85 -75t-30.5 -128.5q0 -2 3 -32.5t18.5 -65.5t49 -64.5t97.5 -29.5q66 0 109.5 33.5t69 83t37 104.5t11.5 98v119zM840 1311q-49 -96 -107.5 -136t-118.5 -40q-49 0 -83.5 18t-62.5 39.5t-53.5 40t-60.5 18.5q-27 0 -57.5 -21.5t-60.5 -72.5 l-58 33q49 96 107.5 136t117.5 40q49 0 83 -18.5t61.5 -40t54.5 -40t62 -18.5q27 0 57.5 21.5t60.5 72.5z" />
<glyph unicode="&#xe4;" horiz-adv-x="1071" d="M487 979q197 0 284 -91t87 -247v-440q0 -49 11.5 -91t54.5 -42q20 0 38.5 10t30.5 22q14 14 27 35l43 -45q-41 -61 -95.5 -91t-103.5 -30q-66 0 -109.5 49.5t-43.5 149.5l-11 2q-16 -57 -53 -100q-33 -39 -91 -70t-157 -31q-96 0 -156.5 27t-94 65.5t-46 85t-12.5 84.5 q0 55 30 109.5t98.5 98.5t181 72t280.5 28v129q0 45 -7 90t-28.5 80.5t-59.5 57.5t-102 22q-82 0 -124 -27t-42 -74q0 -27 6.5 -48t6.5 -46q0 -55 -31 -77.5t-70 -22.5q-14 0 -31.5 3t-32.5 15t-26.5 35.5t-11.5 62.5q0 37 24.5 79t70.5 78t113.5 59.5t151.5 23.5zM680 477 q-82 0 -153.5 -8t-126 -34.5t-85 -75t-30.5 -128.5q0 -2 3 -32.5t18.5 -65.5t49 -64.5t97.5 -29.5q66 0 109.5 33.5t69 83t37 104.5t11.5 98v119zM225 1249q0 47 34 82t81 35t82 -35t35 -82t-35 -80.5t-82 -33.5t-81 33.5t-34 80.5zM559 1249q0 47 34 82t81 35t82 -35 t35 -82t-35 -80.5t-82 -33.5t-81 33.5t-34 80.5z" />
<glyph unicode="&#xe5;" horiz-adv-x="1071" d="M487 979q197 0 284 -91t87 -247v-440q0 -49 11.5 -91t54.5 -42q20 0 38.5 10t30.5 22q14 14 27 35l43 -45q-41 -61 -95.5 -91t-103.5 -30q-66 0 -109.5 49.5t-43.5 149.5l-11 2q-16 -57 -53 -100q-33 -39 -91 -70t-157 -31q-96 0 -156.5 27t-94 65.5t-46 85t-12.5 84.5 q0 55 30 109.5t98.5 98.5t181 72t280.5 28v129q0 45 -7 90t-28.5 80.5t-59.5 57.5t-102 22q-82 0 -124 -27t-42 -74q0 -27 6.5 -48t6.5 -46q0 -55 -31 -77.5t-70 -22.5q-14 0 -31.5 3t-32.5 15t-26.5 35.5t-11.5 62.5q0 37 24.5 79t70.5 78t113.5 59.5t151.5 23.5zM680 477 q-82 0 -153.5 -8t-126 -34.5t-85 -75t-30.5 -128.5q0 -2 3 -32.5t18.5 -65.5t49 -64.5t97.5 -29.5q66 0 109.5 33.5t69 83t37 104.5t11.5 98v119zM332 1257q0 74 51 125.5t125 51.5t126 -51.5t52 -125.5t-52 -124t-126 -50t-125 50t-51 124zM395 1257q0 -47 33 -79.5 t80 -32.5t81 32.5t34 79.5t-34 81t-81 34t-80 -34t-33 -81z" />
<glyph unicode="&#xe6;" horiz-adv-x="1634" d="M778 176q-10 -25 -30.5 -61.5t-63.5 -70.5t-111.5 -57.5t-173.5 -23.5q-92 0 -152.5 27.5t-94 67.5t-47 87.5t-13.5 85.5q0 51 16.5 105.5t80 99.5t187.5 75t337 30v86q0 51 -10.5 102t-36 93t-66.5 69t-102 27q-82 0 -131.5 -27t-49.5 -74q0 -27 5.5 -48t5.5 -46 q0 -55 -30 -77.5t-69 -22.5q-14 0 -31.5 3t-32.5 15t-25.5 35.5t-10.5 62.5q0 37 27.5 79t78 78t120 59.5t153.5 23.5q123 0 209 -41t127 -123q57 84 130 124t177 40q117 0 193.5 -43t122.5 -105.5t64.5 -133t18.5 -124.5q0 -39 -22.5 -59t-70.5 -29.5t-124 -11.5t-180 -2 h-252q0 -225 77 -333.5t212 -108.5q37 0 78 11t81 35.5t73.5 65.5t58.5 103l67 -25q-53 -121 -144 -188.5t-245 -67.5q-66 0 -127 15.5t-112.5 44t-88.5 67.5t-53 86zM1116 539q84 0 132 6t71.5 23.5t30 46t6.5 73.5q0 47 -16.5 89t-44 73t-66.5 49.5t-82 18.5 q-70 0 -116 -35t-74.5 -89.5t-41 -122t-12.5 -132.5h213zM713 477q-98 0 -177 -8t-134.5 -34.5t-86 -75t-30.5 -128.5q0 -2 3 -33.5t20.5 -68.5t55 -66.5t109.5 -29.5q66 0 112 34.5t74.5 85t41 106.5t12.5 99v119z" />
<glyph unicode="&#xe7;" horiz-adv-x="983" d="M348 -330q23 -12 46.5 -20t51.5 -8q12 0 26.5 2t29 9t24 19.5t9.5 34.5q0 23 -15.5 36t-33 25.5t-33 29t-15.5 46.5q0 35 28 64t75 57q-211 4 -331 137.5t-120 370.5q0 106 35 199.5t96.5 161t146.5 106.5t185 39q94 0 161.5 -23.5t111.5 -59.5t64.5 -79t20.5 -80 q0 -39 -11 -64.5t-27.5 -40t-34 -20.5t-31.5 -6q-39 0 -70.5 25.5t-31.5 83.5q0 25 7 48t7 50q0 47 -33 76t-119 29q-57 0 -107 -27t-87 -82t-58.5 -139t-21.5 -197q0 -225 72.5 -332.5t212.5 -107.5q76 0 152.5 49t123.5 170q4 -2 10 -4q4 -2 10.5 -5t12.5 -5q14 -8 33 -15 q-47 -102 -119 -168.5t-183 -83.5q-37 -25 -56 -43t-19 -49q0 -29 19.5 -43t42 -29.5t42 -40t19.5 -69.5q0 -61 -52.5 -91t-117.5 -30q-39 0 -88.5 7t-79.5 30z" />
<glyph unicode="&#xe8;" horiz-adv-x="1017" d="M932 219q-53 -121 -144.5 -188.5t-244.5 -67.5q-104 0 -188.5 38t-142.5 104.5t-90 159.5t-32 204q0 113 31 206t89 160.5t140 105.5t185 38q117 0 193.5 -43t122.5 -105.5t64.5 -133t18.5 -124.5q0 -35 -13.5 -55t-42 -30.5t-76.5 -13.5t-118 -3h-397 q0 -225 75.5 -333.5t210.5 -108.5q37 0 78 11t81 35.5t74 65.5t58 103zM500 539q84 0 132 6t71.5 23.5t29.5 46t6 73.5t-15 86t-42 73t-64.5 51.5t-82.5 19.5q-61 0 -107.5 -35t-77.5 -89.5t-46 -122t-15 -132.5h211zM414 1272q-49 41 -68.5 72.5t-19.5 60.5t25.5 44 t45.5 15q37 0 72 -30.5t69.5 -78.5t68.5 -107.5t69 -117.5l-47 -45z" />
<glyph unicode="&#xe9;" horiz-adv-x="1017" d="M932 219q-53 -121 -144.5 -188.5t-244.5 -67.5q-104 0 -188.5 38t-142.5 104.5t-90 159.5t-32 204q0 113 31 206t89 160.5t140 105.5t185 38q117 0 193.5 -43t122.5 -105.5t64.5 -133t18.5 -124.5q0 -35 -13.5 -55t-42 -30.5t-76.5 -13.5t-118 -3h-397 q0 -225 75.5 -333.5t210.5 -108.5q37 0 78 11t81 35.5t74 65.5t58 103zM500 539q84 0 132 6t71.5 23.5t29.5 46t6 73.5t-15 86t-42 73t-64.5 51.5t-82.5 19.5q-61 0 -107.5 -35t-77.5 -89.5t-46 -122t-15 -132.5h211zM455 1085l-47 45q35 55 68.5 115t68.5 108t69.5 79.5 t71.5 31.5q20 0 46 -15t26 -44q0 -25 -19.5 -60.5t-68.5 -76.5z" />
<glyph unicode="&#xea;" horiz-adv-x="1017" d="M932 219q-53 -121 -144.5 -188.5t-244.5 -67.5q-104 0 -188.5 38t-142.5 104.5t-90 159.5t-32 204q0 113 31 206t89 160.5t140 105.5t185 38q117 0 193.5 -43t122.5 -105.5t64.5 -133t18.5 -124.5q0 -35 -13.5 -55t-42 -30.5t-76.5 -13.5t-118 -3h-397 q0 -225 75.5 -333.5t210.5 -108.5q37 0 78 11t81 35.5t74 65.5t58 103zM500 539q84 0 132 6t71.5 23.5t29.5 46t6 73.5t-15 86t-42 73t-64.5 51.5t-82.5 19.5q-61 0 -107.5 -35t-77.5 -89.5t-46 -122t-15 -132.5h211zM541 1290l-222 -205l-47 48q66 94 107 157.5t69.5 102.5 t49 55t43.5 16t43 -16t49 -55t69.5 -102.5t106.5 -157.5l-47 -48z" />
<glyph unicode="&#xeb;" horiz-adv-x="1017" d="M932 219q-53 -121 -144.5 -188.5t-244.5 -67.5q-104 0 -188.5 38t-142.5 104.5t-90 159.5t-32 204q0 113 31 206t89 160.5t140 105.5t185 38q117 0 193.5 -43t122.5 -105.5t64.5 -133t18.5 -124.5q0 -35 -13.5 -55t-42 -30.5t-76.5 -13.5t-118 -3h-397 q0 -225 75.5 -333.5t210.5 -108.5q37 0 78 11t81 35.5t74 65.5t58 103zM500 539q84 0 132 6t71.5 23.5t29.5 46t6 73.5t-15 86t-42 73t-64.5 51.5t-82.5 19.5q-61 0 -107.5 -35t-77.5 -89.5t-46 -122t-15 -132.5h211zM258 1249q0 47 34 82t81 35t81.5 -35t34.5 -82 t-34.5 -80.5t-81.5 -33.5t-81 33.5t-34 80.5zM592 1249q0 47 33.5 82t81.5 35q47 0 81.5 -35t34.5 -82t-34.5 -80.5t-81.5 -33.5t-81 33.5t-34 80.5z" />
<glyph unicode="&#xec;" horiz-adv-x="628" d="M207 1272q-49 41 -68.5 72.5t-19.5 60.5t25.5 44t45.5 15q37 0 72 -30.5t70 -78.5t68.5 -107.5t68.5 -117.5l-47 -45zM414 244q0 -57 2 -93t11 -56.5t30.5 -28t62.5 -7.5h35t39 2v-67q-61 6 -126 10t-130 4q-59 0 -123.5 -5t-122.5 -13v67q12 -2 27.5 -2h25.5 q27 0 45.5 5.5t27.5 24.5t13.5 57t4.5 102v489q0 47 -3.5 76t-14.5 45t-31.5 21.5t-57.5 5.5q-16 0 -36.5 -1t-43.5 -6v68q27 -2 50.5 -3t50.5 -1q63 0 127.5 7t136.5 30v-731z" />
<glyph unicode="&#xed;" horiz-adv-x="628" d="M240 1085l-47 45q35 55 68.5 115t68.5 108t69.5 79.5t71.5 31.5q20 0 46 -15t26 -44q0 -25 -19.5 -60.5t-68.5 -76.5zM414 244q0 -57 2 -93t11 -56.5t30.5 -28t62.5 -7.5h35t39 2v-67q-61 6 -126 10t-130 4q-59 0 -123.5 -5t-122.5 -13v67q12 -2 27.5 -2h25.5 q27 0 45.5 5.5t27.5 24.5t13.5 57t4.5 102v489q0 47 -3.5 76t-14.5 45t-31.5 21.5t-57.5 5.5q-16 0 -36.5 -1t-43.5 -6v68q27 -2 50.5 -3t50.5 -1q63 0 127.5 7t136.5 30v-731z" />
<glyph unicode="&#xee;" horiz-adv-x="628" d="M305 1311l-201 -226l-47 48q57 94 95 157.5t64 102.5t46.5 55t42.5 16q23 0 43.5 -16t46 -55t63.5 -102.5t95 -157.5l-47 -48zM414 244q0 -57 2 -93t11 -56.5t30.5 -28t62.5 -7.5h35t39 2v-67q-61 6 -126 10t-130 4q-59 0 -123.5 -5t-122.5 -13v67q12 -2 27.5 -2h25.5 q27 0 45.5 5.5t27.5 24.5t13.5 57t4.5 102v489q0 47 -3.5 76t-14.5 45t-31.5 21.5t-57.5 5.5q-16 0 -36.5 -1t-43.5 -6v68q27 -2 50.5 -3t50.5 -1q63 0 127.5 7t136.5 30v-731z" />
<glyph unicode="&#xef;" horiz-adv-x="628" d="M45 1249q0 47 34 82t81 35t81.5 -35t34.5 -82t-34.5 -80.5t-81.5 -33.5t-81 33.5t-34 80.5zM350 1249q0 47 34 82t81 35t82 -35t35 -82t-35 -80.5t-82 -33.5t-81 33.5t-34 80.5zM414 244q0 -57 2 -93t11 -56.5t30.5 -28t62.5 -7.5h35t39 2v-67q-61 6 -126 10t-130 4 q-59 0 -123.5 -5t-122.5 -13v67q12 -2 27.5 -2h25.5q27 0 45.5 5.5t27.5 24.5t13.5 57t4.5 102v489q0 47 -3.5 76t-14.5 45t-31.5 21.5t-57.5 5.5q-16 0 -36.5 -1t-43.5 -6v68q27 -2 50.5 -3t50.5 -1q63 0 127.5 7t136.5 30v-731z" />
<glyph unicode="&#xf0;" horiz-adv-x="1099" d="M612 1450q23 -23 41.5 -44.5t36.5 -43.5l215 111l37 -70l-192 -103q123 -170 173 -350t50 -356q0 -117 -19.5 -230.5t-71 -202.5t-138.5 -144.5t-222 -55.5q-92 0 -171 35t-137 98.5t-91 152.5t-33 195q0 125 35 221.5t93 162t132 98t152 32.5q70 0 119 -16t81.5 -41 t50 -51.5t25.5 -46.5l13 4q-4 23 -12.5 62.5t-29 93t-57.5 120t-96 142.5l-217 -115l-33 70l207 104q-35 37 -77 74t-91 78q70 2 120 4t107 12zM539 885q-74 0 -122 -45t-78 -110.5t-41 -142.5t-11 -141q0 -90 16 -166.5t47 -133t74 -88t96 -31.5q72 0 121 38.5t79 102 t43 144.5t13 167t-17.5 161t-49 129t-75.5 85t-95 31z" />
<glyph unicode="&#xf1;" horiz-adv-x="1220" d="M1026 244q0 -57 2 -93t11.5 -56.5t31 -28t62.5 -7.5h34.5t38.5 2v-67q-61 6 -125.5 10t-130.5 4q-59 0 -123.5 -5t-121.5 -13v67q12 -2 27.5 -2h25.5q27 0 45 5.5t27.5 24.5t13.5 57t4 102v323q0 180 -40 258t-144 78q-39 0 -83 -20.5t-81 -69.5t-61.5 -130t-24.5 -200 v-239q0 -57 2 -93t11 -56.5t30.5 -28t62.5 -7.5h35t39 2v-67q-61 6 -126 10t-130 4q-59 0 -123.5 -5t-122.5 -13v67q12 -2 27.5 -2h25.5q27 0 45.5 5.5t27.5 24.5t13.5 57t4.5 102v418q0 68 -6.5 110.5t-19.5 66t-35.5 33t-55.5 9.5q-16 0 -37 -1t-43 -6v68q23 -4 43 -4h43 q57 0 114.5 6t118.5 23q10 -43 16.5 -94.5t6.5 -133.5l10 -2q4 27 26.5 68t62.5 78t98.5 63.5t136.5 26.5q100 0 160.5 -34t94.5 -87t45 -117.5t11 -126.5v-364zM952 1311q-49 -96 -107.5 -136t-117.5 -40q-49 0 -84 18t-62.5 39.5t-53 40t-60.5 18.5q-27 0 -57.5 -21.5 t-61.5 -72.5l-57 33q49 96 107.5 136t117.5 40q49 0 83 -18.5t61.5 -40t54 -40t61.5 -18.5q27 0 57.5 21.5t61.5 72.5z" />
<glyph unicode="&#xf2;" horiz-adv-x="1099" d="M90 471q0 115 34 209t95.5 160.5t145.5 102.5t184 36t185 -36t146.5 -102.5t95.5 -160.5t34 -209t-34 -208t-95.5 -159.5t-146.5 -103.5t-185 -37t-184 37t-145.5 103.5t-95.5 159.5t-34 208zM291 471q0 -205 62.5 -325.5t195.5 -120.5t196.5 120.5t63.5 325.5t-63.5 326 t-196.5 121t-195.5 -121t-62.5 -326zM406 1272q-49 41 -69 72.5t-20 60.5t26 44t46 15q37 0 72 -30.5t69.5 -78.5t68.5 -107.5t69 -117.5l-47 -45z" />
<glyph unicode="&#xf3;" horiz-adv-x="1099" d="M90 471q0 115 34 209t95.5 160.5t145.5 102.5t184 36t185 -36t146.5 -102.5t95.5 -160.5t34 -209t-34 -208t-95.5 -159.5t-146.5 -103.5t-185 -37t-184 37t-145.5 103.5t-95.5 159.5t-34 208zM291 471q0 -205 62.5 -325.5t195.5 -120.5t196.5 120.5t63.5 325.5t-63.5 326 t-196.5 121t-195.5 -121t-62.5 -326zM487 1085l-47 45q35 55 69 115t68.5 108t69.5 79.5t72 31.5q20 0 46 -15t26 -44q0 -25 -19.5 -60.5t-69.5 -76.5z" />
<glyph unicode="&#xf4;" horiz-adv-x="1099" d="M90 471q0 115 34 209t95.5 160.5t145.5 102.5t184 36t185 -36t146.5 -102.5t95.5 -160.5t34 -209t-34 -208t-95.5 -159.5t-146.5 -103.5t-185 -37t-184 37t-145.5 103.5t-95.5 159.5t-34 208zM291 471q0 -205 62.5 -325.5t195.5 -120.5t196.5 120.5t63.5 325.5t-63.5 326 t-196.5 121t-195.5 -121t-62.5 -326zM553 1290l-221 -205l-47 48q66 94 106.5 157.5t69 102.5t49 55t43.5 16t43 -16t49 -55t70 -102.5t106 -157.5l-47 -48z" />
<glyph unicode="&#xf5;" horiz-adv-x="1099" d="M90 471q0 115 34 209t95.5 160.5t145.5 102.5t184 36t185 -36t146.5 -102.5t95.5 -160.5t34 -209t-34 -208t-95.5 -159.5t-146.5 -103.5t-185 -37t-184 37t-145.5 103.5t-95.5 159.5t-34 208zM291 471q0 -205 62.5 -325.5t195.5 -120.5t196.5 120.5t63.5 325.5t-63.5 326 t-196.5 121t-195.5 -121t-62.5 -326zM885 1311q-49 -96 -107.5 -136t-118.5 -40q-49 0 -83.5 18t-62.5 39.5t-53.5 40t-60.5 18.5q-27 0 -57.5 -21.5t-60.5 -72.5l-58 33q49 96 107.5 136t118.5 40q49 0 82.5 -18.5t61.5 -40t54.5 -40t61.5 -18.5q27 0 57.5 21.5t60.5 72.5z " />
<glyph unicode="&#xf6;" horiz-adv-x="1099" d="M90 471q0 115 34 209t95.5 160.5t145.5 102.5t184 36t185 -36t146.5 -102.5t95.5 -160.5t34 -209t-34 -208t-95.5 -159.5t-146.5 -103.5t-185 -37t-184 37t-145.5 103.5t-95.5 159.5t-34 208zM291 471q0 -205 62.5 -325.5t195.5 -120.5t196.5 120.5t63.5 325.5t-63.5 326 t-196.5 121t-195.5 -121t-62.5 -326zM272 1249q0 47 34 82t81 35t82 -35t35 -82t-35 -80.5t-82 -33.5t-81 33.5t-34 80.5zM606 1249q0 47 34 82t81 35t82 -35t35 -82t-35 -80.5t-82 -33.5t-81 33.5t-34 80.5z" />
<glyph unicode="&#xf7;" d="M401 221q0 47 32 78t79 31t78 -31t31 -78t-31 -78.5t-78 -31.5t-79 31.5t-32 78.5zM401 797q0 47 32 77.5t79 30.5t78 -30.5t31 -77.5t-31 -79t-78 -32t-79 32t-32 79zM977 551v-82h-930v82h930z" />
<glyph unicode="&#xf8;" horiz-adv-x="1099" d="M90 471q0 115 34 209t95.5 160.5t145.5 102.5t184 36q133 0 237 -64l109 185l72 -41l-115 -193q74 -66 116 -166t42 -229q0 -115 -34 -208t-95.5 -159.5t-146.5 -103.5t-185 -37q-59 0 -110.5 12.5t-98.5 34.5l-123 -205l-67 43l122 205q-86 66 -134 172.5t-48 245.5z M291 471q0 -92 12 -168t39 -133l387 651q-63 96 -180 97q-133 0 -195.5 -121t-62.5 -326zM809 471q0 156 -37 264l-383 -641q63 -70 160 -69q133 0 196.5 120.5t63.5 325.5z" />
<glyph unicode="&#xf9;" horiz-adv-x="1210" d="M834 199q-4 -29 -25 -68t-59.5 -73.5t-97 -59.5t-136.5 -25q-100 0 -161.5 33t-96.5 85t-47 115.5t-12 125.5v401q0 47 -3 76t-14.5 45t-32 21.5t-57.5 5.5q-16 0 -36.5 -1t-43.5 -6v68q31 -2 62.5 -3t64.5 -1q57 0 116.5 6t121.5 23v-596q0 -180 43 -254t145 -74 q39 0 84 19.5t83 66.5t62.5 126t24.5 200v278q0 47 -3 76t-14 45t-31.5 21.5t-57.5 5.5q-16 0 -37 -1t-43 -6v68q31 -2 62.5 -3t64.5 -1q57 0 116.5 6t120.5 23v-691q0 -68 6.5 -110.5t19.5 -66t35.5 -33t55.5 -9.5q16 0 36.5 3t43.5 8v-68q-18 2 -36.5 3t-37.5 1 q-59 0 -120.5 -8t-131.5 -23q-10 43 -16 93.5t-6 132.5h-12zM485 1272q-49 41 -68.5 72.5t-19.5 60.5t26 44t46 15q37 0 71.5 -30.5t69.5 -78.5t69 -107.5t69 -117.5l-48 -45z" />
<glyph unicode="&#xfa;" horiz-adv-x="1210" d="M834 199q-4 -29 -25 -68t-59.5 -73.5t-97 -59.5t-136.5 -25q-100 0 -161.5 33t-96.5 85t-47 115.5t-12 125.5v401q0 47 -3 76t-14.5 45t-32 21.5t-57.5 5.5q-16 0 -36.5 -1t-43.5 -6v68q31 -2 62.5 -3t64.5 -1q57 0 116.5 6t121.5 23v-596q0 -180 43 -254t145 -74 q39 0 84 19.5t83 66.5t62.5 126t24.5 200v278q0 47 -3 76t-14 45t-31.5 21.5t-57.5 5.5q-16 0 -37 -1t-43 -6v68q31 -2 62.5 -3t64.5 -1q57 0 116.5 6t120.5 23v-691q0 -68 6.5 -110.5t19.5 -66t35.5 -33t55.5 -9.5q16 0 36.5 3t43.5 8v-68q-18 2 -36.5 3t-37.5 1 q-59 0 -120.5 -8t-131.5 -23q-10 43 -16 93.5t-6 132.5h-12zM526 1085l-47 45q35 55 69 115t68.5 108t69.5 79.5t72 31.5q20 0 45.5 -15t25.5 -44q0 -25 -19 -60.5t-69 -76.5z" />
<glyph unicode="&#xfb;" horiz-adv-x="1210" d="M834 199q-4 -29 -25 -68t-59.5 -73.5t-97 -59.5t-136.5 -25q-100 0 -161.5 33t-96.5 85t-47 115.5t-12 125.5v401q0 47 -3 76t-14.5 45t-32 21.5t-57.5 5.5q-16 0 -36.5 -1t-43.5 -6v68q31 -2 62.5 -3t64.5 -1q57 0 116.5 6t121.5 23v-596q0 -180 43 -254t145 -74 q39 0 84 19.5t83 66.5t62.5 126t24.5 200v278q0 47 -3 76t-14 45t-31.5 21.5t-57.5 5.5q-16 0 -37 -1t-43 -6v68q31 -2 62.5 -3t64.5 -1q57 0 116.5 6t120.5 23v-691q0 -68 6.5 -110.5t19.5 -66t35.5 -33t55.5 -9.5q16 0 36.5 3t43.5 8v-68q-18 2 -36.5 3t-37.5 1 q-59 0 -120.5 -8t-131.5 -23q-10 43 -16 93.5t-6 132.5h-12zM612 1290l-221 -205l-47 48q66 94 107 157.5t69.5 102.5t49 55t42.5 16q23 0 43.5 -16t49 -55t69.5 -102.5t107 -157.5l-47 -48z" />
<glyph unicode="&#xfc;" horiz-adv-x="1210" d="M834 199q-4 -29 -25 -68t-59.5 -73.5t-97 -59.5t-136.5 -25q-100 0 -161.5 33t-96.5 85t-47 115.5t-12 125.5v401q0 47 -3 76t-14.5 45t-32 21.5t-57.5 5.5q-16 0 -36.5 -1t-43.5 -6v68q31 -2 62.5 -3t64.5 -1q57 0 116.5 6t121.5 23v-596q0 -180 43 -254t145 -74 q39 0 84 19.5t83 66.5t62.5 126t24.5 200v278q0 47 -3 76t-14 45t-31.5 21.5t-57.5 5.5q-16 0 -37 -1t-43 -6v68q31 -2 62.5 -3t64.5 -1q57 0 116.5 6t120.5 23v-691q0 -68 6.5 -110.5t19.5 -66t35.5 -33t55.5 -9.5q16 0 36.5 3t43.5 8v-68q-18 2 -36.5 3t-37.5 1 q-59 0 -120.5 -8t-131.5 -23q-10 43 -16 93.5t-6 132.5h-12zM330 1249q0 47 33.5 82t80.5 35t82 -35t35 -82t-34.5 -80.5t-82.5 -33.5q-47 0 -80.5 33.5t-33.5 80.5zM664 1249q0 47 33.5 82t80.5 35t82 -35t35 -82t-35 -80.5t-82 -33.5t-80.5 33.5t-33.5 80.5z" />
<glyph unicode="&#xfd;" horiz-adv-x="1050" d="M655 178q-68 -172 -104.5 -296t-68 -201.5t-72.5 -114.5t-119 -37q-113 0 -113 102q0 33 25.5 64t85.5 31q23 0 40 -5.5t29 -5.5q25 0 41.5 7.5t28.5 28t25.5 57t33.5 98.5l31 94q-20 0 -30.5 7t-18.5 24.5t-17.5 46t-27.5 74.5l-170 411q-43 102 -68.5 165t-46 96.5 t-39 45t-47.5 11.5q-8 0 -19 -1t-22 -1v67q57 -4 123 -7t125 -3t114.5 3t119.5 13v-67q-10 0 -23.5 1t-30.5 1q-35 0 -64.5 -10.5t-29.5 -45.5q0 -23 13.5 -58.5t42 -104t72.5 -178t106 -281.5h10q61 152 105 259t71 181t40 117t13 68q0 29 -26.5 39t-61.5 10 q-16 0 -31.5 -1t-27.5 -3v67q41 -4 80 -6t79 -2q49 0 102.5 3t106.5 11v-67q-8 2 -19 2h-17q-33 0 -52.5 -13.5t-35 -43t-32 -75.5t-42.5 -112zM399 1085l-47 45q35 55 69 115t68.5 108t69.5 79.5t72 31.5q20 0 45.5 -15t25.5 -44q0 -25 -19 -60.5t-69 -76.5z" />
<glyph unicode="&#xfe;" horiz-adv-x="1124" d="M354 -211q0 -57 2 -93t11.5 -56.5t31 -27.5t62.5 -7h34.5t39.5 2v-68q-61 6 -126 10.5t-130 4.5q-59 0 -124 -5.5t-122 -13.5v68q12 -2 27.5 -2h25.5q27 0 45.5 5t27.5 24.5t13 57.5t4 101v1436q0 47 -3 75.5t-14.5 45t-32 21.5t-56.5 5q-16 0 -37 -2t-43 -6v68 q27 -2 52.5 -2h53.5q63 0 128 6t130 22v-401q0 -20 -1 -58t-3 -79t-3 -79t-3 -59l10 -4q6 18 24.5 51t53.5 66t88 56.5t127 23.5q76 0 146.5 -32t123 -93.5t84 -150.5t31.5 -203q0 -117 -32.5 -213.5t-90 -165t-135.5 -106.5t-168 -38q-86 0 -150.5 32t-109.5 101l-8 -2 q8 -29 12 -62.5t5 -68t0 -65.5t-1 -49v-70zM840 522q0 78 -13.5 147.5t-42 122t-72.5 82t-106 29.5q-55 0 -102 -33.5t-82 -94t-55.5 -141.5t-20.5 -175q0 -80 11.5 -155t38 -134t71.5 -95t113 -36q57 0 104 38t82 104.5t54.5 154.5t19.5 186z" />
<glyph unicode="&#xff;" horiz-adv-x="1050" d="M655 178q-68 -172 -104.5 -296t-68 -201.5t-72.5 -114.5t-119 -37q-113 0 -113 102q0 33 25.5 64t85.5 31q23 0 40 -5.5t29 -5.5q25 0 41.5 7.5t28.5 28t25.5 57t33.5 98.5l31 94q-20 0 -30.5 7t-18.5 24.5t-17.5 46t-27.5 74.5l-170 411q-43 102 -68.5 165t-46 96.5 t-39 45t-47.5 11.5q-8 0 -19 -1t-22 -1v67q57 -4 123 -7t125 -3t114.5 3t119.5 13v-67q-10 0 -23.5 1t-30.5 1q-35 0 -64.5 -10.5t-29.5 -45.5q0 -23 13.5 -58.5t42 -104t72.5 -178t106 -281.5h10q61 152 105 259t71 181t40 117t13 68q0 29 -26.5 39t-61.5 10 q-16 0 -31.5 -1t-27.5 -3v67q41 -4 80 -6t79 -2q49 0 102.5 3t106.5 11v-67q-8 2 -19 2h-17q-33 0 -52.5 -13.5t-35 -43t-32 -75.5t-42.5 -112zM244 1249q0 47 33.5 82t80.5 35t82 -35t35 -82t-34.5 -80.5t-82.5 -33.5q-47 0 -80.5 33.5t-33.5 80.5zM578 1249q0 47 33.5 82 t80.5 35t82 -35t35 -82t-35 -80.5t-82 -33.5t-80.5 33.5t-33.5 80.5z" />
<glyph unicode="&#x104;" horiz-adv-x="1437" d="M766 1470l479 -1241q10 -29 21.5 -58.5t29 -54t43 -41t66.5 -16.5q10 0 25.5 1t27.5 3v-69q-43 4 -82 6t-76 4q-82 -53 -122.5 -106.5t-40.5 -118.5q0 -66 31.5 -99.5t84.5 -33.5q43 0 90 22l25 -59q-29 -14 -67.5 -22.5t-71.5 -8.5q-111 0 -160 46t-49 116q0 49 20.5 90 t52 74t68.5 58.5t70 43.5h-62q-147 0 -309 -12v69q23 -4 44.5 -4h41.5q59 0 90 16.5t31 61.5q0 39 -20 94l-113 291h-549l-102 -291q-18 -55 -19 -88q0 -47 30 -65.5t89 -18.5h35.5t42.5 4v-69q-82 6 -141.5 9t-135.5 3q-39 0 -63.5 -1t-46 -2t-43 -4t-51.5 -5v69 q10 -2 19 -2h19q41 0 70 12.5t49.5 36t34.5 55.5t31 73l467 1232h96zM410 588h499q-59 166 -124.5 328.5t-116.5 328.5l-11 2z" />
<glyph unicode="&#x105;" horiz-adv-x="1071" d="M487 979q197 0 284 -91t87 -247v-440q0 -49 11.5 -91t54.5 -42q20 0 38.5 10t30.5 22q14 14 27 35l43 -45q-53 -80 -129 -106q-68 -49 -100.5 -97.5t-32.5 -107.5q0 -66 31.5 -99.5t85.5 -33.5q43 0 90 22l24 -59q-29 -14 -67.5 -22.5t-71.5 -8.5q-111 0 -160 46t-49 116 q0 80 48 136t108 95q-55 10 -92 57.5t-37 139.5l-11 2q-16 -57 -53 -100q-33 -39 -91 -70t-157 -31q-96 0 -156.5 27t-94 65.5t-46 85t-12.5 84.5q0 55 30 109.5t98.5 98.5t181 72t280.5 28v129q0 45 -7 90t-28.5 80.5t-59.5 57.5t-102 22q-82 0 -124 -27t-42 -74 q0 -27 6.5 -48t6.5 -46q0 -55 -31 -77.5t-70 -22.5q-14 0 -31.5 3t-32.5 15t-26.5 35.5t-11.5 62.5q0 37 24.5 79t70.5 78t113.5 59.5t151.5 23.5zM680 477q-82 0 -153.5 -8t-126 -34.5t-85 -75t-30.5 -128.5q0 -2 3 -32.5t18.5 -65.5t49 -64.5t97.5 -29.5q66 0 109.5 33.5 t69 83t37 104.5t11.5 98v119z" />
<glyph unicode="&#x106;" horiz-adv-x="1347" d="M1233 1417q0 -55 1 -102t4 -90t9 -86t15 -92l-74 -7q-4 106 -37 177t-83 113t-112.5 58.5t-126.5 16.5q-109 0 -204 -42t-164.5 -126t-109.5 -213t-40 -301q0 -330 135.5 -510t372.5 -180q68 0 130.5 21.5t116.5 59.5t96 88t69 109l69 -30q-84 -166 -217 -242t-305 -76 q-152 0 -276.5 50t-213.5 146.5t-138.5 238t-49.5 325.5q0 180 54.5 319.5t150.5 234.5t229.5 144t290.5 49q139 0 240.5 -18.5t167.5 -34.5zM655 1526l-43 57q41 49 84 100.5t84 93.5t81 69.5t75 27.5q23 0 51.5 -16.5t28.5 -55.5q0 -25 -27.5 -54.5t-89.5 -64.5z" />
<glyph unicode="&#x107;" horiz-adv-x="983" d="M567 918q-57 0 -107 -27t-87 -82t-58.5 -139t-21.5 -197q0 -225 72.5 -332.5t212.5 -107.5q76 0 152.5 49t123.5 170q4 -2 10 -4q4 -2 10.5 -5t12.5 -5q14 -8 33 -15q-53 -117 -141.5 -187.5t-231.5 -70.5q-213 0 -335 134t-122 374q0 106 35 199.5t96.5 161t146.5 106.5 t185 39q94 0 161.5 -23.5t111.5 -59.5t64.5 -79t20.5 -80q0 -39 -11 -64.5t-27.5 -40t-34 -20.5t-31.5 -6q-39 0 -70.5 25.5t-31.5 83.5q0 25 7 48t7 50q0 47 -33 76t-119 29zM453 1085l-47 45q35 55 68.5 115t68.5 108t69.5 79.5t71.5 31.5q20 0 46 -15t26 -44 q0 -25 -19.5 -60.5t-68.5 -76.5z" />
<glyph unicode="&#x10c;" horiz-adv-x="1347" d="M1233 1417q0 -55 1 -102t4 -90t9 -86t15 -92l-74 -7q-4 106 -37 177t-83 113t-112.5 58.5t-126.5 16.5q-109 0 -204 -42t-164.5 -126t-109.5 -213t-40 -301q0 -330 135.5 -510t372.5 -180q68 0 130.5 21.5t116.5 59.5t96 88t69 109l69 -30q-84 -166 -217 -242t-305 -76 q-152 0 -276.5 50t-213.5 146.5t-138.5 238t-49.5 325.5q0 180 54.5 319.5t150.5 234.5t229.5 144t290.5 49q139 0 240.5 -18.5t167.5 -34.5zM729 1683l215 191l49 -47q-66 -92 -106.5 -150.5t-68 -92.5t-48 -46t-41.5 -12q-23 0 -42 12t-47 46t-69 92.5t-106 150.5l49 47z " />
<glyph unicode="&#x10d;" horiz-adv-x="983" d="M567 918q-57 0 -107 -27t-87 -82t-58.5 -139t-21.5 -197q0 -225 72.5 -332.5t212.5 -107.5q76 0 152.5 49t123.5 170q4 -2 10 -4q4 -2 10.5 -5t12.5 -5q14 -8 33 -15q-53 -117 -141.5 -187.5t-231.5 -70.5q-213 0 -335 134t-122 374q0 106 35 199.5t96.5 161t146.5 106.5 t185 39q94 0 161.5 -23.5t111.5 -59.5t64.5 -79t20.5 -80q0 -39 -11 -64.5t-27.5 -40t-34 -20.5t-31.5 -6q-39 0 -70.5 25.5t-31.5 83.5q0 25 7 48t7 50q0 47 -33 76t-119 29zM754 1464l53 -47q-66 -94 -107 -157.5t-69.5 -102.5t-49 -55.5t-42.5 -16.5q-23 0 -43.5 16.5 t-49 55.5t-69.5 102.5t-107 157.5l54 47l215 -207z" />
<glyph unicode="&#x10e;" horiz-adv-x="1536" d="M1434 719q0 -186 -55.5 -322.5t-152 -225.5t-228.5 -133t-285 -44q-61 0 -108.5 2t-87.5 4t-79 4t-88 2q-141 0 -278 -12v69q27 -4 48 -6t40 -2q72 0 101.5 36t29.5 132v987q0 96 -31 131t-102 35q-37 0 -86 -6v70q82 -4 149.5 -8.5t143.5 -4.5q66 0 146.5 6.5t197.5 6.5 q160 0 293 -39t229 -125t149.5 -223t53.5 -334zM1223 719q0 125 -23.5 242.5t-82 209t-158 146.5t-252.5 55q-80 0 -126 -6t-69 -24.5t-28 -50t-5 -81.5v-987q0 -51 7.5 -82.5t31 -49t68.5 -24t121 -6.5q143 0 241.5 54.5t159.5 144.5t88 210t27 249zM770 1683l215 191 l49 -47q-66 -92 -106.5 -150.5t-68.5 -92.5t-48 -46t-41 -12q-23 0 -42 12t-47 46t-69 92.5t-106 150.5l49 47z" />
<glyph unicode="&#x10f;" horiz-adv-x="1189" d="M289 424q0 -78 13 -147.5t42 -122t72 -83t104 -30.5q55 0 102.5 32.5t82 91t55 139.5t20.5 175q0 80 -11 155t-37.5 134t-72 95t-112.5 36q-57 0 -104.5 -37t-81 -101.5t-53 -151.5t-19.5 -185zM786 207q-6 -29 -26.5 -70t-58 -77.5t-93 -63.5t-129.5 -27 q-78 0 -147.5 32t-122.5 93.5t-85 151.5t-32 205q0 117 33 212t91 161.5t136 103.5t168 37q86 0 155.5 -38t110.5 -116l9 2q-8 27 -13.5 63.5t-7.5 75.5t-2 73v54v146q0 47 -3 75.5t-14.5 45t-32 21.5t-56.5 5q-16 0 -37 -1t-43 -5v68q27 -2 60.5 -3t60.5 -1q63 0 117.5 3 t125.5 25v-1182q0 -68 6.5 -110.5t19.5 -66t35.5 -33t55.5 -9.5q16 0 36.5 1t43.5 5v-67q-16 4 -32.5 4h-33.5q-66 0 -133 -9t-127 -26q-10 43 -17 100.5t-7 139.5zM1063 1063q61 33 94 77t33 77q0 39 -41 38q-27 0 -59.5 24t-32.5 79q0 47 31.5 74.5t80.5 27.5 q66 0 93.5 -49t27.5 -117q0 -98 -46 -160.5t-138 -121.5z" />
<glyph unicode="&#x118;" horiz-adv-x="1304" d="M287 1192q0 57 -5.5 92t-19.5 55.5t-40.5 27.5t-67.5 7q-16 0 -37 -1t-43 -3v70q135 -8 259 -10.5t240 -2.5q150 0 289 3.5t281 9.5q0 -55 2 -99.5t7 -87.5t11 -90t17 -108l-70 -11q-6 113 -31.5 177.5t-75 97.5t-122 40t-174.5 7q-86 0 -133.5 -6t-69 -24.5t-25.5 -53.5 t-4 -90v-414q35 -4 66.5 -4h58.5q98 0 150.5 15.5t77 44t28.5 69.5t6 94l70 -4q-8 -70 -12.5 -130t-4.5 -118q0 -63 4.5 -123.5t12.5 -121.5l-70 -4q-2 51 -7 92t-29.5 69.5t-77 43t-148.5 14.5h-59.5t-65.5 -4v-471q0 -55 4 -89t23.5 -52.5t62.5 -24.5t123 -6q125 0 208 9 t135 45t78 106.5t36 193.5l72 -10q-12 -61 -20.5 -112.5t-12.5 -100.5t-7 -98.5t-6 -106.5q-29 2 -55 3t-55 1q-78 -53 -117 -104.5t-39 -114.5q0 -66 32 -99.5t85 -33.5q43 0 90 22l25 -59q-29 -14 -68 -22.5t-72 -8.5q-111 0 -160 46t-49 116q0 47 19.5 87t49.5 71.5 t64.5 57.5t67.5 44q-227 6 -446 6q-121 0 -237 -2t-232 -10v69q25 -4 45 -4h39q37 0 62.5 7.5t39.5 27t20.5 55t6.5 91.5v952z" />
<glyph unicode="&#x119;" horiz-adv-x="1017" d="M932 219q-31 -70 -73 -122t-101 -85q-90 -57 -134 -111.5t-44 -121.5q0 -66 31.5 -99.5t84.5 -33.5q43 0 90 22l25 -59q-29 -14 -67.5 -22.5t-71.5 -8.5q-111 0 -160 46t-49 116q0 78 46 133t103 94q-16 -2 -33.5 -3t-35.5 -1q-104 0 -188.5 38t-142.5 104.5t-90 159.5 t-32 204q0 113 31 206t89 160.5t140 105.5t185 38q117 0 193.5 -43t122.5 -105.5t64.5 -133t18.5 -124.5q0 -35 -13.5 -55t-42 -30.5t-76.5 -13.5t-118 -3h-397q0 -225 75.5 -333.5t210.5 -108.5q37 0 78 11t81 35.5t74 65.5t58 103zM500 539q84 0 132 6t71.5 23.5t29.5 46 t6 73.5t-15 86t-42 73t-64.5 51.5t-82.5 19.5q-61 0 -107.5 -35t-77.5 -89.5t-46 -122t-15 -132.5h211z" />
<glyph unicode="&#x11a;" horiz-adv-x="1304" d="M287 1192q0 57 -5.5 92t-19.5 55.5t-40.5 27.5t-67.5 7q-16 0 -37 -1t-43 -3v70q135 -8 259 -10.5t240 -2.5q150 0 289 3.5t281 9.5q0 -55 2 -99.5t7 -87.5t11 -90t17 -108l-70 -11q-6 113 -31.5 177.5t-75 97.5t-122 40t-174.5 7q-86 0 -133.5 -6t-69 -24.5t-25.5 -53.5 t-4 -90v-414q35 -4 66.5 -4h58.5q98 0 150.5 15.5t77 44t28.5 69.5t6 94l70 -4q-8 -70 -12.5 -130t-4.5 -118q0 -63 4.5 -123.5t12.5 -121.5l-70 -4q-2 51 -7 92t-29.5 69.5t-77 43t-148.5 14.5h-59.5t-65.5 -4v-471q0 -55 4 -89t23.5 -52.5t62.5 -24.5t123 -6q125 0 208 9 t135 45t78 106.5t36 193.5l72 -10q-12 -61 -20.5 -112.5t-12.5 -100.5t-7 -98.5t-6 -106.5q-326 12 -628 12q-121 0 -237 -2t-232 -10v69q25 -4 45 -4h39q37 0 62.5 7.5t39.5 27t20.5 55t6.5 91.5v952zM707 1683l215 191l49 -47q-66 -92 -107 -150.5t-68.5 -92.5t-48 -46 t-40.5 -12q-23 0 -42.5 12t-47 46t-68.5 92.5t-107 150.5l50 47z" />
<glyph unicode="&#x11b;" horiz-adv-x="1017" d="M932 219q-53 -121 -144.5 -188.5t-244.5 -67.5q-104 0 -188.5 38t-142.5 104.5t-90 159.5t-32 204q0 113 31 206t89 160.5t140 105.5t185 38q117 0 193.5 -43t122.5 -105.5t64.5 -133t18.5 -124.5q0 -35 -13.5 -55t-42 -30.5t-76.5 -13.5t-118 -3h-397 q0 -225 75.5 -333.5t210.5 -108.5q37 0 78 11t81 35.5t74 65.5t58 103zM500 539q84 0 132 6t71.5 23.5t29.5 46t6 73.5t-15 86t-42 73t-64.5 51.5t-82.5 19.5q-61 0 -107.5 -35t-77.5 -89.5t-46 -122t-15 -132.5h211zM756 1464l53 -47q-66 -94 -106.5 -157.5t-69.5 -102.5 t-49.5 -55.5t-42.5 -16.5q-23 0 -43.5 16.5t-49 55.5t-69.5 102.5t-107 157.5l54 47l215 -207z" />
<glyph unicode="&#x141;" horiz-adv-x="1208" d="M475 819l150 70l37 -80l-187 -88v-481q0 -55 4 -89t23.5 -52.5t62.5 -24.5t123 -6q109 0 184.5 12t123.5 49t74 106.5t34 186.5l72 -10q-12 -61 -20.5 -112.5t-12.5 -100.5t-7 -98.5t-6 -106.5q-82 2 -155.5 5t-144 4t-141.5 2t-146 1q-121 0 -237 -2t-232 -10v69 q25 -4 45 -4h39q37 0 62.5 7.5t39.5 27t20.5 55t6.5 91.5v393l-168 -78l-37 80l205 96v459q0 63 -7.5 100t-23.5 55.5t-41 23.5t-61 5q-18 0 -37 -1t-43 -3v70q78 -2 151.5 -7.5t153.5 -5.5t155.5 4.5t153.5 8.5v-70q-25 2 -43 3t-37 1q-37 0 -61.5 -5t-41 -23.5 t-23.5 -55.5t-7 -100v-371z" />
<glyph unicode="&#x142;" horiz-adv-x="622" d="M221 625l-139 -70l-37 80l176 88v502q0 47 -3 75.5t-14 45t-31.5 21.5t-57.5 5q-16 0 -37 -1t-43 -5v68q25 -2 49.5 -3t48.5 -1q63 0 129 4t137 24v-645l148 76l41 -80l-189 -96v-469q0 -57 2 -93t11.5 -56.5t31 -28t62.5 -7.5h34.5t39.5 2v-67q-61 6 -126 10t-130 4 q-59 0 -124 -5t-122 -13v67q12 -2 27.5 -2h25.5q27 0 45.5 5.5t27.5 24.5t13 57t4 102v381z" />
<glyph unicode="&#x143;" horiz-adv-x="1624" d="M1274 272v938q0 53 -7 85t-24.5 49.5t-45.5 23.5t-67 6q-14 0 -31.5 -2t-33.5 -2v70q39 -4 68.5 -6t55 -3t54.5 -2.5t66 -1.5q39 0 66.5 1.5t54 2.5t56.5 3t73 6v-70q-23 2 -42.5 3t-35.5 1q-76 0 -104.5 -31.5t-28.5 -132.5v-1247h-84l-760 1114q-29 41 -65 98.5 t-77 131.5h-12v-1086q0 -98 29 -130t102 -32q16 0 36 1t42 3v-69q-41 2 -69.5 5t-54 4t-52.5 2t-66 1q-37 0 -65.5 -1t-56 -3t-58.5 -4t-71 -4v69q23 -2 43 -3t36 -1q74 0 102.5 32t28.5 130v989q0 98 -27.5 132t-98.5 34q-18 0 -39 -2t-45 -4v70q41 -4 73.5 -6t60 -3 t54.5 -2.5t57 -1.5q45 0 89 2.5t96 10.5q20 -35 33.5 -58.5t25.5 -42t23.5 -36t29.5 -43.5l541 -791q20 -31 36.5 -56.5t29 -48t24.5 -44t25 -48.5h10zM662 1526l-44 57q41 49 84 100.5t84 93.5t81 69.5t75 27.5q23 0 51.5 -16.5t28.5 -55.5q0 -25 -27.5 -54.5t-89.5 -64.5z " />
<glyph unicode="&#x144;" horiz-adv-x="1220" d="M1026 244q0 -57 2 -93t11.5 -56.5t31 -28t62.5 -7.5h34.5t38.5 2v-67q-61 6 -125.5 10t-130.5 4q-59 0 -123.5 -5t-121.5 -13v67q12 -2 27.5 -2h25.5q27 0 45 5.5t27.5 24.5t13.5 57t4 102v323q0 180 -40 258t-144 78q-39 0 -83 -20.5t-81 -69.5t-61.5 -130t-24.5 -200 v-239q0 -57 2 -93t11 -56.5t30.5 -28t62.5 -7.5h35t39 2v-67q-61 6 -126 10t-130 4q-59 0 -123.5 -5t-122.5 -13v67q12 -2 27.5 -2h25.5q27 0 45.5 5.5t27.5 24.5t13.5 57t4.5 102v418q0 68 -6.5 110.5t-19.5 66t-35.5 33t-55.5 9.5q-16 0 -37 -1t-43 -6v68q23 -4 43 -4h43 q57 0 114.5 6t118.5 23q10 -43 16.5 -94.5t6.5 -133.5l10 -2q4 27 26.5 68t62.5 78t98.5 63.5t136.5 26.5q100 0 160.5 -34t94.5 -87t45 -117.5t11 -126.5v-364zM561 1085l-47 45q35 55 68.5 115t68.5 108t70 79.5t72 31.5q20 0 45.5 -15t25.5 -44q0 -25 -19.5 -60.5 t-68.5 -76.5z" />
<glyph unicode="&#x147;" horiz-adv-x="1624" d="M1274 272v938q0 53 -7 85t-24.5 49.5t-45.5 23.5t-67 6q-14 0 -31.5 -2t-33.5 -2v70q39 -4 68.5 -6t55 -3t54.5 -2.5t66 -1.5q39 0 66.5 1.5t54 2.5t56.5 3t73 6v-70q-23 2 -42.5 3t-35.5 1q-76 0 -104.5 -31.5t-28.5 -132.5v-1247h-84l-760 1114q-29 41 -65 98.5 t-77 131.5h-12v-1086q0 -98 29 -130t102 -32q16 0 36 1t42 3v-69q-41 2 -69.5 5t-54 4t-52.5 2t-66 1q-37 0 -65.5 -1t-56 -3t-58.5 -4t-71 -4v69q23 -2 43 -3t36 -1q74 0 102.5 32t28.5 130v989q0 98 -27.5 132t-98.5 34q-18 0 -39 -2t-45 -4v70q41 -4 73.5 -6t60 -3 t54.5 -2.5t57 -1.5q45 0 89 2.5t96 10.5q20 -35 33.5 -58.5t25.5 -42t23.5 -36t29.5 -43.5l541 -791q20 -31 36.5 -56.5t29 -48t24.5 -44t25 -48.5h10zM1036 1970l54 -47q-66 -94 -107 -157.5t-69.5 -102.5t-49 -55.5t-43.5 -16.5t-43 16.5t-49 55.5t-70 102.5t-106 157.5 l53 47l215 -207z" />
<glyph unicode="&#x148;" horiz-adv-x="1220" d="M1026 244q0 -57 2 -93t11.5 -56.5t31 -28t62.5 -7.5h34.5t38.5 2v-67q-61 6 -125.5 10t-130.5 4q-59 0 -123.5 -5t-121.5 -13v67q12 -2 27.5 -2h25.5q27 0 45 5.5t27.5 24.5t13.5 57t4 102v323q0 180 -40 258t-144 78q-39 0 -83 -20.5t-81 -69.5t-61.5 -130t-24.5 -200 v-239q0 -57 2 -93t11 -56.5t30.5 -28t62.5 -7.5h35t39 2v-67q-61 6 -126 10t-130 4q-59 0 -123.5 -5t-122.5 -13v67q12 -2 27.5 -2h25.5q27 0 45.5 5.5t27.5 24.5t13.5 57t4.5 102v418q0 68 -6.5 110.5t-19.5 66t-35.5 33t-55.5 9.5q-16 0 -37 -1t-43 -6v68q23 -4 43 -4h43 q57 0 114.5 6t118.5 23q10 -43 16.5 -94.5t6.5 -133.5l10 -2q4 27 26.5 68t62.5 78t98.5 63.5t136.5 26.5q100 0 160.5 -34t94.5 -87t45 -117.5t11 -126.5v-364zM846 1464l53 -47q-66 -94 -106.5 -157.5t-69.5 -102.5t-49.5 -55.5t-42.5 -16.5q-23 0 -43.5 16.5t-49 55.5 t-69.5 102.5t-107 157.5l54 47l215 -207z" />
<glyph unicode="&#x152;" horiz-adv-x="2031" d="M799 1440q135 0 260 -6.5t241 -6.5q150 0 289.5 3.5t280.5 9.5q0 -55 2 -99.5t7 -87.5t11 -90t17 -108l-70 -11q-6 113 -31.5 177.5t-75 97.5t-122 40t-174.5 7q-86 0 -133.5 -6t-69 -24.5t-25.5 -53.5t-4 -90v-414q35 -4 66.5 -4h58.5q98 0 150.5 15.5t77 44t28.5 69.5 t6 94l70 -4q-8 -70 -12.5 -130t-4.5 -118q0 -63 4.5 -123.5t12.5 -121.5l-70 -4q-2 51 -7 92t-29.5 69.5t-77 43t-148.5 14.5h-59.5t-65.5 -4v-471q0 -55 4 -89t23.5 -52.5t62.5 -24.5t123 -6q125 0 208 9t135 45t78 106.5t36 193.5l72 -10q-12 -61 -20.5 -112.5 t-12.5 -100.5t-7 -98.5t-6 -106.5q-326 12 -628 12q-121 0 -238 -6t-233 -6q-147 0 -274.5 50t-221.5 143.5t-148.5 227.5t-54.5 302t54.5 301t148.5 227t221.5 144.5t274.5 50.5zM799 1374q-106 0 -196.5 -44t-155 -128t-100.5 -206t-36 -279q0 -158 36 -280t100.5 -206 t154.5 -128t197 -44q78 0 121 8.5t64.5 30t25.5 55t4 87.5v952q0 59 -6.5 95t-29 55.5t-65 25.5t-114.5 6z" />
<glyph unicode="&#x153;" horiz-adv-x="1724" d="M545 979q111 0 202 -47t152 -144q113 190 342 191q117 0 193.5 -43t123 -105.5t64.5 -133t18 -124.5q0 -37 -16 -58t-60 -30.5t-121 -11.5t-200 -2h-252q0 -225 77 -333.5t212 -108.5q37 0 78 11t81 35.5t73.5 65.5t58.5 103l67 -25q-53 -121 -144 -188.5t-245 -67.5 q-233 0 -350 191q-61 -98 -152.5 -144.5t-201.5 -46.5q-100 0 -183 37t-143.5 103.5t-94.5 159.5t-34 208t34 209t94.5 160.5t143.5 102.5t183 36zM283 471q0 -205 64.5 -325.5t197.5 -120.5q135 0 199.5 120.5t64.5 325.5t-64.5 326t-199.5 121q-133 0 -197.5 -121 t-64.5 -326zM1206 539q84 0 132 6t72 23.5t30 46t6 73.5t-15.5 86t-42 73t-64.5 51.5t-83 19.5q-61 0 -107.5 -35t-78 -89.5t-47 -122t-15.5 -132.5h213z" />
<glyph unicode="&#x158;" horiz-adv-x="1396" d="M475 244q0 -63 7 -100.5t23.5 -55.5t41 -23.5t61.5 -5.5q18 0 37 1t43 3v-69q-80 4 -161 7t-165 3q-70 0 -141 -3t-147 -7v69q25 -2 43 -3t37 -1q37 0 61.5 5.5t40.5 23.5t23.5 55t7.5 101v966q0 96 -30 131t-99 35q-37 0 -86 -6v70q137 -12 278 -13q45 0 67.5 2.5 t50.5 4.5t75 4t143 2q150 0 243 -36t145 -89t69.5 -112.5t17.5 -108.5q0 -70 -23.5 -131.5t-70.5 -108.5t-118.5 -76.5t-166.5 -36.5v-10q227 0 301 -250l95 -299q16 -74 58 -98.5t114 -24.5q12 0 25.5 1t29.5 3h12v-69q-47 4 -85 7t-81 3t-96 -5t-127 -15q-8 35 -16 75.5 t-19 81.5l-92 297q-16 55 -38.5 104.5t-62.5 86.5t-100.5 58.5t-148.5 21.5q-18 0 -36.5 -2t-39.5 -2v-461zM961 1094q0 61 -23 114.5t-62.5 92t-95 60t-121.5 21.5q-63 0 -100 -6t-55.5 -24.5t-23.5 -52t-5 -89.5v-442q25 -2 40 -2h32q193 0 303.5 87t110.5 241zM903 1970 l53 -47q-66 -94 -106.5 -157.5t-69 -102.5t-49 -55.5t-43.5 -16.5t-43 16.5t-49 55.5t-70 102.5t-106 157.5l53 47l215 -207z" />
<glyph unicode="&#x159;" horiz-adv-x="909" d="M393 737q14 51 44 95.5t69 76t83 50t87 18.5q119 0 167 -42t48 -108q0 -47 -25.5 -80.5t-83.5 -33.5q-53 0 -70.5 27.5t-25.5 59t-19.5 59.5t-52.5 28q-31 0 -65.5 -25.5t-65 -79t-50 -133.5t-19.5 -186v-219q0 -57 2 -93t11 -56.5t30.5 -28t62.5 -7.5h42t46 2v-67 q-61 6 -133 10t-137 4q-59 0 -123.5 -5t-122.5 -13v67q12 -2 27.5 -2h25.5q27 0 45.5 5.5t27.5 24.5t13.5 57t4.5 102v418q0 68 -6.5 110.5t-19.5 66t-35.5 33t-55.5 9.5q-16 0 -37 -1t-43 -6v68q23 -4 43 -4h43q57 0 114.5 6t118.5 23q10 -43 17.5 -94.5t7.5 -133.5z M676 1464l53 -47q-66 -94 -106.5 -157.5t-69.5 -102.5t-49.5 -55.5t-42.5 -16.5q-23 0 -43.5 16.5t-49 55.5t-69.5 102.5t-106 157.5l53 47l215 -207z" />
<glyph unicode="&#x15a;" horiz-adv-x="1173" d="M887 307q0 111 -56.5 176.5t-140.5 110.5t-182 81t-182 86t-140.5 125t-56.5 199q0 90 38 162t102.5 122t152.5 77t188 27q170 0 355 -50q0 -51 1 -93t5 -83t11 -87t19 -103l-77 -8q-2 61 -17.5 124.5t-52.5 115.5t-98.5 85t-155.5 33q-84 0 -140.5 -25.5t-92 -64.5 t-51 -86t-15.5 -90q0 -74 33 -124t87 -87t123.5 -65.5t142.5 -59.5t142.5 -65.5t124 -85t87 -121t32.5 -168.5q0 -100 -45 -176t-118.5 -126.5t-169 -75t-195.5 -24.5q-127 0 -216 15.5t-177 39.5q0 59 -2.5 108.5t-5.5 95.5t-11 94.5t-20 105.5l80 10q2 -61 17 -132 t54 -131t107.5 -100t179.5 -40q82 0 144.5 22.5t105.5 61.5t64.5 89t21.5 105zM440 1526l-43 57q41 49 84 100.5t84 93.5t81 69.5t75 27.5q23 0 51.5 -16.5t28.5 -55.5q0 -25 -28 -54.5t-89 -64.5z" />
<glyph unicode="&#x15b;" horiz-adv-x="911" d="M760 930v-70t2 -58.5t6 -55t12 -60.5l-65 -6q0 23 -8.5 62.5t-32 78.5t-69.5 68t-122 29q-47 0 -84 -14.5t-64.5 -37t-41.5 -53.5t-14 -63q0 -61 40.5 -97.5t101 -62t131.5 -48t131 -57t101 -90t41 -143.5q0 -80 -35.5 -134.5t-93 -89t-128 -50t-140.5 -15.5 q-84 0 -166 13.5t-147 41.5q0 51 -3 114t-14 136l66 6q2 -49 18.5 -94t47 -79.5t77.5 -55t109 -20.5q117 0 172 51t55 127q0 66 -40 103.5t-99.5 65t-130 50t-130 55.5t-99.5 85t-40 136q0 51 24 102.5t69 90.5t112.5 63.5t155.5 24.5q63 0 108 -5t79 -12.5t58.5 -16.5 t49.5 -15zM381 1085l-47 45q35 55 68.5 115t68.5 108t69.5 79.5t71.5 31.5q20 0 46 -15t26 -44q0 -25 -19.5 -60.5t-68.5 -76.5z" />
<glyph unicode="&#x160;" horiz-adv-x="1173" d="M887 307q0 111 -56.5 176.5t-140.5 110.5t-182 81t-182 86t-140.5 125t-56.5 199q0 90 38 162t102.5 122t152.5 77t188 27q170 0 355 -50q0 -51 1 -93t5 -83t11 -87t19 -103l-77 -8q-2 61 -17.5 124.5t-52.5 115.5t-98.5 85t-155.5 33q-84 0 -140.5 -25.5t-92 -64.5 t-51 -86t-15.5 -90q0 -74 33 -124t87 -87t123.5 -65.5t142.5 -59.5t142.5 -65.5t124 -85t87 -121t32.5 -168.5q0 -100 -45 -176t-118.5 -126.5t-169 -75t-195.5 -24.5q-127 0 -216 15.5t-177 39.5q0 59 -2.5 108.5t-5.5 95.5t-11 94.5t-20 105.5l80 10q2 -61 17 -132 t54 -131t107.5 -100t179.5 -40q82 0 144.5 22.5t105.5 61.5t64.5 89t21.5 105zM600 1683l215 191l49 -47q-66 -92 -106.5 -150.5t-68 -92.5t-48 -46t-41.5 -12q-23 0 -42 12t-47 46t-69 92.5t-106 150.5l49 47z" />
<glyph unicode="&#x161;" horiz-adv-x="911" d="M760 930v-70t2 -58.5t6 -55t12 -60.5l-65 -6q0 23 -8.5 62.5t-32 78.5t-69.5 68t-122 29q-47 0 -84 -14.5t-64.5 -37t-41.5 -53.5t-14 -63q0 -61 40.5 -97.5t101 -62t131.5 -48t131 -57t101 -90t41 -143.5q0 -80 -35.5 -134.5t-93 -89t-128 -50t-140.5 -15.5 q-84 0 -166 13.5t-147 41.5q0 51 -3 114t-14 136l66 6q2 -49 18.5 -94t47 -79.5t77.5 -55t109 -20.5q117 0 172 51t55 127q0 66 -40 103.5t-99.5 65t-130 50t-130 55.5t-99.5 85t-40 136q0 51 24 102.5t69 90.5t112.5 63.5t155.5 24.5q63 0 108 -5t79 -12.5t58.5 -16.5 t49.5 -15zM684 1464l53 -47q-66 -94 -106.5 -157.5t-69.5 -102.5t-49 -55.5t-43 -16.5t-43 16.5t-49 55.5t-70 102.5t-106 157.5l53 47l215 -207z" />
<glyph unicode="&#x164;" horiz-adv-x="1249" d="M719 244q0 -63 7 -100.5t23.5 -55.5t41 -23.5t61.5 -5.5q18 0 36.5 1t43.5 3v-69q-78 4 -154 8t-155 4q-80 0 -154 -4t-152 -8v69q25 -2 43.5 -3t36.5 -1q37 0 61.5 5.5t41 23.5t23.5 55t7 101v934q0 70 -10 108.5t-32.5 56t-58.5 20.5t-87 3q-84 0 -128 -28.5 t-64.5 -73.5t-25.5 -101.5t-13 -113.5l-74 12q12 55 18 101t9.5 90t5.5 89t2 99q41 -4 112.5 -6t152.5 -3t157.5 -2.5t130.5 -1.5q53 0 131 1.5t157.5 2.5t151.5 3t113 6q0 -53 2 -98.5t5 -89.5t9 -90t18 -101l-73 -12q-8 57 -13.5 113.5t-26 101.5t-64.5 73.5t-128 28.5 q-51 0 -87 -3t-58.5 -20.5t-32.5 -56.5t-10 -108v-934zM840 1970l53 -47q-66 -94 -107 -157.5t-69.5 -102.5t-49 -55.5t-42.5 -16.5q-23 0 -43.5 16.5t-49 55.5t-69.5 102.5t-107 157.5l54 47l215 -207z" />
<glyph unicode="&#x165;" horiz-adv-x="688" d="M33 872v70q84 0 139 18.5t87 56.5t44 96t12 138h68v-309h248v-70h-248v-641q0 -35 3 -68.5t12.5 -59t26.5 -41t46 -15.5q45 0 80 34t78 112l53 -35q-98 -195 -266 -195q-102 0 -156.5 65.5t-54.5 196.5v647h-172zM549 1057q61 33 93 78t32 75q0 25 -20.5 31t-45 14.5 t-45 26.5t-20.5 70q0 47 31.5 74.5t80.5 27.5q66 0 93.5 -49t27.5 -117q0 -53 -12 -93t-35.5 -71.5t-59.5 -60.5t-81 -57z" />
<glyph unicode="&#x16e;" horiz-adv-x="1570" d="M446 596q0 -92 4.5 -158.5t13.5 -117t25.5 -88t42.5 -70.5q59 -72 135 -101.5t152 -29.5q123 0 201 45t131 121q59 84 72.5 223t13.5 317v473q0 100 -30.5 132t-106.5 32q-18 0 -38 -1t-42 -3v70q41 -2 72.5 -4t61.5 -4t60.5 -3.5t67.5 -1.5t63.5 1.5t52 3.5t54.5 4t70 4 v-70q-25 2 -45.5 3t-38.5 1q-72 0 -97.5 -32.5t-25.5 -131.5v-475q0 -94 -2 -173t-11.5 -148.5t-29 -131t-55.5 -118.5q-55 -88 -164 -144.5t-248 -56.5q-129 0 -230.5 30t-172 101.5t-107.5 190t-37 295.5v610q0 63 -7 100t-23.5 55.5t-41 23.5t-61.5 5q-18 0 -36.5 -1 t-43.5 -3v70q78 -6 151.5 -9.5t153.5 -3.5t156 3.5t153 9.5v-70q-25 2 -43 3t-36 1q-37 0 -61.5 -5t-41 -23.5t-24 -55.5t-7.5 -100v-594zM840 1870q80 0 127 -51.5t47 -118.5q0 -70 -47 -121t-127 -51t-127 51t-47 121q0 68 47 119t127 51zM737 1700q0 -53 30 -84t73 -31 q45 0 73.5 31t28.5 84q0 51 -28.5 81.5t-73.5 30.5q-43 0 -73 -30.5t-30 -81.5z" />
<glyph unicode="&#x16f;" horiz-adv-x="1210" d="M834 199q-4 -29 -25 -68t-59.5 -73.5t-97 -59.5t-136.5 -25q-100 0 -161.5 33t-96.5 85t-47 115.5t-12 125.5v401q0 47 -3 76t-14.5 45t-32 21.5t-57.5 5.5q-16 0 -36.5 -1t-43.5 -6v68q31 -2 62.5 -3t64.5 -1q57 0 116.5 6t121.5 23v-596q0 -180 43 -254t145 -74 q39 0 84 19.5t83 66.5t62.5 126t24.5 200v278q0 47 -3 76t-14 45t-31.5 21.5t-57.5 5.5q-16 0 -37 -1t-43 -6v68q31 -2 62.5 -3t64.5 -1q57 0 116.5 6t120.5 23v-691q0 -68 6.5 -110.5t19.5 -66t35.5 -33t55.5 -9.5q16 0 36.5 3t43.5 8v-68q-18 2 -36.5 3t-37.5 1 q-59 0 -120.5 -8t-131.5 -23q-10 43 -16 93.5t-6 132.5h-12zM416 1257q0 74 51 125.5t125 51.5t126 -51.5t52 -125.5t-52 -124t-126 -50t-125 50t-51 124zM479 1257q0 -47 33 -79.5t80 -32.5t81 32.5t34 79.5t-34 81t-81 34t-80 -34t-33 -81z" />
<glyph unicode="&#x178;" horiz-adv-x="1310" d="M748 244q0 -63 7 -100.5t23.5 -55.5t41 -23.5t61.5 -5.5q18 0 36.5 1t43.5 3v-69q-78 6 -154 9t-156 3t-153.5 -3t-151.5 -9v69q25 -2 43.5 -3t36.5 -1q37 0 61.5 5.5t41 23.5t23.5 55t7 101v362l-330 594q-23 39 -39 71t-35.5 55.5t-45 35.5t-64.5 12q-10 0 -21.5 -1 t-23.5 -3v70q63 -6 121.5 -9.5t136.5 -3.5q74 0 164 4.5l170 8.5v-70q-29 2 -51.5 3t-42.5 1q-53 0 -81 -11t-28 -42q0 -39 45 -121l180 -319q23 -41 44.5 -83t43.5 -106h9l202 357q55 98 83 161.5t28 98.5q0 37 -26.5 51t-77.5 14q-16 0 -37 -1t-43 -3v70q70 -4 121 -7 t110 -3q55 0 82 1t46.5 2t42 3t67.5 4v-70q-10 2 -17.5 2h-17.5q-41 0 -69.5 -15.5t-51.5 -41t-41 -61t-41 -74.5l-323 -574v-362zM371 1700q0 47 33.5 82t80.5 35t82 -35t35 -82t-35 -81t-82 -34t-80.5 34t-33.5 81zM745 1700q0 47 34 82t81 35t82 -35t35 -82t-35 -81 t-82 -34t-81 34t-34 81z" />
<glyph unicode="&#x179;" horiz-adv-x="1208" d="M756 1176q10 16 25.5 40.5t34 51t36.5 51t33 41.5q-55 4 -98.5 4h-94.5h-164q-86 0 -148.5 -9t-105.5 -42t-66.5 -96.5t-29.5 -172.5l-72 11q10 57 17.5 98t11.5 74t5 64.5t1 74.5v74q102 -4 224 -8.5t239 -4.5h135h82t71 2.5t80 4.5t111 6l23 -49l-672 -1090 q-18 -29 -33.5 -53.5t-32 -49t-36 -53t-45.5 -67.5q33 -4 67.5 -5t77.5 -2t96.5 -1h126.5q104 0 179 14t123.5 53t74 108.5t31.5 178.5l74 -10q-14 -70 -22.5 -120t-13.5 -95t-7 -93.5t-2 -111.5q-102 4 -246 8t-293 4h-148.5t-106.5 -2t-95 -4t-117 -6l-31 41zM451 1526 l-43 57q41 49 84 100.5t83.5 93.5t80.5 69.5t75 27.5q23 0 51.5 -16.5t28.5 -55.5q0 -25 -27.5 -54.5t-89.5 -64.5z" />
<glyph unicode="&#x17a;" horiz-adv-x="944" d="M367 870q-104 0 -149.5 -62.5t-53.5 -186.5l-62 8q10 53 16.5 89t9.5 67.5t3 63.5v75v24q47 -6 140.5 -9t199.5 -3q98 0 191.5 3t158.5 9l21 -49l-480 -717q-29 -43 -46 -65.5t-40 -44.5h287q76 0 122 19.5t70.5 54t33 85t12.5 111.5l65 -8q-12 -57 -18 -98t-9 -78 t-3 -75v-89q-49 4 -151.5 8t-219.5 4q-109 0 -211 -3t-166 -9l-18 49l456 678q29 41 55.5 78t55.5 71h-270zM377 1085l-47 45q35 55 68.5 115t68.5 108t69.5 79.5t71.5 31.5q20 0 46 -15t26 -44q0 -25 -19.5 -60.5t-68.5 -76.5z" />
<glyph unicode="&#x17b;" horiz-adv-x="1208" d="M756 1176q10 16 25.5 40.5t34 51t36.5 51t33 41.5q-55 4 -98.5 4h-94.5h-164q-86 0 -148.5 -9t-105.5 -42t-66.5 -96.5t-29.5 -172.5l-72 11q10 57 17.5 98t11.5 74t5 64.5t1 74.5v74q102 -4 224 -8.5t239 -4.5h135h82t71 2.5t80 4.5t111 6l23 -49l-672 -1090 q-18 -29 -33.5 -53.5t-32 -49t-36 -53t-45.5 -67.5q33 -4 67.5 -5t77.5 -2t96.5 -1h126.5q104 0 179 14t123.5 53t74 108.5t31.5 178.5l74 -10q-14 -70 -22.5 -120t-13.5 -95t-7 -93.5t-2 -111.5q-102 4 -246 8t-293 4h-148.5t-106.5 -2t-95 -4t-117 -6l-31 41zM485 1700 q0 57 35 92t90 35t90 -35t35 -92q0 -55 -34.5 -89t-90.5 -34q-55 0 -90 34t-35 89z" />
<glyph unicode="&#x17c;" horiz-adv-x="944" d="M367 870q-104 0 -149.5 -62.5t-53.5 -186.5l-62 8q10 53 16.5 89t9.5 67.5t3 63.5v75v24q47 -6 140.5 -9t199.5 -3q98 0 191.5 3t158.5 9l21 -49l-480 -717q-29 -43 -46 -65.5t-40 -44.5h287q76 0 122 19.5t70.5 54t33 85t12.5 111.5l65 -8q-12 -57 -18 -98t-9 -78 t-3 -75v-89q-49 4 -151.5 8t-219.5 4q-109 0 -211 -3t-166 -9l-18 49l456 678q29 41 55.5 78t55.5 71h-270zM379 1249q0 57 35 92t90 35t90 -34.5t35 -92.5q0 -55 -35 -89t-90 -34t-90 34t-35 89z" />
<glyph unicode="&#x17d;" horiz-adv-x="1208" d="M756 1176q10 16 25.5 40.5t34 51t36.5 51t33 41.5q-55 4 -98.5 4h-94.5h-164q-86 0 -148.5 -9t-105.5 -42t-66.5 -96.5t-29.5 -172.5l-72 11q10 57 17.5 98t11.5 74t5 64.5t1 74.5v74q102 -4 224 -8.5t239 -4.5h135h82t71 2.5t80 4.5t111 6l23 -49l-672 -1090 q-18 -29 -33.5 -53.5t-32 -49t-36 -53t-45.5 -67.5q33 -4 67.5 -5t77.5 -2t96.5 -1h126.5q104 0 179 14t123.5 53t74 108.5t31.5 178.5l74 -10q-14 -70 -22.5 -120t-13.5 -95t-7 -93.5t-2 -111.5q-102 4 -246 8t-293 4h-148.5t-106.5 -2t-95 -4t-117 -6l-31 41zM610 1683 l215 191l49 -47q-66 -92 -106.5 -150.5t-68 -92.5t-48 -46t-41.5 -12q-23 0 -42 12t-46.5 46t-68.5 92.5t-107 150.5l49 47z" />
<glyph unicode="&#x17e;" horiz-adv-x="944" d="M367 870q-104 0 -149.5 -62.5t-53.5 -186.5l-62 8q10 53 16.5 89t9.5 67.5t3 63.5v75v24q47 -6 140.5 -9t199.5 -3q98 0 191.5 3t158.5 9l21 -49l-480 -717q-29 -43 -46 -65.5t-40 -44.5h287q76 0 122 19.5t70.5 54t33 85t12.5 111.5l65 -8q-12 -57 -18 -98t-9 -78 t-3 -75v-89q-49 4 -151.5 8t-219.5 4q-109 0 -211 -3t-166 -9l-18 49l456 678q29 41 55.5 78t55.5 71h-270zM719 1464l53 -47q-66 -94 -106.5 -157.5t-69.5 -102.5t-49.5 -55.5t-42.5 -16.5q-23 0 -43.5 16.5t-49 55.5t-69.5 102.5t-106 157.5l53 47l215 -207z" />
<glyph unicode="&#x2c6;" horiz-adv-x="819" d="M410 1290l-222 -205l-47 48q66 94 107 157.5t69.5 102.5t49 55t43.5 16t43 -16t48.5 -55t69.5 -102.5t107 -157.5l-47 -48z" />
<glyph unicode="&#x2da;" horiz-adv-x="819" d="M233 1257q0 74 51.5 125.5t125.5 51.5t126 -51.5t52 -125.5t-52.5 -124t-125.5 -50q-74 0 -125.5 50t-51.5 124zM297 1257q0 -47 32.5 -79.5t80.5 -32.5q47 0 80.5 32.5t33.5 79.5t-33.5 81t-80.5 34t-80 -34t-33 -81z" />
<glyph unicode="&#x2dc;" horiz-adv-x="819" d="M739 1311q-49 -96 -107.5 -136t-117.5 -40q-49 0 -84 18t-62.5 39.5t-53 40t-60.5 18.5q-27 0 -57.5 -21.5t-61.5 -72.5l-57 33q49 96 107.5 136t117.5 40q49 0 83 -18.5t61.5 -40t54 -40t61.5 -18.5q27 0 57.5 21.5t61.5 72.5z" />
<glyph unicode="&#x2013;" d="M958 551v-82h-892v82h892z" />
<glyph unicode="&#x2014;" horiz-adv-x="1638" d="M1522 551v-82h-1405v82h1405z" />
<glyph unicode="&#x2018;" horiz-adv-x="518" d="M236 1233q0 -14 5 -25.5t27 -11.5q59 0 95 -40t36 -99q0 -57 -40 -97t-99 -40q-68 0 -108.5 52t-40.5 124q0 63 24.5 121.5t59 108.5t72.5 88t65 59l47 -50q-12 -10 -36 -31.5t-48.5 -49t-41.5 -56t-17 -53.5z" />
<glyph unicode="&#x2019;" horiz-adv-x="509" d="M287 1149q0 14 -5.5 25.5t-27.5 11.5q-59 0 -95 40t-36 99q0 57 40 97t99 40q68 0 109 -52t41 -124q0 -63 -25 -121.5t-59.5 -108.5t-72.5 -88t-65 -59l-47 49q12 8 36 31t48.5 50.5t42 56t17.5 53.5z" />
<glyph unicode="&#x201a;" horiz-adv-x="552" d="M295 -37q0 14 -5 25.5t-28 11.5q-59 0 -95 40t-36 99q0 57 40 97t99 40q68 0 109 -52t41 -124q0 -63 -24.5 -121.5t-59.5 -108.5t-73 -88t-64 -58l-47 49q12 8 35.5 30.5t48 50t42 56t17.5 53.5z" />
<glyph unicode="&#x201c;" horiz-adv-x="911" d="M629 1233q0 -14 5 -25.5t28 -11.5q59 0 95 -40t36 -99q0 -57 -40 -97t-100 -40q-68 0 -108.5 52t-40.5 124q0 63 24.5 121.5t59.5 108.5t72.5 88t64.5 59l47 -50q-12 -10 -35.5 -31.5t-48 -49t-42 -56t-17.5 -53.5zM236 1233q0 -14 5 -25.5t27 -11.5q59 0 95 -40t36 -99 q0 -57 -40 -97t-99 -40q-68 0 -108.5 52t-40.5 124q0 63 24.5 121.5t59 108.5t72.5 88t65 59l47 -50q-12 -10 -36 -31.5t-48.5 -49t-41.5 -56t-17 -53.5z" />
<glyph unicode="&#x201d;" horiz-adv-x="903" d="M287 1149q0 14 -5.5 25.5t-27.5 11.5q-59 0 -95 40t-36 99q0 57 40 97t99 40q68 0 109 -52t41 -124q0 -63 -25 -121.5t-59.5 -108.5t-72.5 -88t-65 -59l-47 49q12 8 36 31t48.5 50.5t42 56t17.5 53.5zM680 1149q0 14 -5 25.5t-28 11.5q-59 0 -95 40t-36 99q0 57 40 97 t99 40q68 0 109 -52t41 -124q0 -63 -24.5 -121.5t-59.5 -108.5t-73 -88t-64 -59l-47 49q12 8 35.5 31t48 50.5t42 56t17.5 53.5z" />
<glyph unicode="&#x201e;" horiz-adv-x="946" d="M295 -37q0 14 -5 25.5t-28 11.5q-59 0 -95 40t-36 99q0 57 40 97t99 40q68 0 109 -52t41 -124q0 -63 -24.5 -121.5t-59.5 -108.5t-73 -88t-64 -58l-47 49q12 8 35.5 30.5t48 50t42 56t17.5 53.5zM688 -37q0 14 -5 25.5t-28 11.5q-59 0 -95 40t-36 99q0 57 40 97t100 40 q68 0 108.5 -52t40.5 -124q0 -63 -24.5 -121.5t-59.5 -108.5t-73 -88t-64 -58l-47 49q12 8 35.5 30.5t48 50t42 56t17.5 53.5z" />
<glyph unicode="&#x2022;" horiz-adv-x="876" d="M438 961q57 0 106.5 -20.5t86.5 -57.5t58.5 -87.5t21.5 -107.5t-21.5 -106.5t-58.5 -86t-86 -57t-107 -20.5q-57 0 -106 20.5t-86 57t-58.5 86t-21.5 106.5t21.5 107.5t58.5 87.5t86 57.5t106 20.5z" />
<glyph unicode="&#x2026;" horiz-adv-x="1601" d="M125 115q0 59 42 101t101 42t101.5 -42t42.5 -101t-42 -101.5t-102 -42.5q-59 0 -101 42.5t-42 101.5zM657 115q0 59 42 101t102 42q59 0 101 -42t42 -101t-42 -101.5t-101 -42.5t-101.5 42.5t-42.5 101.5zM1190 115q0 59 42 101t101 42t101.5 -42t42.5 -101t-42 -101.5 t-102 -42.5q-59 0 -101 42.5t-42 101.5z" />
<glyph unicode="&#x2039;" horiz-adv-x="563" d="M463 133l-45 -33l-242 275q-35 39 -60.5 64.5t-23.5 64.5q0 39 24.5 63.5t59.5 65.5l242 274l45 -33l-193 -370z" />
<glyph unicode="&#x203a;" horiz-adv-x="563" d="M293 504l-193 370l45 33l242 -274q35 -39 59.5 -65.5t24.5 -63.5t-24.5 -63.5t-59.5 -65.5l-242 -275l-45 33z" />
<glyph unicode="&#x20ac;" horiz-adv-x="1384" d="M221 653q-2 16 -2 32.5v33.5q0 23 1 45t3 45h-104l20 74h92q20 143 77 252.5t140.5 184.5t189 112.5t224.5 37.5q35 0 83 -3t99.5 -9t97.5 -16t77 -25q0 -59 2 -118.5t8 -116.5l10 -95l-74 -6q-4 106 -32.5 171t-72.5 98.5t-100.5 44t-111.5 10.5q-80 0 -149.5 -32 t-125 -96.5t-93.5 -162.5t-52 -231h578l-21 -74h-563q-2 -23 -2 -45.5v-44.5v-66h526l-20 -73h-502q23 -281 132.5 -416t287.5 -135q55 0 114.5 16t109.5 56t84 110t40 178l74 -8q-8 -49 -13.5 -85t-8.5 -67.5t-4 -66.5t-1 -80v-66q-59 -16 -160.5 -34.5t-226.5 -18.5 q-260 0 -426 159t-201 458h-166l21 73h141z" />
<glyph unicode="&#x2122;" horiz-adv-x="1699" d="M446 885q0 -59 11.5 -71.5t40.5 -12.5h14q4 0 16.5 1t18.5 1v-45q-49 4 -87 6t-69 2q-33 0 -69.5 -2t-85.5 -6v45q6 0 18 -1t16 -1h15q29 0 40 12t11 72v424q0 33 -4 50t-13.5 25.5t-23.5 9.5t-35 1q-29 0 -47 -10.5t-28.5 -27t-14.5 -38t-6 -43.5l-2 -27l-49 6 q10 47 12 84t2 95q18 -2 52 -3t72 -2.5t76 -1.5h64h63t76.5 1.5t74.5 2.5t54 3q0 -51 2.5 -89t12.5 -90l-51 -6l-2 27q-4 45 -21.5 82t-77.5 37q-20 0 -34.5 -1t-23.5 -9.5t-13.5 -26t-4.5 -49.5v-424zM1339 1231q0 23 1 40t3 40h-8l-205 -533h-65l-176 459q-8 18 -14.5 43 t-10.5 37h-8v-443q0 -45 13.5 -59t48.5 -14h16t18 2v-43q-43 0 -64.5 3t-60.5 3q-35 0 -64.5 -1t-66.5 -5v43q10 0 17.5 -1t13.5 -1q39 0 55.5 13t16.5 60v447q0 45 -10.5 59.5t-45.5 14.5q-8 0 -17 -1t-19 -1v41q35 0 68.5 -2t68.5 -2q41 0 90 6q4 -18 11 -43t18 -47 l159 -428l199 518q35 -4 50 -5t26 -1q35 0 72.5 1t78.5 3v-43q-12 2 -21 2h-20q-33 0 -47 -14.5t-14 -57.5v-436q0 -59 11 -71.5t40 -12.5h16h12.5t20.5 2v-45q-47 4 -85 6t-68 2q-33 0 -70 -2t-86 -6v45q12 -2 21.5 -2h13.5h16q27 0 39 12t12 72v346z" />
<glyph unicode="&#x25fc;" horiz-adv-x="952" d="M0 952h952v-952h-952v952z" />
<glyph unicode="&#x2715;" d="M217 1079l299 -301l297 297l59 -61l-294 -295l299 -301l-66 -66l-301 299l-297 -297l-59 62l297 297l-301 299z" />
<glyph horiz-adv-x="821" d="M156 758h510v-82h-510v82z" />
<glyph horiz-adv-x="1204" d="M981 758v-82h-893v82h893z" />
<glyph horiz-adv-x="1716" d="M1544 758v-82h-1405v82h1405z" />
<glyph horiz-adv-x="821" d="M156 758h510v-82h-510v82z" />
<glyph horiz-adv-x="946" d="M481 346l-45 -33l-241 275q-35 39 -59.5 65.5t-24.5 63.5t24.5 63.5t59.5 65.5l241 274l45 -33l-192 -370zM807 346l-45 -33l-242 275q-35 39 -59.5 65.5t-24.5 63.5t24.5 63.5t59.5 65.5l242 274l45 -33l-193 -370z" />
<glyph horiz-adv-x="946" d="M657 717l-192 370l45 33l242 -274q35 -39 59.5 -65.5t24.5 -63.5t-25 -63.5t-59 -65.5l-242 -275l-45 33zM332 717l-193 370l45 33l242 -274q35 -39 59.5 -65.5t24.5 -63.5t-24.5 -63.5t-59.5 -65.5l-242 -275l-45 33z" />
<glyph horiz-adv-x="620" d="M481 346l-45 -33l-241 275q-35 39 -60.5 64.5t-23.5 64.5q0 39 24.5 63.5t59.5 65.5l241 274l45 -33l-192 -370z" />
<glyph horiz-adv-x="620" d="M332 717l-193 370l45 33l242 -274q35 -39 59.5 -65.5t24.5 -63.5t-24.5 -63.5t-59.5 -65.5l-242 -275l-45 33z" />
<glyph horiz-adv-x="616" d="M289 713q0 -166 21.5 -308.5t59.5 -263.5t89 -219t110 -172l-49 -39q-96 119 -176 243t-136 250t-87 253t-31 256t31 254t87 247.5t136 242.5t176 241l49 -39q-121 -150 -200.5 -383t-79.5 -563z" />
<glyph horiz-adv-x="616" d="M328 707q0 166 -21.5 307t-59.5 260t-89.5 215t-110.5 170l49 39q96 -121 176 -242t136.5 -245t87 -249.5t30.5 -254.5t-30.5 -256t-88 -251t-136 -247t-175.5 -242l-49 39q59 74 110.5 171t89.5 217t59.5 261.5t21.5 307.5z" />
<glyph horiz-adv-x="632" d="M571 -137v-78h-368v1821h368v-78h-200v-1665h200z" />
<glyph horiz-adv-x="632" d="M262 -137v1665h-201v78h369v-1821h-369v78h201z" />
<glyph horiz-adv-x="624" d="M377 918q0 -88 -29 -141.5t-108 -74.5v-8q80 -20 108.5 -73.5t28.5 -141.5v-436q0 -31 6 -63.5t25.5 -61.5t54.5 -52.5t92 -31.5v-49q-37 0 -95.5 10t-113.5 40t-94 84t-39 144v447q0 41 -4 70.5t-19.5 49t-44 30t-77.5 16.5q-8 8 -9 22q0 14 9 23q49 4 77.5 15.5t44 34 t19.5 57t4 83.5v416q0 90 39 144.5t93 84t112.5 40t95.5 10.5v-50q-57 -10 -92 -32.5t-53.5 -51t-24.5 -61.5t-6 -63v-430v0z" />
<glyph horiz-adv-x="624" d="M248 1348q0 31 -6 63.5t-24.5 61t-53.5 51t-92 32.5v50q37 0 95 -10.5t112.5 -40t93.5 -84t39 -144.5v-416q0 -49 4 -83.5t19.5 -57t44 -34t77.5 -15.5q8 -8 8 -23q0 -14 -8 -22q-49 -6 -77.5 -16.5t-44 -30t-19.5 -49t-4 -70.5v-447q0 -90 -39 -144t-94.5 -84t-114 -40 t-94.5 -10v49q57 8 92 31.5t54.5 52.5t25.5 61.5t6 63.5v436q0 88 28.5 141.5t108.5 73.5v8q-80 20 -108.5 73.5t-28.5 142.5v430z" />
<glyph horiz-adv-x="516" d="M313 -328h-110v2048h110v-2048z" />
<glyph horiz-adv-x="512" d="M311 -188h-110v749h110v-749zM311 836h-110v749h110v-749z" />
<glyph d="M561 1186v-424h418v-86h-418v-424h-94v424h-420v86h420v424h94z" />
<glyph d="M977 911v-82h-930v82h930zM977 604v-82h-930v82h930z" />
<glyph horiz-adv-x="1828" d="M1028 446q-6 -10 -26.5 -34.5t-52 -51t-75 -47t-94.5 -20.5q-31 0 -74.5 8t-84.5 40t-71 96.5t-30 174.5q0 88 33 179.5t91 165t135 120.5t167 47q51 0 83 -9t53.5 -21.5t40 -21.5t44.5 -9q29 0 44.5 4t37.5 31l49 -8q-27 -113 -50 -221.5t-40 -219.5q-6 -35 -13 -74.5 t-7 -78.5q0 -57 23.5 -99.5t88.5 -42.5q63 0 123 39t105 105.5t71.5 158t26.5 195.5q0 156 -49 267.5t-132 183t-194.5 105.5t-236.5 34q-141 0 -280.5 -50.5t-250 -149.5t-179 -246.5t-68.5 -340.5q0 -176 52 -305t140 -213t206 -125t249 -41q102 0 211 27l10 -66 q-143 -29 -258 -28q-180 0 -319.5 56t-234.5 155.5t-144.5 235.5t-49.5 296q0 156 58.5 311.5t173 279.5t285.5 201t397 77q190 0 331.5 -54.5t234.5 -145.5t138 -211t45 -251q0 -119 -39 -223.5t-105.5 -181t-153.5 -120.5t-183 -44q-111 0 -174.5 41t-63.5 118zM672 582 q0 -117 32.5 -169.5t96.5 -52.5q61 0 116.5 46.5t97.5 118t67.5 157.5t25.5 166q0 37 -6 75t-21.5 68.5t-40 50t-63.5 19.5q-51 0 -105.5 -40t-98.5 -106.5t-72.5 -152.5t-28.5 -180z" />
<glyph d="M561 1206v-362h357v-86h-357v-363h-94v363h-358v86h358v362h94zM109 227v86h809v-86h-809z" />
<glyph d="M858 831h-807v82h889v-479h-82v397z" />
<glyph d="M401 428q0 47 32 78t79 31t78 -31t31 -78t-31 -79t-78 -32t-79 32t-32 79zM401 1004q0 47 32 77.5t79 30.5t78 -30.5t31 -77.5t-31 -79t-78 -32t-79 32t-32 79zM977 758v-82h-930v82h930z" />
<glyph horiz-adv-x="1222" d="M109 715q0 178 34.5 318.5t99 237.5t158 148t211.5 51q117 0 210 -51t157.5 -148t99.5 -237.5t35 -318.5t-35 -317.5t-99.5 -235.5t-157.5 -147.5t-210 -51.5q-119 0 -212 51.5t-157.5 147.5t-99 235.5t-34.5 317.5zM311 715q0 -328 69 -507t232 -179q162 0 230.5 179 t68.5 507t-68.5 509t-230.5 181q-164 0 -232.5 -181t-68.5 -509z" />
<glyph horiz-adv-x="884" d="M635 244q0 -63 7 -100.5t23.5 -55.5t41 -23.5t61.5 -5.5q18 0 42 1t48 3v-69q-78 4 -159 8t-160 4q-80 0 -175.5 -4t-173.5 -8v69q25 -2 65 -3t58 -1q37 0 61.5 5.5t41 23.5t23.5 55t7 101v839q0 100 -24.5 138.5t-65.5 38.5q-29 0 -69.5 -14.5t-81.5 -35t-78 -42 t-57 -33.5l-31 86q104 37 178 66.5t131.5 57t107.5 57.5t111 71l80 -37q-4 -51 -8 -97.5t-4 -121.5v-973z" />
<glyph horiz-adv-x="1114" d="M782 1118q0 59 -18.5 111.5t-52 91.5t-85 61.5t-114.5 22.5q-39 0 -76 -10.5t-64.5 -27.5t-44 -40.5t-16.5 -50.5q0 -31 4 -44t8.5 -24.5t8.5 -27t4 -45.5q0 -49 -34 -82t-75 -33q-53 0 -88 29.5t-35 101.5q0 61 31 118.5t87.5 102.5t136 71.5t180.5 26.5 q111 0 193.5 -33.5t138 -87t84 -118t28.5 -127.5q0 -100 -32.5 -174t-87 -131.5t-123 -101.5t-141.5 -85t-141.5 -83t-123.5 -95t-90 -120.5t-37 -161.5q16 6 49 8t67.5 4t68.5 2h52h306q78 0 116.5 28.5t55 67.5t17.5 76t5 55l78 -10q-20 -96 -29.5 -162.5t-9.5 -136.5 q0 -23 1 -44.5t3 -45.5q-106 10 -181 11t-140 1h-252h-87t-78 -2l-76 -4t-81 -6q0 127 30 221t78 166t110.5 127t127 105.5t127 98.5t110.5 106.5t77.5 130t29.5 169.5z" />
<glyph horiz-adv-x="1134" d="M352 1145q0 -53 -32.5 -86t-73.5 -33q-53 0 -88 33t-35 98q0 61 30.5 117.5t87 100.5t136.5 69.5t180 25.5q117 0 200 -32.5t136 -83.5t77.5 -114.5t24.5 -125.5q0 -115 -41 -186.5t-97 -112.5t-113.5 -56.5t-88.5 -15.5v-10q33 0 95.5 -11t124 -49t106.5 -109.5 t45 -190.5q0 -121 -49 -200t-123 -126t-157 -65.5t-150 -18.5q-223 0 -341 91t-118 233q0 23 6 46t20.5 42.5t40 32t64.5 12.5q57 0 83 -38t26 -75q0 -31 -4.5 -49t-10.5 -31.5t-10 -28t-4 -36.5q0 -72 64.5 -102.5t162.5 -30.5q59 0 113.5 23.5t95.5 69.5t65.5 113.5 t24.5 155.5q0 96 -31.5 156.5t-81.5 95.5t-110.5 48.5t-116.5 13.5q-16 0 -32.5 -1.5t-32.5 -3.5v76q14 0 28.5 -1t30.5 -1q51 0 107.5 9.5t102.5 44t77 102t31 184.5q0 55 -17.5 108.5t-50.5 93.5t-83 64.5t-114 24.5q-39 0 -75.5 -9.5t-64 -24.5t-44 -37.5t-16.5 -47.5 q0 -31 3 -46t7 -26.5t7 -24.5t3 -44z" />
<glyph horiz-adv-x="1136" d="M827 524h101q35 0 67.5 1t79.5 5v-122q-47 4 -79.5 5t-67.5 1h-101v-170q0 -63 7.5 -100.5t23.5 -55.5t41 -23.5t62 -5.5q18 0 30.5 1t36.5 3v-69q-78 4 -145.5 8t-147.5 4t-164 -4t-161 -8v69q25 -2 55.5 -3t48.5 -1q37 0 61.5 5.5t41 23.5t23.5 55t7 101v170h-344 h-72.5t-60.5 -2t-57.5 -4t-63.5 -5l-16 132l469 595q104 133 158.5 213t87.5 127l94 -36q-6 -61 -8.5 -106.5t-4.5 -87.5t-2 -86v-101v-529zM119 516q12 2 38.5 3t55.5 2t57.5 2t44.5 1h332v404q0 61 2 125.5t17 156.5l-9 4l-540 -690z" />
<glyph horiz-adv-x="1120" d="M518 -37q-121 0 -203 33t-132 81t-71.5 100t-21.5 89q0 23 5 45.5t19.5 41t39 30.5t63.5 12q55 0 81 -38t26 -74q0 -31 -4.5 -47.5t-8.5 -29.5t-8 -26.5t-4 -36.5q0 -31 18.5 -52t49 -34.5t69.5 -20.5t78 -7q55 0 110.5 19.5t99.5 67.5t71.5 128t27.5 200 q0 78 -20.5 146.5t-60.5 120t-96 81t-126 29.5q-115 0 -179.5 -49t-109.5 -131l-92 18q14 84 17.5 133.5t7.5 90.5l24 329q4 37 4.5 59.5t0.5 51.5v48t-5 71q53 -4 122 -7t139 -3h243q47 0 106.5 1t145.5 9q-2 -16 -2 -31.5v-32.5q0 -143 33 -307l-68 -10q-10 74 -20 118 t-31.5 68.5t-60.5 31.5t-107 7h-305q-76 0 -98.5 -48t-30.5 -151l-14 -202q-2 -12 -4.5 -52t-12.5 -75l10 -4q39 49 116 94t200 45q100 0 186 -32t150.5 -90t101.5 -140t37 -185q0 -139 -50 -232t-125 -148.5t-164 -79t-167 -23.5z" />
<glyph horiz-adv-x="1179" d="M313 653q39 96 127 162t219 66q88 0 165 -28t133.5 -84t88 -141t31.5 -200q0 -104 -35.5 -190t-97 -147.5t-144.5 -94.5t-175 -33q-133 0 -230.5 54.5t-160 149.5t-93 222t-30.5 273q0 182 25.5 313t68.5 221t98 143.5t115.5 83t121 38.5t113.5 9q119 0 195 -32.5 t119 -78.5t59 -95.5t16 -81.5q0 -20 -5 -44t-18 -44.5t-38 -33.5t-63 -13q-53 0 -80 37.5t-27 74.5q0 27 4 45.5t8 32.5t8.5 28.5t4.5 37.5q0 25 -15.5 44t-41 32.5t-58.5 19.5t-66 6q-98 0 -164.5 -52.5t-106.5 -136t-57.5 -191t-17.5 -220.5v-60.5t-4 -91.5h8zM883 416 q0 82 -18.5 152.5t-53.5 122.5t-84 82t-109 30q-61 0 -112 -27.5t-89 -79t-58.5 -123t-20.5 -157.5q0 -180 75.5 -283.5t204.5 -103.5q59 0 108.5 28.5t84.5 79.5t53.5 123t18.5 156z" />
<glyph horiz-adv-x="1001" d="M836 1290l-7 4q-43 -4 -87 -6t-119 -2h-275q-68 0 -110.5 -15.5t-66.5 -45t-34 -74.5t-14 -102l-72 8q16 86 24.5 167t8.5 154q0 16 -1 32.5t-1 33.5q86 -10 140 -11t102 -1h243q35 0 90.5 1t112.5 3t108.5 4t77.5 4l35 -62q-213 -340 -326.5 -607t-113.5 -458 q0 -66 7 -121t7 -104q0 -63 -39 -97t-84 -34q-127 0 -127 127q0 94 59.5 250t166.5 367z" />
<glyph horiz-adv-x="1159" d="M424 727q-59 27 -109.5 60.5t-87.5 77.5t-57 100.5t-20 130.5q0 66 25.5 132t79.5 120.5t137 88t200 33.5q96 0 174 -27.5t133 -74.5t85 -110.5t30 -133.5q0 -78 -24.5 -136t-67.5 -101t-99.5 -72t-120.5 -49q61 -25 125 -57.5t115 -80.5t83 -110.5t32 -144.5 q0 -84 -31 -159t-91.5 -130t-151.5 -88t-212 -33q-106 0 -193 26.5t-148.5 77t-94.5 121t-33 158.5q0 78 27 139.5t72 107.5t103.5 78.5t119.5 55.5zM643 805q31 14 68 36.5t68.5 59.5t54 92.5t22.5 139.5q0 49 -15.5 98t-46 88t-79.5 62.5t-117 23.5q-76 0 -127 -25.5 t-82 -64.5t-44 -86t-13 -90q0 -84 42 -141.5t96 -95.5t104.5 -60.5t68.5 -36.5zM487 684q-31 -14 -68.5 -35.5t-72.5 -60.5t-58.5 -98.5t-23.5 -151.5q0 -68 21.5 -124t61.5 -97t94.5 -64.5t121.5 -23.5q76 0 133.5 23.5t95 62.5t56 91t18.5 109q0 63 -24.5 112.5 t-62.5 87.5t-84 64.5t-88 47t-75 34t-45 23.5z" />
<glyph horiz-adv-x="1177" d="M522 29q178 0 265 175t87 503v54t-2 56l-6 2q-37 -111 -125 -180.5t-206 -69.5q-88 0 -166 26t-135.5 79t-91 135t-33.5 197q0 109 36.5 194.5t100 146t147.5 92t178 31.5q125 0 219.5 -56t156 -150.5t92 -219t30.5 -262.5q0 -182 -25.5 -313t-68.5 -222t-98.5 -147.5 t-116 -86t-120.5 -40t-112 -10.5q-121 0 -199.5 34t-124.5 81t-64.5 98t-18.5 86q0 23 5 46.5t19.5 44t39 32.5t63.5 12q55 0 80.5 -39t25.5 -75q0 -31 -4 -47.5t-8 -29.5t-8 -26.5t-4 -36.5q0 -59 57 -86.5t135 -27.5zM305 1016q0 -80 19.5 -148.5t55.5 -119t84 -78 t103 -27.5q125 0 193.5 99.5t68.5 273.5q0 84 -17 155.5t-49 124t-79 81t-106 28.5q-61 0 -111.5 -28.5t-86.5 -80t-55.5 -123t-19.5 -157.5z" />
</font>
</defs>
</svg>
