<?xml version="1.0" standalone="no"?>
<!DOCTYPE svg PUBLIC "-//W3C//DTD SVG 1.1//EN" "http://www.w3.org/Graphics/SVG/1.1/DTD/svg11.dtd" >
<svg xmlns="http://www.w3.org/2000/svg">
<metadata></metadata>
<defs>
<font id="media77regular_italic" horiz-adv-x="1024" >
<font-face units-per-em="2048" ascent="1536" descent="-512" />
<missing-glyph horiz-adv-x="499" />
<glyph unicode="&#xfb00;" horiz-adv-x="1208" d="M305 0h-182q49 236 92 473l72 399h-191l13 70h188l27 137q14 68 40.5 130.5t74.5 109.5t121 74.5t181 27.5q162 0 252 -71q37 43 93.5 75.5t134.5 32.5q98 0 168.5 -36t70.5 -119q0 -55 -28.5 -76t-63.5 -21q-39 0 -57.5 13.5t-26.5 35t-10 45t-8 45t-21.5 35t-48.5 13.5 q-49 0 -75.5 -34t-40 -88t-21.5 -123t-21 -138l-10 -68h232l-13 -70h-231l-152 -872h-182q49 236 92 473l72 399h-389zM856 942l23 115q10 45 18 88t8 82q0 57 -33.5 93t-134.5 36q-66 0 -110.5 -32t-73.5 -81t-46.5 -110.5t-27.5 -122.5l-10 -68h387z" />
<glyph unicode="&#xfb01;" horiz-adv-x="1155" d="M326 1083q16 82 49 151t87 119t132 77.5t182 27.5q129 0 206 -52t77 -151q0 -51 -29 -90t-92 -39q-59 0 -86 31t-27 68q0 20 4.5 34.5t9.5 25.5t9 21.5t4 22.5q0 29 -24.5 46.5t-84.5 17.5q-72 0 -117.5 -34t-73.5 -87t-42 -119t-27 -127v-3t-2 -8t-4 -23.5t-8 -49.5h260 q92 0 159.5 4t133.5 21l-125 -723q-6 -33 -11 -57.5t-5 -45.5q0 -47 21.5 -61t92.5 -14h36t38 2l-12 -68q-35 2 -76 4t-84 2q-51 0 -105.5 -4t-109.5 -14l129 721q4 25 7 43t3 34q0 53 -41 69.5t-149 16.5h-174l-152 -872h-182q49 236 92 473l72 399h-191l13 70h188z" />
<glyph unicode="&#xfb02;" horiz-adv-x="1163" d="M897 197l-2 -29q0 -51 24.5 -78t98.5 -27q10 0 29.5 1.5t31.5 3.5l-12 -68q-41 2 -77 3t-77 1q-51 0 -106 -3t-115 -13l211 1204q4 23 6 38t2 32q0 66 -35.5 96.5t-125.5 30.5q-70 0 -117 -35t-77 -88.5t-46 -118t-27 -125.5l-14 -80h252l-12 -70h-252l-152 -872h-182 q49 236 92 473l72 399h-191l13 70h188l31 154q12 68 38.5 131t73.5 112.5t119 79t174 29.5q74 0 132.5 -8t117.5 -8q29 0 61.5 6t73.5 16z" />
<glyph unicode="&#xfb03;" horiz-adv-x="1691" d="M719 1427q72 0 140.5 -25.5t117.5 -62.5q53 53 138 86t196 33q129 0 205.5 -51t76.5 -150q0 -51 -28.5 -90t-91.5 -39q-59 0 -86 31t-27 68q0 20 4 34.5t9 24.5t9 20.5t4 22.5q0 29 -24.5 46.5t-83.5 17.5q-72 0 -118 -34t-73.5 -87t-42 -119t-26.5 -127v-3t-1 -8 t-3 -23.5t-8 -49.5h260q92 0 159.5 4t133.5 21l-125 -723q-6 -33 -11.5 -57.5t-5.5 -45.5q0 -47 21.5 -61t93.5 -14h35.5t38.5 2l-13 -68q-35 2 -75.5 4t-83.5 2q-51 0 -105.5 -4t-109.5 -14l129 721q4 25 7 43t3 34q0 53 -41 69.5t-150 16.5h-174l-151 -872h-183 q49 236 93 473l71 399h-366l-152 -872h-182q49 236 92 473l72 399h-191l13 70h188l25 131q14 68 37.5 132.5t67.5 113.5t113.5 78.5t178.5 29.5zM834 942q14 72 22 115t13 68.5t6.5 42t1.5 32.5q0 33 -7.5 62.5t-27 51t-53 35t-84.5 13.5q-61 0 -100.5 -31t-64 -78 t-36.5 -107.5t-23 -117.5l-12 -86h365z" />
<glyph unicode="&#xfb04;" horiz-adv-x="1701" d="M1436 180q-2 -8 -2 -15v-13q0 -47 27.5 -68t94.5 -21q10 0 30 1.5t32 3.5l-12 -68q-41 2 -77 3t-77 1q-51 0 -106.5 -3t-114.5 -13l211 1204q4 23 6 38t2 32q0 66 -36 96.5t-126 30.5q-70 0 -117 -35t-76.5 -88.5t-46 -118t-26.5 -125.5l-14 -80h252l-13 -70h-252 l-151 -872h-182q49 236 92 473l71 399h-368l-152 -872h-182q49 236 92 473l72 399h-191l13 70h188l29 143q14 68 37.5 131.5t67.5 111.5t113.5 77t178.5 29q76 0 149.5 -19.5t122.5 -60.5q47 43 114 68.5t163 25.5q74 0 132 -8t118 -8q29 0 61.5 6t73.5 16zM836 942 q14 80 23 129t14.5 77t6.5 41t1 23q0 33 -7.5 62t-27 49t-53 32.5t-84.5 12.5q-61 0 -100.5 -28.5t-64 -75.5t-36.5 -105.5t-23 -118.5l-16 -98h367z" />
<glyph unicode="fb" horiz-adv-x="1689" d="M905 1202q6 37 6 68q0 63 -35.5 93t-127.5 30q-72 0 -118 -35t-75 -89.5t-45 -120t-27 -126.5l-14 -80h252l-12 -70h-252l-152 -872h-182q49 236 92 473l72 399h-191l13 70h188l31 154q14 68 39.5 132t71.5 114.5t117 80t175 29.5q74 0 132.5 -8t117.5 -8q29 0 61.5 3 t73.5 13l-90 -514q0 -2 -4 -23.5t-9 -47t-11.5 -50t-10.5 -33.5l13 -6q74 100 148.5 142.5t154.5 42.5q78 0 134 -28t93 -75t54.5 -111.5t17.5 -138.5q0 -141 -42 -256.5t-113 -199.5t-162 -130.5t-187 -46.5q-55 0 -92 12.5t-64.5 26t-48 25.5t-41.5 12q-27 0 -46 -11 t-34 -24q-16 -16 -28 -34l-64 16q29 125 51.5 239.5t42.5 239.5zM940 473q-10 -43 -19.5 -98.5t-9.5 -108.5q0 -45 8.5 -86t27 -71.5t50 -49t80.5 -18.5q68 0 131.5 47t111.5 131t77.5 200t29.5 253q0 109 -37.5 166t-109.5 57q-45 0 -94 -27.5t-95.5 -81t-86 -132.5 t-64.5 -181z" />
<glyph unicode="ffb" horiz-adv-x="2246" d="M1464 1202q6 37 6 68q0 63 -35.5 93t-127.5 30q-66 0 -109 -30t-72.5 -76t-46 -103.5t-28.5 -114.5l-9 -57l-14 -70h252l-12 -70h-252l-152 -872h-182q49 236 92 473l72 399h-389l-152 -872h-182q49 236 92 473l72 399h-191l13 70h188l31 154q12 68 39.5 129t76 107 t122 74t179.5 28q98 0 161 -21.5t98 -64.5q47 47 115.5 75.5t170.5 28.5q74 0 132.5 -8t117.5 -8q29 0 61.5 3t73.5 13l-90 -514q0 -2 -4 -23.5t-9 -47t-11.5 -50t-10.5 -33.5l13 -6q74 100 148.5 142.5t154.5 42.5q78 0 134 -28t93 -75t54.5 -111.5t17.5 -138.5 q0 -141 -42 -256.5t-113 -199.5t-162 -130.5t-187 -46.5q-55 0 -92 12.5t-64.5 26t-48 25.5t-41.5 12q-27 0 -46 -11t-34 -24q-16 -16 -28 -34l-64 16q29 125 51.5 239.5t42.5 239.5zM1499 473q-10 -43 -19.5 -98.5t-9.5 -108.5q0 -45 8.5 -86t27 -71.5t50 -49t80.5 -18.5 q68 0 131.5 47t111.5 131t78 200t30 253q0 109 -38 166t-110 57q-45 0 -94 -27.5t-95 -81t-86 -132.5t-65 -181zM856 942l37 186q4 25 7 46.5t3 44.5q0 33 -5 59.5t-21.5 47t-48 31.5t-87.5 11q-66 0 -110.5 -31.5t-74.5 -81t-46 -111t-27 -122.5l-14 -80h387z" />
<glyph unicode="ffh" horiz-adv-x="2260" d="M1464 1188q6 37 6 65q0 68 -37.5 103t-129.5 35q-70 0 -114 -32t-71.5 -81t-42 -110.5t-26.5 -120.5l-21 -105h252l-12 -70h-252l-152 -872h-182q49 236 92 473l72 399h-389l-152 -872h-182q49 236 92 473l72 399h-191l13 70h188l31 143q14 68 40.5 131.5t75 111.5 t121 77t180.5 29q186 0 259 -84q47 47 115.5 73.5t166.5 26.5q74 0 136.5 -8t121.5 -8q29 0 61.5 3t73.5 13l-118 -657l8 -2q20 31 50 63.5t67.5 59t86 44t103.5 17.5q68 0 112 -16.5t69.5 -46t35.5 -67.5t10 -81q0 -39 -6 -77t-12 -75l-64 -368q-6 -33 -11 -58.5t-5 -52.5 q0 -41 21.5 -54t93.5 -13h26.5t28.5 2l-12 -68q-37 2 -76 4t-82 2q-45 0 -94 -4t-103 -14l88 481q18 106 33 185t15 132q0 61 -25 91t-86 30q-49 0 -101.5 -33.5t-100.5 -99t-86 -160t-56 -213.5l-66 -401h-178q23 117 47.5 234.5t44.5 234.5l82 469zM856 942l41 211 q6 33 6 66t-5 59.5t-21.5 47t-48 31.5t-87.5 11q-68 0 -111.5 -32.5t-72.5 -85t-45 -115t-29 -123.5l-14 -70h387z" />
<glyph unicode="fh" horiz-adv-x="1701" d="M881 1057q10 61 16 96t9 55.5t4 29.5t1 15q0 68 -37.5 103t-130.5 35q-72 0 -116.5 -35t-73.5 -89.5t-44 -119t-26 -125.5l-14 -80h252l-12 -70h-252l-152 -872h-182q49 236 92 473l72 399h-191l13 70h188l29 154q12 68 38.5 132t72.5 113.5t117 79t173 29.5 q74 0 136.5 -8t121.5 -8q29 0 61.5 3t73.5 13l-119 -657l9 -2q20 31 50 63.5t67.5 59t86 44t103.5 17.5q68 0 112 -16.5t69.5 -46t35.5 -67.5t10 -81q0 -39 -6 -77t-12 -75l-64 -368q-6 -33 -11 -57.5t-5 -45.5q0 -47 21.5 -61t93.5 -14h26.5t28.5 2l-12 -68q-37 2 -76 4 t-82 2q-45 0 -94 -4t-103 -14l90 481q20 106 31.5 185t11.5 132q0 61 -23.5 91t-84.5 30q-49 0 -101.5 -33.5t-100.5 -99t-86 -160t-56 -213.5l-66 -401h-178q23 117 47.5 234.5t44.5 234.5l103 588v0z" />
<glyph unicode="fj" horiz-adv-x="1120" d="M324 1083q16 82 50 151t88 119t131 77.5t181 27.5q63 0 115.5 -14t90.5 -38t58.5 -56.5t20.5 -69.5q0 -66 -27.5 -109t-95.5 -43q-59 0 -86 31t-27 68q0 20 4 34.5t9.5 24.5t9.5 20.5t4 22.5q0 29 -24.5 46.5t-84.5 17.5q-72 0 -117.5 -34t-73.5 -87t-42 -119t-27 -127 v-3t-1 -8t-3 -23.5t-8 -49.5h195q70 0 122 1t94 4t75.5 8.5t66.5 13.5l-139 -797q-10 -55 -20.5 -127t-25 -144.5t-30.5 -137t-39 -105.5q-37 -68 -105.5 -100.5t-144.5 -32.5q-102 0 -184 53l26 60q14 -14 53.5 -26.5t71.5 -12.5q63 0 99.5 43t58 119.5t35.5 182t37 228.5 q39 213 60.5 333t31.5 180t12 76.5t2 24.5q0 53 -41 69.5t-149 16.5h-174l-152 -872h-182q49 236 92 473l72 399h-191l13 70h188z" />
<glyph unicode="fk" horiz-adv-x="1636" d="M862 0h-180q27 119 49.5 235.5t44.5 235.5l125 713q4 20 6 39.5t2 36.5q0 63 -34.5 97t-124.5 34q-72 0 -118 -35t-76 -89.5t-46 -119t-27 -125.5l-14 -80h252l-12 -70h-252l-152 -872h-182q49 236 92 473l72 399h-191l13 70h188l29 139q14 68 40.5 134.5t73.5 118.5 t118 84t175 32q74 0 132.5 -8t117.5 -8q29 0 61.5 1t73.5 11q-29 -162 -49 -285t-35.5 -214t-27 -152.5t-19.5 -102.5q-18 -96 -22 -108q35 0 70.5 6t82.5 41q66 49 115 83t81 58.5t48 43t16 36.5q0 23 -33.5 26t-89.5 3h-26l10 61q70 -6 135 -6q66 0 127.5 7t126.5 24 q0 -41 -33.5 -76t-95 -76t-149.5 -96t-199 -137q18 -2 32.5 -17.5t26 -38t20.5 -46t17 -42.5l129 -276q29 -59 66 -79t96 -20h23.5t27.5 3l-12 -66q-29 2 -55.5 3t-53.5 1q-53 0 -102 -4t-102 -12q0 2 -1 4t-1 4q-6 25 -13.5 46t-25 64.5t-51 120t-93.5 211.5 q-14 31 -24.5 48.5t-22.5 26.5t-29.5 11t-46.5 2z" />
<glyph unicode="tt" horiz-adv-x="1243" d="M455 872l-113 -643q-10 -57 -10 -94q0 -35 13 -56.5t48 -21.5q47 0 91 48.5t104 125.5l47 -34q-33 -47 -70 -90.5t-76.5 -75t-81.5 -50t-83 -18.5q-78 0 -122 37t-44 145q0 35 5 77t15 95l94 555h-180l14 70q166 0 242 80t101 238h71l-53 -318h203q156 0 228.5 82 t96.5 236h72l-53 -318h243l-12 -70h-244l-112 -643q-10 -57 -10 -94q0 -35 13 -56.5t48 -21.5q47 0 91 48.5t104 125.5l47 -34q-33 -47 -70 -90.5t-77 -75t-82 -50t-83 -18.5q-78 0 -121.5 37t-43.5 145q0 35 5 77t15 95l94 555h-364z" />
<glyph unicode="ft" horiz-adv-x="1269" d="M457 872l-152 -872h-182q49 236 92 473l72 399h-191l13 70h188l29 143q14 74 42.5 140.5t80 118t128 81t189.5 29.5q88 0 175 -22.5t159 -69.5l-72 -420h256l-12 -70h-244l-113 -643q-10 -57 -10 -94q0 -35 13.5 -56.5t48.5 -21.5q47 0 91 48.5t103 125.5l47 -34 q-33 -47 -69.5 -90.5t-76.5 -75t-82 -50t-83 -18.5q-78 0 -122 37t-44 145q0 35 5 77t16 95l94 555h-389zM858 942l43 250q4 20 7 38.5t3 35.5q0 63 -35.5 96t-125.5 33q-72 0 -119 -37t-77 -94.5t-46 -124t-27 -127.5l-12 -70h389z" />
<glyph horiz-adv-x="0" />
<glyph unicode="&#xd;" />
<glyph horiz-adv-x="0" />
<glyph horiz-adv-x="0" />
<glyph unicode=" "  horiz-adv-x="499" />
<glyph unicode="&#x09;" horiz-adv-x="499" />
<glyph unicode="&#xa0;" horiz-adv-x="499" />
<glyph unicode="!" horiz-adv-x="634" d="M489 1470q59 0 86 -39.5t27 -105.5q0 -72 -36 -165t-80 -206.5t-85 -248t-51 -287.5h-82q29 127 39 251t10 228q0 80 -2 144.5t-2 121.5q0 66 10.5 122t32 97t54 64.5t79.5 23.5zM125 104q0 78 45 121t104 43q49 0 82 -31.5t33 -97.5q0 -78 -45 -118.5t-104 -40.5 q-49 0 -82 31.5t-33 92.5z" />
<glyph unicode="&#x22;" horiz-adv-x="706" d="M387 1452q37 0 52.5 -21.5t15.5 -60.5q0 -37 -11.5 -84t-29 -101.5t-38 -110.5t-38.5 -109h-70q0 45 -1 90t-1 90q0 61 4 116.5t16.5 98.5t36 67.5t64.5 24.5zM653 1452q37 0 52.5 -21.5t15.5 -60.5q0 -37 -11.5 -84t-28.5 -101.5t-37.5 -110.5t-39.5 -109h-69 q0 45 -1.5 90t-1.5 90q0 61 4.5 116.5t16.5 98.5t35.5 67.5t64.5 24.5z" />
<glyph unicode="#" horiz-adv-x="1126" d="M573 922l-141 -357h234l141 357h-234zM903 922l-143 -357h203l-58 -143h-200l-183 -459h-96l184 459h-235l-182 -459h-91l185 459h-221l53 143h221l143 357h-223l57 141h222l163 407h93l-166 -407h235l166 407h92l-164 -407h201l-55 -141h-201z" />
<glyph unicode="$" horiz-adv-x="1052" d="M768 1573l-25 -141q135 -10 224.5 -73t89.5 -190q0 -53 -26.5 -95t-86.5 -42q-45 0 -70.5 23.5t-25.5 68.5q0 35 12 64t12 63q0 61 -44 85t-97 30l-100 -563q57 -33 114.5 -68t103.5 -78t74.5 -98t28.5 -129q0 -98 -40 -176t-106.5 -132t-151.5 -85t-175 -37l-43 -242 h-71l43 242q-66 4 -130.5 25.5t-115.5 60.5t-83 93t-32 124q0 57 28.5 96t92.5 39q39 0 70.5 -23.5t31.5 -66.5q0 -39 -12 -73.5t-12 -73.5q0 -72 45 -100.5t129 -32.5l106 596q-55 31 -110.5 65.5t-99.5 77.5t-70.5 99.5t-26.5 131.5q0 182 123 285.5t330 110.5l24 139h72z M776 385q0 43 -14 77t-40 63.5t-59.5 54t-72.5 47.5l-98 -559q53 2 104 24.5t91 63.5t64.5 98t24.5 131zM391 1069q0 -78 51.5 -131t124.5 -98l92 528q-68 -4 -119 -32.5t-83.5 -71.5t-49 -94.5t-16.5 -100.5z" />
<glyph unicode="%" horiz-adv-x="1622" d="M1280 1548l78 -41l-1000 -1716l-79 39zM449 743q51 0 90 28t65.5 73t43 100t26.5 108.5t13 100.5t3 76q0 39 -6 73.5t-20.5 61.5t-41 42t-65.5 15q-78 0 -126 -60.5t-73.5 -142t-34 -162.5t-8.5 -124q0 -78 28 -133.5t106 -55.5zM442 694q-55 0 -104 17.5t-87 53.5 t-60.5 91t-22.5 133q0 127 38 218t96 149.5t128 86t135 27.5q55 0 104.5 -17t86.5 -53t59.5 -92.5t22.5 -131.5q0 -127 -37 -218.5t-95.5 -149.5t-128 -86t-135.5 -28zM1147 12q51 0 90 28t65.5 73t43 100t26.5 108.5t13.5 100.5t3.5 76q0 39 -6.5 73.5t-20.5 61t-41 42 t-66 15.5q-78 0 -126 -60.5t-73.5 -142t-33.5 -162.5t-8 -124q0 -78 27.5 -133.5t105.5 -55.5zM1141 -37q-55 0 -104.5 17.5t-87.5 53.5t-60.5 91t-22.5 133q0 127 38 218t96.5 149.5t128 86t135.5 27.5q55 0 104 -17t86 -53t59.5 -92.5t22.5 -132.5q0 -127 -37 -218 t-95 -149.5t-127.5 -86t-135.5 -27.5z" />
<glyph unicode="&#x26;" horiz-adv-x="1462" d="M74 326q0 125 53 205.5t121.5 132t134.5 79t90 48.5q-45 72 -83 161.5t-38 171.5q0 80 31 143.5t83 108.5t122.5 69.5t150.5 24.5q66 0 126.5 -17t106.5 -51t72.5 -87t26.5 -123q0 -80 -35 -143.5t-92 -114.5t-132 -89t-155 -65l324 -508q27 31 52.5 67t45 75t31.5 81 t12 83q0 53 -35.5 67t-95.5 14h-45q-2 4 0 13q0 6 2 18t6 33q23 -2 46.5 -3t48.5 -1q49 0 99 6t95 23q0 -147 -56.5 -279.5t-158.5 -251.5q16 -16 35.5 -40.5t42 -48.5t47.5 -40t53 -16q25 0 42.5 6t31.5 16t28.5 25.5t34.5 34.5l52 -37q-18 -35 -48 -61.5t-64 -44 t-67.5 -27t-60.5 -9.5q-66 0 -127 21.5t-119 105.5q-55 -39 -105 -64.5t-99.5 -40.5t-100.5 -21.5t-110 -6.5q-80 0 -156 23.5t-134.5 68.5t-94 112t-35.5 153zM266 346q0 -66 19.5 -122t56.5 -97t90 -64.5t123 -23.5q86 0 152.5 31.5t148.5 93.5l-350 553 q-57 -25 -102.5 -66t-76 -91t-46 -105.5t-15.5 -108.5zM526 1151q2 -39 9.5 -73t19.5 -68.5t29.5 -73.5t40.5 -88q57 23 109 56.5t91 78.5t61.5 100.5t22.5 120.5q0 37 -10 73t-30.5 63.5t-52.5 45t-77 17.5q-55 0 -95 -22.5t-65.5 -58.5t-39 -81t-13.5 -90z" />
<glyph unicode="'" horiz-adv-x="440" d="M387 1450q37 0 52.5 -21.5t15.5 -60.5q0 -35 -11.5 -82t-29 -101.5t-38 -110.5t-38.5 -109h-70q0 45 -1 90t-1 90q0 61 4 116.5t16.5 97.5t36 66.5t64.5 24.5z" />
<glyph unicode="(" horiz-adv-x="612" d="M96 422q0 176 50.5 324.5t134.5 283.5t196.5 262t235.5 262l47 -38q-242 -262 -361.5 -576.5t-119.5 -679.5q0 -166 29.5 -335t117.5 -318l-59 -39q-133 229 -202 442t-69 412z" />
<glyph unicode=")" horiz-adv-x="612" d="M551 731q0 -176 -50 -326.5t-135 -286.5t-198 -265t-236 -265l-47 39q242 262 363 581.5t121 684.5q0 166 -30 329.5t-118 313.5l60 39q133 -229 201.5 -437t68.5 -407z" />
<glyph unicode="*" horiz-adv-x="872" d="M506 1130q-27 8 -60 9q-37 0 -70.5 -7.5t-58.5 -7.5q-41 0 -65.5 27t-24.5 61q0 37 28 61.5t62 24.5q25 0 45.5 -15t42 -36.5t48 -43t63.5 -32.5l14 9q0 31 -10 59.5t-23.5 54t-23.5 48t-10 40.5q0 37 25.5 62.5t62.5 25.5t62.5 -25.5t25.5 -62.5q0 -18 -10.5 -40.5 t-23.5 -48t-23.5 -54.5t-10.5 -59l11 -9q37 10 62.5 32t47 43.5t42 36.5t46.5 15q35 0 62.5 -24.5t27.5 -61.5q0 -35 -24.5 -61.5t-65.5 -26.5q-27 0 -59.5 7.5t-69.5 7.5q-33 0 -59 -9l-2 -10q25 -37 57.5 -56.5t62 -33.5t49 -31.5t19.5 -54.5q0 -35 -25.5 -63.5 t-62.5 -28.5q-47 0 -61.5 22.5t-20.5 58.5t-13 79t-38 84h-16q-31 -41 -38 -84t-13.5 -79t-21.5 -58.5t-60 -22.5q-37 0 -63 28.5t-26 63.5q0 37 19.5 54.5t49.5 31.5t62.5 33.5t57.5 56.5z" />
<glyph unicode="+" d="M565 979v-426h418v-86h-418v-426h-94v426h-420v86h420v426h94z" />
<glyph unicode="," horiz-adv-x="559" d="M90 152q0 72 42 107.5t93 35.5t93 -36t42 -107q0 -90 -30.5 -165t-77.5 -135.5t-102.5 -104.5t-106.5 -73l-39 66q10 4 44 30.5t71 61.5t65.5 72t28.5 65q0 27 -19.5 41.5t-42 29.5t-42 40t-19.5 72z" />
<glyph unicode="-" horiz-adv-x="827" d="M178 596h510l-14 -84h-510z" />
<glyph unicode="." horiz-adv-x="538" d="M74 94q0 76 48 117t105 41q47 0 83 -31t36 -92q0 -74 -48 -113t-105 -39q-47 0 -83 29t-36 88z" />
<glyph unicode="/" horiz-adv-x="917" d="M952 1548l78 -41l-999 -1716l-76 43z" />
<glyph unicode="0" horiz-adv-x="1124" d="M133 426q0 102 13.5 210.5t41 211t71.5 195t107.5 162t146.5 109.5t187 40q166 0 260.5 -120t94.5 -339q0 -152 -30 -316.5t-96.5 -301t-175 -224.5t-266.5 -88q-168 0 -261 120t-93 341zM342 659q-16 -96 -25.5 -176t-9.5 -149q0 -150 42 -228.5t138 -78.5 q68 0 123.5 45t99.5 128t77.5 199.5t58.5 259.5q16 92 24.5 176.5t8.5 151.5q0 147 -40 226t-137 79q-70 0 -125 -43t-99 -125t-77.5 -198.5t-58.5 -266.5z" />
<glyph unicode="1" horiz-adv-x="837" d="M543 225q-6 -35 -6 -61q0 -59 30.5 -81t104.5 -22h28.5t28.5 2l-14 -67q-72 6 -151 8t-148 2q-68 0 -144.5 -2t-150.5 -8l12 67q16 -2 33.5 -2h34.5q51 0 80.5 7.5t47 26t25.5 50t17 80.5l125 768q4 16 4 30.5v25.5q0 55 -16.5 68t-45.5 13t-66.5 -11t-75.5 -26.5 t-69.5 -30.5t-46.5 -24l-28 76l63 21q63 20 121.5 40.5t115 47t113 59.5t115.5 78l55 -39q-10 -47 -20 -89t-21 -106z" />
<glyph unicode="2" horiz-adv-x="1046" d="M49 -6q2 121 36 211t88 159.5t123 124t140.5 103.5t139 97t121 105.5t86 129t32.5 168.5q0 90 -50 146t-147 56q-113 0 -153.5 -42t-40.5 -113q0 -14 3 -29.5t3 -32.5q0 -66 -37 -94.5t-82 -28.5q-41 0 -68.5 30t-27.5 77q0 57 26.5 111.5t81 94.5t134.5 64.5t188 24.5 q94 0 161.5 -24.5t111 -64.5t63.5 -91.5t20 -106.5q0 -111 -50 -185.5t-128 -133t-174 -110.5t-188 -117.5t-171 -154.5t-122 -221l45 4.5t48.5 3.5t42 1h26.5h293q57 0 95 11t62.5 34.5t39 61.5t24.5 93l78 -8q-33 -96 -42.5 -164.5t-17.5 -138.5l-6 -53q-90 10 -205.5 12 t-298.5 2q-86 0 -160.5 -1t-142.5 -11z" />
<glyph unicode="3" horiz-adv-x="1054" d="M430 1145q2 -12 3 -25.5t1 -25.5q0 -55 -24.5 -98.5t-96.5 -43.5q-41 0 -69.5 29t-28.5 76q0 59 30.5 113.5t86 95.5t133.5 64.5t172 23.5t161.5 -25.5t111.5 -65.5t64.5 -92.5t20.5 -103.5q0 -119 -46 -191.5t-106.5 -112.5t-119.5 -53.5t-86 -15.5v-12q29 0 76 -13.5 t93 -46t80 -89t34 -142.5q0 -131 -47.5 -214t-117 -130t-147.5 -64.5t-141 -17.5q-92 0 -165 22.5t-122 59.5t-75.5 85t-26.5 99q0 23 3 49.5t15.5 50t37 40t65.5 16.5q51 0 73.5 -31.5t22.5 -62.5t-4 -50.5t-10.5 -33.5t-10.5 -27.5t-4 -31.5q0 -57 50.5 -89t129.5 -32 q53 0 105.5 24.5t93.5 72.5t66.5 119.5t25.5 168.5q0 72 -22.5 119t-57 74.5t-78.5 38.5t-90 11h-26t-23 -2l11 70q25 -2 34 -2h17q156 0 235.5 97.5t79.5 256.5q0 88 -48 151.5t-146 63.5q-96 0 -144.5 -43t-48.5 -104z" />
<glyph unicode="4" horiz-adv-x="1085" d="M133 477q45 2 85 5t112 3h278l64 365q6 37 12 68.5t14.5 65.5t18.5 71t24 80l-6 4zM408 61q66 0 102.5 31t50.5 113l29 172h-557l18 112l600 652q18 20 37 40.5t40.5 45t49 57.5t64.5 80l86 -35q-18 -80 -28.5 -137t-20.5 -117l-103 -590h86q16 0 58.5 1t101.5 6 l-23 -121q-53 4 -84.5 5t-50.5 1h-108l-31 -172q-6 -35 -6 -62q0 -53 25.5 -67.5t80.5 -14.5q16 0 36 1t42 4l-12 -70q-74 6 -144.5 8t-142.5 2t-140.5 -2t-139.5 -8l10 70q20 -2 39 -3.5t35 -1.5z" />
<glyph unicode="5" horiz-adv-x="1062" d="M911 983q2 16 2 28.5v24.5q0 78 -36.5 110t-133.5 32h-254q-61 0 -95 -27t-54 -119l-68 -311q41 39 109 71.5t180 32.5q84 0 155.5 -28.5t123 -79.5t80 -124t28.5 -159q0 -98 -33.5 -183t-96 -149.5t-150.5 -101.5t-197 -37q-92 0 -165 21.5t-124 58.5t-77.5 85 t-26.5 101q0 23 4 48.5t16.5 48t37 38t67.5 15.5q53 0 76.5 -31t23.5 -63q0 -31 -5 -49.5t-10 -32t-10.5 -26.5t-5.5 -32q0 -57 50.5 -87.5t132.5 -30.5q78 0 135 39.5t95 102t56.5 139.5t18.5 151q0 133 -58.5 218t-166.5 85q-102 0 -169 -51.5t-120 -124.5l-78 16l113 512 q8 35 13 60.5t8 48t5 46t6 56.5q47 -4 105.5 -7t124.5 -3h233q45 0 96.5 1t131.5 9q-12 -59 -18.5 -131t-6.5 -143v-33.5t2 -34.5h-70z" />
<glyph unicode="6" horiz-adv-x="1103" d="M338 651q59 76 128 119t183 43q72 0 134.5 -24.5t107.5 -70.5t70.5 -113.5t25.5 -151.5q0 -113 -39 -203t-103.5 -153.5t-148.5 -97.5t-176 -34q-102 0 -176 36t-121 99.5t-69.5 150.5t-22.5 189q0 94 13.5 198.5t43 206t75.5 193.5t112.5 162t154.5 112t201 42 q94 0 156.5 -28t99.5 -66.5t51.5 -82.5t14.5 -75q0 -18 -3 -43t-14.5 -46.5t-35 -36.5t-66.5 -15t-69.5 28.5t-26.5 61.5q0 31 6 48t12 30.5t12 29t6 39.5q0 43 -43 68.5t-96 25.5q-61 0 -110.5 -29.5t-88 -75.5t-67.5 -104.5t-49.5 -115t-33.5 -105.5t-19 -78 q-14 -63 -35 -129zM801 449q0 59 -10.5 113t-34 96t-60.5 67t-90 25q-61 0 -114.5 -36t-92.5 -97.5t-61.5 -145.5t-22.5 -180q0 -125 53.5 -193.5t151.5 -68.5q76 0 130.5 43t87 105.5t48 136.5t15.5 135z" />
<glyph unicode="7" horiz-adv-x="933" d="M877 1182q-43 -2 -78 -4t-70 -2h-270q-61 0 -99 -12.5t-63 -39t-39 -65.5t-27 -92l-75 14q31 82 48 168t23 176q78 -8 133.5 -9t98.5 -1h194q33 0 81 1t99.5 2t95.5 3t68 4l41 -55q-182 -250 -292.5 -435.5t-178.5 -336.5q-47 -102 -55 -184.5t-8 -147.5q0 -113 -32 -157 t-97 -44q-49 0 -77 27.5t-28 81.5q0 109 73 249t189 320l345 539v0z" />
<glyph unicode="8" horiz-adv-x="1077" d="M449 678q-106 57 -159.5 129t-53.5 186q0 63 23.5 128t74.5 117t134 84t200 32q94 0 161.5 -23.5t110.5 -63.5t63.5 -92.5t20.5 -111.5q0 -74 -27.5 -130t-72.5 -97t-101.5 -71t-113.5 -52q100 -47 167.5 -129t67.5 -207q0 -86 -32.5 -161t-94 -131t-152 -88t-204.5 -32 q-172 0 -272.5 85t-100.5 220q0 84 26.5 150.5t75 117t115 84t144.5 56.5zM641 752q45 20 88 43.5t76 58.5t53.5 87t20.5 130q0 104 -52.5 162.5t-160.5 58.5q-45 0 -89.5 -17.5t-80 -50t-58 -81.5t-22.5 -113q0 -59 23.5 -103t58 -76t73.5 -56.5t70 -42.5zM238 250 q4 -100 62 -161.5t161 -61.5q74 0 129 25.5t93 67.5t57.5 96t19.5 114q0 70 -24.5 119t-61.5 83.5t-80 58t-80 42.5q-51 -14 -101.5 -40t-89 -71t-62 -111.5t-23.5 -160.5z" />
<glyph unicode="9" horiz-adv-x="1097" d="M813 682q-49 -74 -120.5 -108.5t-162.5 -34.5q-72 0 -134 23.5t-108 67.5t-73 109.5t-27 151.5q0 115 38 202t102.5 145t146.5 87t172 29q102 0 174 -38t117 -104.5t65.5 -155.5t20.5 -194q0 -88 -11.5 -188.5t-37 -200.5t-66.5 -191.5t-103.5 -162t-145 -112.5 t-191.5 -42q-100 0 -169 29t-112 69.5t-62.5 87t-19.5 80.5q0 20 5.5 46t19.5 47.5t39 37t61 15.5q47 0 72 -30t25 -62q0 -33 -5.5 -49.5t-11.5 -28.5t-11 -25.5t-5 -40.5q0 -47 47 -80.5t111 -33.5q80 0 141 46t107.5 131t76 205.5t47.5 270.5zM655 1292q-74 0 -127 -40 t-89 -100t-52 -133t-16 -140q0 -123 51 -198t137 -75q57 0 110.5 26.5t94.5 79t65.5 127t24.5 171.5q0 129 -56.5 205.5t-142.5 76.5z" />
<glyph unicode=":" horiz-adv-x="589" d="M219 805q0 76 48 117t106 41q47 0 83 -31t36 -92q0 -74 -48.5 -113t-105.5 -39q-47 0 -83 29t-36 88zM96 94q0 76 48.5 117t105.5 41q47 0 83 -31t36 -92q0 -74 -48.5 -113t-105.5 -39q-47 0 -83 29t-36 88z" />
<glyph unicode=";" horiz-adv-x="600" d="M217 805q0 76 48 117t106 41q47 0 82.5 -31t35.5 -92q0 -74 -48 -113t-105 -39q-47 0 -83 29t-36 88zM106 152q0 72 42 107.5t93.5 35.5t93.5 -36t42 -107q0 -90 -31 -165t-78 -135.5t-102 -104.5t-107 -73l-39 66q10 4 44 30.5t71 61.5t65.5 72t28.5 65q0 27 -19.5 41.5 t-42 29.5t-42 40t-19.5 72z" />
<glyph unicode="&#x3c;" d="M72 541l790 438l39 -76l-731 -405l731 -418l-39 -80l-790 449v92z" />
<glyph unicode="=" d="M981 698v-82h-930v82h930zM981 391v-82h-930v82h930z" />
<glyph unicode="&#x3e;" d="M958 449l-790 -449l-39 80l731 418l-731 405l39 76l790 -438v-92z" />
<glyph unicode="?" horiz-adv-x="954" d="M377 416q8 111 44 187.5t83 135t100 105.5t98.5 97t75 112.5t29.5 150.5t-54.5 145.5t-154.5 57.5t-145 -49t-45 -117q0 -18 3 -33.5t3 -33.5q0 -78 -37 -113t-88 -35q-45 0 -72 32t-27 83q0 68 31 127t88.5 104t140 71.5t185.5 26.5q94 0 162.5 -24.5t113.5 -65.5 t66.5 -94t21.5 -110q0 -90 -36.5 -150.5t-92 -109t-122 -92.5t-127 -98t-105.5 -128t-57 -182h-82zM254 104q0 78 45 121t104 43q49 0 82 -31.5t33 -97.5q0 -78 -45 -118.5t-104 -40.5q-49 0 -82 31.5t-33 92.5z" />
<glyph unicode="@" horiz-adv-x="1972" d="M1049 156q-8 -10 -34 -38t-66 -57.5t-89 -52t-102 -22.5q-29 0 -69 6t-77 32.5t-63.5 78t-26.5 141.5q0 104 43 222t117 216t173 162.5t210 64.5q55 0 86 -10t52.5 -23.5t40 -23.5t46.5 -10q29 0 44.5 5t41.5 34l58 -11q-45 -125 -86 -244.5t-78 -244.5 q-14 -47 -31.5 -105.5t-17.5 -111.5q0 -47 21.5 -78t78.5 -31q80 0 157.5 54.5t139 148.5t100.5 218t39 263q0 135 -47 234.5t-128 164t-188.5 95.5t-226.5 31q-160 0 -328.5 -63.5t-306 -190.5t-225.5 -316.5t-88 -441.5q0 -152 45 -268.5t125 -195.5t186.5 -120t229.5 -41 q119 0 248 31l-6 -72q-154 -31 -283 -30q-172 0 -301 56t-216 151.5t-131 223.5t-44 271q0 123 32.5 250t96 248t157 228.5t216 187t273 127t329.5 47.5q182 0 318 -49.5t226 -133.5t134 -195.5t44 -238.5q0 -154 -52 -290t-138 -238.5t-195.5 -163t-224.5 -60.5 q-104 0 -167.5 39t-63.5 111q0 16 2 27zM1087 840q-57 0 -109 -32t-97 -85t-82 -119.5t-63.5 -136.5t-41 -135.5t-14.5 -116.5q0 -82 28.5 -118t82.5 -36q49 0 98 29t94 77t85 111.5t69.5 132t46 137t16.5 128.5q0 66 -25 115t-88 49z" />
<glyph unicode="A" horiz-adv-x="1413" d="M903 1470l254 -1151q10 -49 19.5 -95t26 -83t44 -59.5t76.5 -22.5q10 0 20.5 1t22.5 3l-12 -69q-78 6 -142.5 9t-140.5 3q-37 0 -69.5 -1t-65.5 -2t-67.5 -4t-75.5 -5l12 69q23 -4 48.5 -4h45.5q63 0 85 26t22 67q0 20 -3.5 41.5t-7.5 46.5l-61 282h-559l-123 -243 q-27 -51 -47.5 -99.5t-20.5 -64.5q0 -31 21.5 -43.5t81.5 -12.5h35.5t42.5 4l-13 -69q-61 4 -121.5 7t-119.5 3q-53 0 -106.5 -2t-108.5 -8l12 69q12 -4 31.5 -4h31.5q59 0 99.5 60.5t93.5 159.5l645 1191h94zM410 588h512l-86 389q-14 66 -25.5 133.5t-22.5 163.5h-8z" />
<glyph unicode="B" horiz-adv-x="1271" d="M645 788q104 0 178 30t119 79t65.5 111.5t20.5 126.5q0 49 -10 94t-36 78.5t-70 54t-111 20.5q-59 0 -95 -6t-55.5 -25.5t-30 -55t-20.5 -93.5l-72 -409q18 -2 58.5 -3.5t58.5 -1.5zM246 1440q70 -4 147.5 -6t149.5 -2q66 0 141.5 4t144.5 4q82 0 154 -16.5t126 -53.5 t85 -95t31 -145q0 -86 -34 -152.5t-90.5 -110.5t-128 -68.5t-147.5 -28.5l-2 -12q51 0 109.5 -22.5t108 -64.5t82 -100.5t32.5 -130.5q0 -121 -45 -205.5t-123 -138t-180 -78t-217 -24.5q-68 0 -139.5 4t-145.5 4q-76 0 -153.5 -2t-157.5 -6l12 69q49 -6 84 -6 q70 0 104.5 34t51.5 132l174 987q6 39 6 70q0 53 -28.5 74.5t-94.5 21.5q-16 0 -32.5 -1t-37.5 -3zM571 55q186 0 286.5 104.5t100.5 311.5q0 123 -90 190.5t-235 67.5q-29 0 -57.5 -1t-59.5 -5l-88 -479q-12 -61 -12 -101q0 -53 32.5 -70.5t122.5 -17.5z" />
<glyph unicode="C" horiz-adv-x="1292" d="M1317 1417q-10 -86 -21.5 -176t-11.5 -203h-72q2 16 3.5 35t1.5 35q0 61 -14.5 115.5t-48.5 95.5t-88 64.5t-134 23.5q-111 0 -216.5 -51t-188.5 -155.5t-133 -262.5t-50 -369q0 -123 28.5 -223t82 -170t131.5 -107.5t174 -37.5q129 0 229.5 72.5t165.5 189.5l62 -31 q-100 -166 -222.5 -232.5t-283.5 -66.5q-127 0 -231.5 42t-179.5 122t-116 194.5t-41 260.5q0 219 62.5 386t171 278.5t253 167.5t308.5 56q133 0 226.5 -18.5t152.5 -34.5z" />
<glyph unicode="D" horiz-adv-x="1490" d="M1434 838q0 -158 -45.5 -308.5t-142.5 -270.5t-248.5 -192.5t-364.5 -72.5q-61 0 -107.5 1t-86.5 3t-78.5 3t-88.5 1q-72 0 -140.5 -1t-137.5 -7l14 69q49 -6 84 -6q70 0 104.5 35t51.5 131l174 987q4 20 6 40t2 36q0 41 -21.5 65.5t-89.5 24.5q-37 0 -88 -6l13 70 q82 -4 148.5 -6t142.5 -2q37 0 65.5 1t63 3t81 3t115.5 1q137 0 243.5 -43t180.5 -123t112 -190.5t38 -245.5zM639 55q162 0 274.5 74t183 192.5t103.5 267t33 300.5q0 92 -17.5 180t-63.5 156.5t-124 110.5t-199 42q-88 0 -131 -7t-61.5 -26.5t-22.5 -52t-12 -82.5 l-174 -987q-6 -41 -6 -67q0 -35 11 -55.5t38 -31t68 -12.5t100 -2z" />
<glyph unicode="E" horiz-adv-x="1249" d="M418 1192q4 29 8 53.5t4 44.5q0 43 -23.5 63.5t-89.5 20.5q-16 0 -39.5 -1t-48.5 -3l11 70q135 -8 262 -10.5t243 -2.5q74 0 135.5 1.5t120 2.5t117 3t129.5 6q-14 -102 -21 -195.5t-9 -189.5h-70q2 23 3 43t1 39q0 84 -17.5 130t-53.5 68.5t-91 26.5t-131 4 q-90 0 -138 -5t-71.5 -22.5t-32 -52.5t-18.5 -94l-72 -412q33 -4 58.5 -4h52.5q98 0 149.5 15.5t76 44t33.5 69.5t22 90h69q-43 -147 -61.5 -264t-24.5 -235h-70q4 33 8.5 60.5t4.5 49.5q0 27 -9.5 46.5t-33 33.5t-65.5 21.5t-109 7.5h-53.5t-59.5 -4l-84 -463 q-8 -47 -8 -86q0 -35 9 -54.5t30.5 -28.5t56.5 -10t84 -1q104 0 179 5t128.5 36.5t91 99t70.5 192.5l70 -12q-20 -61 -34.5 -109.5t-25 -93.5t-18.5 -90t-19 -102q-80 2 -152.5 5t-142 4l-139 2t-145.5 1q-121 0 -233.5 -2t-229.5 -10l14 69q23 -4 44.5 -4h39.5 q37 0 60.5 8.5t40 28t28 54t21.5 90.5z" />
<glyph unicode="F" horiz-adv-x="1179" d="M420 1192q4 25 7 47.5t3 42.5q0 43 -23.5 67.5t-89.5 24.5q-16 0 -39.5 -1t-48.5 -3l11 70q135 -8 262 -10.5t243 -2.5q74 0 135.5 1.5t120 2.5t117 3t129.5 6q-14 -102 -14 -206t-2 -200h-70q2 23 3 53.5t1 49.5q0 84 -19.5 130t-58 68.5t-96 26.5t-133.5 4 q-86 0 -132 -4t-69.5 -19.5t-33 -46t-19.5 -84.5l-84 -452q33 -4 70 -4h63q98 0 149.5 15t76 43t34 69t21.5 90h70q-43 -147 -61.5 -263t-24.5 -235h-70q4 33 8 60.5t4 50.5q0 27 -9 46t-32.5 33.5t-65.5 21.5t-110 7h-64.5t-70.5 -4l-76 -442q-6 -31 -8 -55.5t-2 -42.5 q0 -59 27.5 -75t93.5 -16q18 0 37.5 1t44.5 3l-13 -69q-84 4 -158.5 8t-152.5 4q-80 0 -147.5 -4t-145.5 -8l12 69q25 -2 41.5 -3t34.5 -1q37 0 61.5 5.5t41 23.5t29 55t24.5 101z" />
<glyph unicode="G" horiz-adv-x="1445" d="M1026 418q4 31 7 54.5t3 41.5q0 59 -28.5 73.5t-94.5 14.5q-18 0 -37.5 -1t-44.5 -3l13 70q78 -4 154.5 -8.5t156.5 -4.5t147.5 4.5t145.5 8.5l-12 -70q-25 2 -41.5 3t-34.5 1q-37 0 -61.5 -5t-41 -23.5t-28.5 -55.5t-23 -100q-20 -123 -36.5 -221.5t-20.5 -178.5 q-74 -25 -180.5 -40t-259.5 -15q-127 0 -231.5 42t-179.5 122t-116 194.5t-41 260.5q0 219 65.5 386t176.5 278.5t257 169t310 57.5q133 0 226.5 -18.5t152.5 -35.5q-10 -86 -21.5 -176t-11.5 -203h-71q2 16 3 35t1 35q0 61 -14.5 115.5t-48 95.5t-88 64.5t-134.5 23.5 q-111 0 -218.5 -52t-193.5 -156.5t-138 -263.5t-52 -370q0 -248 107.5 -392t302.5 -144q90 0 137 17.5t71.5 60.5t36 117.5t29.5 191.5z" />
<glyph unicode="H" horiz-adv-x="1585" d="M526 778h639l74 412q4 29 7 52.5t3 41.5q0 61 -29.5 75.5t-89.5 14.5q-18 0 -37.5 -1t-43.5 -3l12 70q84 -4 158.5 -8.5t152.5 -4.5q80 0 148.5 4.5t146.5 8.5l-12 -70q-25 2 -42.5 3t-35.5 1q-35 0 -58.5 -5t-42 -23.5t-31.5 -55.5t-26 -100l-168 -946q-4 -23 -8 -44.5 t-4 -41.5q0 -41 23.5 -70t89.5 -29q18 0 41.5 1t48.5 3l-12 -69q-72 0 -146 6t-162 6q-80 0 -150.5 -4t-148.5 -8l13 69q25 -2 38 -3t31 -1q37 0 63.5 5.5t45 23.5t32 55t25.5 101l84 469h-639l-84 -469q-6 -31 -8 -54.5t-2 -42.5q0 -59 28.5 -73.5t94.5 -14.5q18 0 37.5 1 t44.5 3l-13 -69q-72 4 -146.5 8t-164.5 4q-80 0 -147.5 -4t-145.5 -8l13 69q25 -2 41 -3t34 -1q37 0 60.5 5.5t41 23.5t29 55t23.5 101l168 946q4 31 7 54.5t3 41.5q0 59 -28.5 73.5t-94.5 14.5q-18 0 -37.5 -1t-44.5 -3l13 70q84 -4 158.5 -8.5t152.5 -4.5q80 0 147.5 4.5 t145.5 8.5l-13 -70q-25 2 -41 3t-34 1q-37 0 -61.5 -5t-41 -23.5t-28 -55.5t-23.5 -100z" />
<glyph unicode="I" horiz-adv-x="768" d="M432 244q-6 -31 -8 -54.5t-2 -42.5q0 -59 28.5 -73.5t94.5 -14.5q18 0 37.5 1t44.5 3l-13 -69q-84 4 -158.5 8t-152.5 4q-80 0 -147.5 -4t-145.5 -8l13 69q25 -2 41 -3t34 -1q37 0 60.5 5.5t41 23.5t29 55t23.5 101l168 946q4 31 6 54.5t4 41.5q0 59 -28.5 73.5 t-94.5 14.5q-18 0 -37.5 -1t-44.5 -3l13 70q84 -8 158.5 -10.5t152.5 -2.5q80 0 147.5 4.5t145.5 8.5l-13 -70q-25 2 -41 3t-34 1q-37 0 -61.5 -5t-41 -23.5t-28 -55.5t-23.5 -100z" />
<glyph unicode="J" horiz-adv-x="817" d="M537 338q-14 -121 -48 -194.5t-81.5 -113.5t-103.5 -53.5t-116 -13.5q-141 0 -247 90l49 58q49 -35 90 -53.5t86 -18.5q84 0 121 63.5t57 178.5l158 909q4 31 7 54.5t3 41.5q0 59 -28.5 73.5t-94.5 14.5q-18 0 -37.5 -1t-44.5 -3l12 70q84 -4 159 -8.5t153 -4.5 q80 0 147.5 4.5t145.5 8.5l-13 -70q-25 2 -41 3t-34 1q-37 0 -61.5 -5t-41 -23.5t-29 -55.5t-22.5 -100z" />
<glyph unicode="K" horiz-adv-x="1400" d="M530 788h21q49 0 78.5 13.5t66.5 54.5l326 309q55 53 96 101.5t41 74.5q0 18 -20.5 26.5t-53.5 8.5q-12 0 -26.5 -1t-34.5 -3l12 68q61 -6 114.5 -9.5t125.5 -3.5h57.5t53 2.5t55 4.5t63.5 6l-12 -70q-14 2 -32.5 2h-30.5q-43 0 -77 -13t-68 -39t-71.5 -62.5t-87.5 -83.5 l-381 -363q39 0 69 -33t60.5 -99.5t69.5 -165.5t98 -232q25 -55 42.5 -97.5t39 -70t52 -41t81.5 -13.5h43t48 4l-13 -69q-33 4 -59.5 4h-61.5q-66 0 -128 -5t-121 -18q-51 166 -118 315.5t-138 321.5q-16 37 -29.5 59.5t-30 36t-40 17.5t-58.5 4h-33l-86 -485 q-6 -31 -8 -54.5t-2 -42.5q0 -59 28.5 -73.5t94.5 -14.5q18 0 37.5 1t44.5 3l-13 -69q-84 4 -158.5 8t-152.5 4q-80 0 -147.5 -4t-145.5 -8l13 69q25 -2 41 -3t34 -1q37 0 60.5 5.5t41 23.5t29 55t23.5 101l168 946q4 31 7 54.5t3 41.5q0 59 -28.5 73.5t-94.5 14.5 q-18 0 -37.5 -1t-44.5 -3l13 70q84 -6 158.5 -9.5t152.5 -3.5q80 0 147.5 4.5t145.5 8.5l-13 -70q-25 2 -41 3t-34 1q-37 0 -61.5 -5t-42 -23.5t-29 -55.5t-21.5 -100z" />
<glyph unicode="L" horiz-adv-x="1169" d="M575 66q121 0 200 13t130 52t81 110.5t54 188.5l78 -10q-25 -70 -39 -121t-25.5 -98t-19.5 -97.5t-16 -113.5q-137 6 -272.5 11t-280.5 5h-115.5t-108 -2t-109.5 -4t-122 -6l13 69q25 -2 41 -3t34 -1q37 0 60.5 5.5t41 23.5t29 55t23.5 101l168 946q4 31 7 54.5t3 41.5 q0 59 -28.5 73.5t-94.5 14.5q-18 0 -37.5 -1t-44.5 -3l13 70q156 -12 311 -13q80 0 147.5 4.5t145.5 8.5l-13 -70q-25 2 -41 3t-34 1q-37 0 -61.5 -5t-41 -23.5t-28 -55.5t-23.5 -100l-168 -946q-4 -25 -6 -45.5t-2 -36.5q0 -35 9 -54.5t27.5 -28.5t47 -11t67.5 -2z" />
<glyph unicode="M" horiz-adv-x="1890" d="M1532 1337l-694 -1278h-62l-170 916q-10 47 -18 90t-15.5 85t-13.5 88t-10 99h-14l-228 -1114q-8 -39 -8 -69q0 -55 27.5 -75t87.5 -20q16 0 36.5 1t43.5 3l-13 -69q-41 2 -69.5 5t-55 4t-55.5 2t-68 1q-37 0 -65.5 -1t-56 -3t-57 -4t-70.5 -4l12 69q20 -4 37.5 -4h34.5 q37 0 62.5 6.5t44 25t30.5 50t22 82.5l207 989q4 23 6 42.5t2 35.5q0 49 -23.5 66.5t-76.5 17.5h-37.5t-44.5 -4l12 70q41 -4 69 -6t52.5 -3t51 -2.5t65.5 -1.5q37 0 57.5 1.5t38 2.5t39 3t62.5 6q2 -29 9 -78t17 -105l113 -593q20 -104 28.5 -176t18.5 -150h12l600 1102 q53 -4 104.5 -7t102.5 -3q57 0 114.5 3t117.5 7l-13 -70q-25 2 -45 4t-39 2q-72 0 -106.5 -33.5t-46.5 -130.5l-131 -989q-4 -20 -6.5 -36.5t-2.5 -32.5q0 -55 29 -76t90 -21q39 0 92 6l-12 -69q-82 6 -154.5 9t-150.5 3q-76 0 -150.5 -3t-158.5 -9l12 69q45 -6 82 -6 q66 0 97.5 35t45.5 131l101 752q8 49 16 101t17.5 100.5t18.5 90.5t17 70h-14z" />
<glyph unicode="N" horiz-adv-x="1572" d="M1192 268l166 942q6 39 6 70q0 55 -27.5 74.5t-87.5 19.5q-18 0 -37.5 -1t-42.5 -3l13 70q57 0 117.5 -6.5t132.5 -6.5q39 0 65.5 1.5t52 2.5t54 3t71.5 6l-12 -70q-25 2 -45.5 4t-36.5 2q-35 0 -58.5 -7t-40 -26.5t-26.5 -51t-18 -81.5l-221 -1247h-89l-507 1104 q-6 12 -17.5 42t-25 65.5t-26.5 71.5t-22 61h-14l-190 -1086q-4 -20 -6.5 -36.5t-2.5 -32.5q0 -53 27 -74t84 -21q37 0 86 6l-12 -69q-41 2 -70 5t-56.5 4t-56 2t-67.5 1q-63 0 -119.5 -4t-122.5 -8l13 69q18 -2 35.5 -3t31.5 -1q72 0 105.5 32t50.5 130l174 989q8 41 8 76 q0 51 -23.5 69.5t-76.5 18.5q-37 0 -88 -6l14 72q57 -4 114.5 -8.5t127.5 -4.5q45 0 80.5 2.5t89.5 10.5q23 -66 45 -121t45 -107l344 -745q14 -29 34.5 -74t43.5 -125h14z" />
<glyph unicode="O" horiz-adv-x="1476" d="M682 -37q-123 0 -222.5 42t-171 122t-110.5 193.5t-39 254.5q0 199 55.5 364t152.5 283.5t230.5 183t288.5 64.5q123 0 223.5 -44t173 -125.5t112.5 -196.5t40 -258q0 -201 -56 -364t-154.5 -277.5t-232.5 -178t-290 -63.5zM682 29q113 0 210 62.5t170 177t114 276.5 t41 358q0 115 -23 208t-67 158.5t-109.5 100.5t-151.5 35q-113 0 -210 -64.5t-167.5 -181.5t-110.5 -279.5t-40 -359.5q0 -231 85 -361t259 -130z" />
<glyph unicode="P" horiz-adv-x="1185" d="M420 1210q8 41 8 76q0 53 -23.5 71.5t-76.5 18.5q-37 0 -86 -6l12 72q66 -6 121 -9t123 -3q45 0 76.5 2t65.5 4t75 4t106 2q121 0 200 -34t125 -86t64.5 -113.5t18.5 -116.5q0 -63 -23.5 -141.5t-90 -146t-187.5 -113.5t-316 -46q-23 0 -48 1t-52 3l-80 -426 q-4 -20 -6 -38.5t-2 -34.5q0 -45 23.5 -69t82.5 -24q33 0 82 6l-10 -69q-158 12 -301 12t-299 -12l12 69q45 -6 78 -6q70 0 103.5 35t50.5 131zM674 717q80 0 147.5 30.5t116.5 86t75.5 131t26.5 165.5q0 66 -23.5 113t-58 77t-74.5 44t-75 14q-61 0 -97 -5t-56.5 -23.5 t-31 -51t-18.5 -88.5l-82 -487q18 -4 47 -5t58 -1h45z" />
<glyph unicode="Q" horiz-adv-x="1474" d="M995 -401q-72 0 -134 30.5t-117.5 82.5t-103.5 121t-89 144q-190 41 -300 197t-110 401q0 199 55.5 364t152.5 283.5t230.5 183t288.5 64.5q123 0 223.5 -44t173 -125.5t112.5 -196.5t40 -258q0 -188 -50 -344t-139 -270.5t-211 -182t-265 -82.5q29 -41 62.5 -87 t71.5 -84t83 -63.5t96 -25.5q37 0 80 16.5t90 53.5l43 -51q-84 -68 -150.5 -97.5t-132.5 -29.5zM684 29q113 0 210 62.5t170 177t114 276.5t41 358q0 115 -22.5 208t-67 158.5t-110 100.5t-151.5 35q-113 0 -210 -64.5t-167.5 -181.5t-110.5 -279.5t-40 -359.5 q0 -231 85 -361t259 -130z" />
<glyph unicode="R" horiz-adv-x="1368" d="M811 745q61 0 103 -14t70 -46t44 -81t27 -119l47 -303q4 -72 40 -98.5t97 -26.5q37 0 80 6l-14 -69q-45 4 -82 7t-78 3q-43 0 -93.5 -5t-123.5 -15q0 49 -5 98t-12.5 104.5t-17.5 118t-23 137.5q-10 72 -20 124t-36 85t-74 48.5t-134 15.5q-16 0 -45 -1t-49 -3l-82 -488 q-4 -23 -6 -39t-2 -30q0 -55 27.5 -75t87.5 -20q16 0 38.5 1t45.5 3l-15 -69q-158 12 -307 12q-72 0 -145.5 -2t-149.5 -10l14 69q23 -2 41.5 -3t30.5 -1q70 0 103.5 32t52.5 132l176 987q6 39 6 72q0 53 -24.5 73.5t-77.5 20.5q-35 0 -84 -6l14 70q66 -6 132.5 -8t133.5 -2 q45 0 65.5 2t47.5 3t72 3t139 2q123 0 196.5 -32t113.5 -79t52.5 -99t12.5 -91q0 -160 -101.5 -260.5t-306.5 -122.5zM592 780q84 0 161.5 18.5t138 60.5t97.5 107.5t37 161.5q0 51 -13.5 97.5t-40 80t-67.5 54t-96 20.5q-61 0 -97 -6t-55.5 -23.5t-30 -51t-20.5 -89.5 l-78 -428q16 -2 32 -2h32z" />
<glyph unicode="S" horiz-adv-x="1130" d="M461 31q68 0 132 19.5t114.5 57t81 97t30.5 139.5q0 86 -43 146.5t-108.5 108.5t-141 90t-141.5 92t-109 116t-43 162q0 106 38 183t108 128t164 75.5t209 24.5q164 0 333 -49q-10 -47 -17 -84t-13 -72.5t-9.5 -71.5t-3.5 -81v-25.5t2 -29.5h-73q4 20 5 35.5t1 35.5 q0 45 -9.5 93.5t-35 89.5t-71.5 67.5t-122 26.5q-100 0 -163.5 -28.5t-99.5 -71.5t-49 -94.5t-13 -96.5q0 -78 44 -133t110.5 -101t143 -89t143.5 -96.5t111 -124t44 -171.5q0 -113 -46 -194.5t-122 -136t-174.5 -80t-204.5 -25.5q-123 0 -213 21.5t-170 46.5l10 51 q8 45 15.5 87t12.5 84t8 87t3 98h78q-4 -23 -6 -51.5t-2 -54.5q0 -47 11 -100.5t41 -98.5t80 -73.5t130 -28.5z" />
<glyph unicode="T" horiz-adv-x="1226" d="M666 244q-6 -31 -8.5 -54.5t-2.5 -42.5q0 -59 29 -73.5t94 -14.5q18 0 38 1t44 3l-12 -69q-78 4 -155 8t-156 4q-80 0 -147.5 -4t-145.5 -8l12 69q25 -2 41 -3t35 -1q37 0 60.5 5.5t41 23.5t28.5 55t23 101l168 944q4 31 8.5 54.5t4.5 41.5q0 55 -38 69.5t-139 14.5 q-84 0 -131 -28.5t-72.5 -74.5t-37.5 -102.5t-27 -113.5l-71 8q18 55 29 102t19.5 92t15.5 90t17 99q41 -4 113 -6t151.5 -3t156.5 -2.5t130 -1.5t128 1.5t153 2.5t146.5 3t109.5 6q-14 -96 -26.5 -178t-12.5 -179v-36h-76q4 35 8.5 74.5t4.5 80.5q0 33 -7.5 62.5t-26 53 t-51 37t-85.5 13.5q-59 0 -96.5 -5t-60 -23.5t-34.5 -54.5t-22 -97z" />
<glyph unicode="U" horiz-adv-x="1511" d="M1303 733q-27 -147 -58 -285.5t-89 -246t-157.5 -173t-263.5 -65.5q-246 0 -359.5 110.5t-113.5 309.5q0 45 6 93t17 102l112 632q4 23 6.5 39.5t2.5 32.5q0 53 -25 71.5t-78 18.5q-20 0 -42.5 -2t-51.5 -6l14 74q80 -4 157 -7.5t152 -3.5q78 0 149 4.5t157 8.5l-15 -74 q-27 4 -49 6t-41 2q-66 0 -96.5 -33.5t-46.5 -130.5l-109 -616q-16 -90 -24 -154.5t-8 -113.5q0 -84 28.5 -141.5t74.5 -91.5t102.5 -48t111.5 -14q123 0 202 63.5t129 163.5t77.5 226t50.5 251l84 475q6 37 6 64q0 59 -31 78.5t-94 19.5q-18 0 -39 -1t-43 -3l12 70 q80 -4 138.5 -6t134.5 -2q37 0 62.5 1t49 2t50 3t69.5 4l-12 -70q-25 2 -45.5 4t-36.5 2q-35 0 -58.5 -7t-40 -26.5t-26.5 -51t-19 -81.5z" />
<glyph unicode="V" horiz-adv-x="1382" d="M1245 1182q45 84 45 127q0 37 -27.5 50t-80.5 13h-37t-43 -2l12 70q59 -4 117.5 -8.5t120.5 -4.5q55 0 107 4.5t114 8.5l-12 -70q-8 2 -18.5 2h-22.5q-61 0 -102.5 -53t-90.5 -143l-676 -1215h-82l-245 1223q-8 43 -16.5 77.5t-21 59.5t-31.5 38t-50 13h-31.5t-34.5 -2 l13 70q147 -12 301 -13q72 0 140.5 3.5t145.5 9.5l-12 -70q-23 4 -49.5 4h-46.5q-72 0 -97.5 -19.5t-25.5 -66.5q0 -29 5 -64.5t15 -82.5l123 -656q12 -66 21.5 -132t19.5 -142h13z" />
<glyph unicode="W" horiz-adv-x="1845" d="M532 -39h-81l-127 1227q-4 45 -10.5 80t-19.5 58.5t-38 35.5t-68 12q-12 0 -24 -1t-27 -3l13 70q61 -4 114 -8.5t131 -4.5q74 0 164 4.5t172 8.5l-12 -70q-20 4 -38.5 4h-35.5q-86 0 -117.5 -19.5t-31.5 -88.5q0 -39 6 -90l61 -586q8 -72 14.5 -146.5t6.5 -160.5h10 l520 1171h74l84 -864q2 -33 5 -63.5t5 -66.5t4 -79t2 -98h10l330 739q49 111 78 176.5t29 106.5t-28 55t-87 14q-18 0 -35.5 -1t-42.5 -3l12 70q68 -4 120 -7t116 -3q53 0 80.5 1t49.5 2t45.5 3t70.5 4l-13 -70q-14 2 -23 3t-22 1q-49 0 -80.5 -16.5t-53 -44t-38 -64.5 t-34.5 -78l-531 -1210h-82l-80 774q-6 63 -14 141t-6 156v51.5t4 46.5h-12z" />
<glyph unicode="X" horiz-adv-x="1359" d="M1036 1118q72 80 110 130t38 79q0 45 -97 45q-18 0 -39.5 -2t-43.5 -2l12 70q59 -4 114.5 -7.5t108.5 -3.5q66 0 128.5 3.5t125.5 7.5l-16 -70q-29 6 -54 6q-41 0 -71.5 -17.5t-58 -45t-56.5 -64.5t-66 -76l-354 -395l213 -487q35 -66 55.5 -110t39 -70.5t41 -38 t61.5 -11.5q12 0 27.5 1t33.5 3l-12 -69q-78 6 -138.5 9t-136.5 3q-150 0 -315 -12l14 69q23 -4 42.5 -4h35.5q55 0 87 14.5t32 51.5q0 18 -8 40.5t-23 55.5q-45 102 -74.5 171t-50 119t-32 87t-19.5 74l-8 2l-16 -20q-17 -19 -43.5 -50t-59.5 -69.5t-67 -79.5 q-82 -96 -187 -217q-35 -39 -55.5 -70t-20.5 -53q0 -57 105 -58q31 0 72 6l-15 -69q-80 6 -139 9t-135 3q-37 0 -61.5 -1t-46 -2t-43 -4t-54.5 -5l12 69q8 -2 25 -2q45 0 80 13.5t65.5 38t59 57.5t63.5 72l422 489l-213 477q-16 33 -31.5 64t-36 52.5t-49 34.5t-71.5 13 h-20.5t-22.5 -2l12 70q63 -4 120.5 -8.5t135.5 -4.5q74 0 159 4.5t165 8.5l-13 -70q-23 0 -44 1t-40 1q-57 0 -81.5 -11t-24.5 -52q0 -18 9 -44t26 -61q35 -82 58.5 -134t39.5 -90t26.5 -70.5t20.5 -75.5h10z" />
<glyph unicode="Y" horiz-adv-x="1273" d="M770 606l-65 -383q-6 -41 -7 -69q0 -55 26 -76t81 -21q33 0 82 6l-10 -69q-158 12 -302 12q-141 0 -301 -12l13 69q45 -6 80 -6q70 0 103.5 35t49.5 131l66 383l-230 594q-16 39 -27.5 71t-26.5 55.5t-38.5 35.5t-62.5 12q-10 0 -20.5 -1t-22.5 -3l12 70 q63 -4 122.5 -8.5t131.5 -4.5t147.5 4.5t153.5 8.5l-12 -70q-25 2 -46.5 3t-39.5 1q-59 0 -91 -14t-32 -55t28 -105l103 -246q29 -66 52.5 -133t37.5 -135h14l262 373q76 104 111 168.5t35 97.5q0 29 -22.5 39t-65.5 10q-18 0 -34.5 -1t-41.5 -5l10 70q66 -4 115 -7.5 t106 -3.5q51 0 78 1.5t45.5 2.5t40 3t66.5 4l-12 -70q-10 2 -22.5 2h-20.5q-39 0 -68 -14.5t-53.5 -41t-48 -61t-52.5 -73.5z" />
<glyph unicode="Z" horiz-adv-x="1232" d="M803 1098q25 31 46 61.5t47 61t56.5 64.5t71.5 73l-6 4h-324q-94 0 -162.5 -9.5t-119 -41t-85 -95t-61.5 -172.5l-69 11q25 70 39 114.5t23 84.5t15.5 82t16.5 108q68 -4 123 -7t108 -4t109.5 -2t126.5 -1q45 0 105.5 1t123 2t122.5 4t110 7l28 -53l-837 -1098 q-31 -41 -50.5 -63.5t-36 -42t-37 -41t-50.5 -58.5l8 -10h368q106 0 183 12t131.5 49t91.5 104.5t63 176.5l72 -10q-27 -70 -41 -120t-23.5 -95t-16.5 -93.5t-17 -111.5q-51 2 -119 5t-144.5 5t-157.5 4t-155 2q-90 0 -142 -1t-92 -3t-82 -5t-110 -7l-37 65z" />
<glyph unicode="[" horiz-adv-x="628" d="M444 -270l-12 -78h-379l322 1818h379l-13 -77h-204l-297 -1663h204z" />
<glyph unicode="\" horiz-adv-x="899" d="M731 -172l-96 -37l-397 1716l94 41z" />
<glyph unicode="]" horiz-adv-x="634" d="M119 -270l297 1665h-203l12 78h385l-321 -1821h-383l12 78h201z" />
<glyph unicode="^" horiz-adv-x="1032" d="M586 1444l448 -793l-61 -37l-414 732l-409 -732l-60 37l436 793h60z" />
<glyph unicode="_" d="M887 -276h-1022l16 81h1024z" />
<glyph unicode="`" horiz-adv-x="819" d="M645 1085q-59 68 -103 115t-75 81t-46 58.5t-15 46.5q0 39 20 58.5t55 19.5q33 0 62.5 -29.5t56.5 -78.5t51.5 -110.5t48.5 -125.5z" />
<glyph unicode="a" horiz-adv-x="1026" d="M594 172q-10 -18 -33.5 -52t-61.5 -67t-93.5 -57.5t-124.5 -24.5q-70 0 -116 20.5t-74 52.5t-39 70t-11 74q0 59 28.5 121t98.5 112t185.5 84t289.5 36q10 55 17.5 93t12.5 65.5t8 48t3 43.5q0 55 -31.5 91t-115.5 36q-25 0 -51.5 -5.5t-51 -18.5t-41 -35.5t-18.5 -57.5 q-4 -76 -32 -111t-75 -35q-12 0 -26.5 2t-28.5 10.5t-23.5 25t-9.5 42.5q0 39 24.5 82t72 79t116 59.5t156.5 23.5q135 0 214 -57.5t79 -182.5q0 -23 -6.5 -56.5t-10.5 -59.5l-41 -213q-2 -12 -8 -44t-12 -67t-11 -69.5t-5 -53.5q0 -29 10 -55.5t39 -26.5q25 0 47 15.5 t39 33.5q20 23 37 52l45 -45q-25 -33 -51.5 -65t-56.5 -56.5t-62.5 -40t-71.5 -15.5q-53 0 -87 34t-34 106v26.5t4 30.5zM633 477q-70 0 -143.5 -10t-135 -42t-101.5 -89t-40 -150q0 -23 5 -46t18.5 -42.5t39 -33t66.5 -13.5q63 0 111.5 39t83 94.5t56 114.5t28.5 102z" />
<glyph unicode="b" horiz-adv-x="1091" d="M319 1247q2 10 3.5 19.5t1.5 19.5q0 39 -18.5 62.5t-63.5 23.5q-35 0 -97 -6l11 68q31 -2 61.5 -3t52.5 -1q39 0 71 1t59.5 4t55 8t62.5 11l-67 -385q-6 -29 -13.5 -73t-16.5 -89t-18.5 -84t-15.5 -59l10 -6q59 100 146.5 154.5t167.5 54.5q78 0 134 -28t93 -75 t54.5 -111.5t17.5 -138.5q0 -141 -42 -257.5t-113 -200.5t-162 -131.5t-187 -47.5q-55 0 -92 12.5t-64.5 26t-48 25.5t-41.5 12q-27 0 -46 -11t-34 -24q-16 -16 -28 -34l-64 16q29 125 51.5 245t42.5 244zM344 483q-10 -43 -19.5 -99t-9.5 -112q0 -45 8.5 -87t27 -73.5 t50 -51t80.5 -19.5q68 0 131.5 48t111.5 133t77.5 201t29.5 253q0 109 -37.5 166t-109.5 57q-45 0 -94 -26.5t-95 -79t-86 -130.5t-65 -180z" />
<glyph unicode="c" horiz-adv-x="935" d="M590 909q-51 0 -108.5 -35.5t-105.5 -110.5t-80 -187.5t-32 -266.5q0 -143 62.5 -211.5t167.5 -68.5q37 0 78.5 15t80.5 47t71 79t50 109l10 -5q6 -2 23 -6q14 -6 33 -10q-43 -129 -143.5 -212t-237.5 -83q-86 0 -154.5 28.5t-118 80t-76 124t-26.5 160.5q0 131 37 245 t104.5 198t160.5 132t206 48q82 0 139 -19.5t94 -49t54.5 -66.5t17.5 -72q0 -49 -13.5 -79.5t-33 -48t-41 -25t-37.5 -7.5q-33 0 -55.5 20.5t-22.5 65.5q0 25 5.5 41.5t10.5 29.5t10 27.5t5 34.5q0 37 -30.5 57.5t-104.5 20.5z" />
<glyph unicode="d" horiz-adv-x="1138" d="M766 494q6 39 11 81.5t5 83.5q0 45 -8 89.5t-27.5 79t-52 55t-84.5 20.5q-78 0 -140 -54t-108.5 -142.5t-71 -199t-24.5 -222.5q0 -139 39 -191.5t113 -52.5q57 0 113.5 36t103.5 98.5t81 144.5t50 174zM727 211q-59 -117 -151.5 -176.5t-206.5 -59.5q-137 0 -213 89.5 t-76 267.5q0 135 41 250.5t110.5 201.5t159.5 134.5t189 48.5q66 0 131 -22.5t116 -100.5l9 2q2 66 13 120t21.5 106t19.5 104.5t9 113.5q0 57 -37 68.5t-110 11.5h-21.5t-25.5 -2l10 68q57 -6 114 -6q66 0 131.5 5t141.5 19q-23 -137 -47.5 -262t-46.5 -254l-80 -467 q-18 -109 -31.5 -180.5t-13.5 -116.5q0 -72 22.5 -93.5t69.5 -21.5q14 0 38.5 2t45.5 7l-10 -68q-16 2 -32 2h-32q-131 0 -264 -33q0 45 3 101.5t15 138.5z" />
<glyph unicode="e" horiz-adv-x="972" d="M850 252q-37 -66 -77 -118t-89 -91t-108.5 -59.5t-133.5 -20.5q-176 0 -268 106.5t-92 282.5q0 135 42 250t115.5 199t173 131t212.5 47q86 0 143 -19.5t91 -51t48.5 -71.5t14.5 -81q0 -152 -133.5 -223.5t-401.5 -71.5h-115q-8 -43 -11 -83t-3 -75q0 -143 59.5 -208.5 t165.5 -65.5q72 0 155 58t148 189l33 -12q15 -6 31 -12zM395 526q98 0 165 19.5t107 53.5t57 80t17 99q0 59 -27.5 99.5t-107.5 40.5q-59 0 -110.5 -37t-92.5 -93.5t-68.5 -126t-39.5 -135.5h100z" />
<glyph unicode="f" horiz-adv-x="649" d="M305 0h-182q49 236 92 473l72 399h-191l13 70h188l29 158q8 47 26.5 109.5t56 117.5t99 93t154.5 38q49 0 93 -10t77.5 -31.5t54 -53.5t20.5 -73q0 -55 -28.5 -75.5t-63.5 -20.5q-39 0 -58.5 14.5t-28.5 37t-13 48t-11.5 48t-23.5 37t-49 14.5q-49 0 -74 -34t-38 -89.5 t-20 -125t-20 -138.5l-10 -64h231l-12 -70h-231z" />
<glyph unicode="g" horiz-adv-x="937" d="M342 -395q88 0 148.5 17.5t97.5 46t52 66.5t15 79q0 45 -22.5 71.5t-60 42t-86 20.5t-98.5 8t-99 6t-88 13q-78 -25 -113 -69.5t-35 -104.5q0 -33 16.5 -67.5t51.5 -63t89 -47t132 -18.5zM518 918q-66 0 -111 -36t-72.5 -90.5t-40.5 -117t-13 -117.5q0 -98 39.5 -151.5 t113.5 -53.5q47 0 88 27t72 75t48 113.5t17 145.5q0 94 -34.5 149.5t-106.5 55.5zM901 870q-53 0 -96 2t-66 13q41 -35 63.5 -90.5t22.5 -137.5q0 -76 -27.5 -142t-78.5 -115.5t-121 -78t-154 -28.5q-47 0 -104 10q-78 -23 -101.5 -58.5t-23.5 -58.5q0 -41 42 -56 t105.5 -22.5t137 -12.5t137 -24.5t105.5 -58.5t42 -114q0 -166 -124.5 -262.5t-348.5 -96.5q-182 0 -281.5 69.5t-99.5 176.5q0 31 9.5 62.5t34 60.5t66.5 52.5t107 41.5q-29 18 -50 47t-21 76q0 59 53 117.5t160 89.5q-78 27 -125 97.5t-47 152.5q0 86 29.5 157.5t83 123.5 t126 82t158.5 30q39 0 71.5 -6t65.5 -12.5t68 -12.5t80 -6h68.5t31.5 1t29.5 2t62.5 1l-12 -72h-78z" />
<glyph unicode="h" horiz-adv-x="1101" d="M403 793l9 -2q20 31 50 62.5t67.5 56t86 41t103.5 16.5q68 0 111.5 -16.5t69.5 -46.5t36 -67.5t10 -80.5q0 -39 -6 -77t-12 -75l-64 -360q-8 -41 -12 -70t-4 -49q0 -35 23.5 -47t91.5 -12h26.5t28.5 2l-12 -68q-37 2 -76 4t-82 2q-45 0 -94 -4t-103 -14l88 481 q20 106 33.5 181t13.5 128q0 61 -24.5 91t-85.5 30q-49 0 -101.5 -32.5t-100.5 -96t-86 -157t-56 -212.5l-66 -401h-178q23 117 46.5 234.5t45.5 234.5l133 754q4 25 6.5 43t2.5 34q0 39 -20.5 54.5t-70.5 15.5q-16 0 -42.5 -1t-49.5 -5l13 70q68 -6 135 -7q59 0 118.5 5.5 t118.5 21.5z" />
<glyph unicode="i" horiz-adv-x="606" d="M348 244q-8 -41 -12 -70t-4 -49q0 -35 23.5 -47t90.5 -12h36t38 2l-12 -68q-35 2 -76 4t-84 2q-51 0 -105.5 -4t-109.5 -14l131 741q4 25 6 43.5t2 34.5q0 43 -27.5 58.5t-62.5 15.5q-27 0 -52.5 -2t-45.5 -5l14 68q25 -2 49.5 -3t49.5 -1q66 0 134 5t144 24zM416 1217 q-53 0 -78 28.5t-25 69.5q0 25 9.5 51.5t28 48t45 34.5t61.5 13q51 0 73.5 -28.5t22.5 -65.5q0 -27 -9 -53.5t-27.5 -48t-44 -35.5t-56.5 -14z" />
<glyph unicode="j" horiz-adv-x="573" d="M336 174q-20 -113 -35.5 -227.5t-50.5 -207.5t-98.5 -151.5t-178.5 -58.5q-49 0 -101 13.5t-93 41.5l39 60q14 -14 50 -29.5t69 -15.5q63 0 99 43t57.5 119.5t35.5 182t37 228.5l86 483q10 53 15 91t7 63q0 45 -28.5 58.5t-73.5 13.5q-29 0 -41 -2t-45 -7l12 70 q23 -2 48.5 -3t52.5 -1q70 0 141.5 5t136.5 24zM416 1217q-53 0 -78 28.5t-25 69.5q0 25 9.5 51.5t28 48t45 34.5t61.5 13q51 0 73.5 -28.5t22.5 -65.5q0 -27 -9 -53.5t-27.5 -48t-44 -35.5t-56.5 -14z" />
<glyph unicode="k" horiz-adv-x="1042" d="M268 0h-180q27 119 49.5 235.5t44.5 235.5l137 780q2 12 3.5 23.5t1.5 21.5q0 43 -20.5 60.5t-57.5 17.5q-23 0 -50.5 -2t-60.5 -6l12 68q33 -2 62 -3t53 -1q74 0 133.5 5t130.5 19l-153 -870q47 0 81.5 11t69.5 36q66 49 115 83t81 58.5t48 43t16 36.5q0 23 -31.5 26 t-78.5 3h-39l10 61q70 -6 135 -6q66 0 127.5 7t126.5 24q0 -41 -33.5 -76t-95 -76t-149.5 -96t-199 -137q18 -2 32.5 -17.5t26 -38t20.5 -46t17 -42.5l127 -276q29 -59 66 -79t96 -20h23.5t27.5 3l-12 -66q-29 2 -55.5 3t-53.5 1q-53 0 -102 -4t-102 -12q0 2 -1 4t-1 4 q-6 25 -13.5 45t-25 63t-50 120t-94.5 212q-14 31 -23 48.5t-20.5 26.5t-29 12t-48.5 3z" />
<glyph unicode="l" horiz-adv-x="575" d="M319 244q-6 -31 -8 -55.5t-4 -43.5q0 -47 22.5 -64.5t100.5 -17.5q10 0 29.5 1.5t32.5 3.5l-13 -68q-41 2 -76.5 3t-76.5 1q-51 0 -106.5 -3t-115.5 -13l222 1235q4 25 6 43t2 34q0 39 -19.5 54.5t-68.5 15.5q-16 0 -46 -1t-53 -3l11 68q25 -2 52.5 -3t51.5 -1 q66 0 131.5 5t141.5 23z" />
<glyph unicode="m" horiz-adv-x="1622" d="M408 737q16 35 46.5 76t72.5 75t96.5 56.5t115.5 22.5q111 0 153 -58.5t42 -156.5h8q18 31 51 68.5t76 69.5t94 54.5t107 22.5q57 0 95 -17.5t59.5 -46.5t30.5 -67.5t9 -81.5q0 -37 -5 -75t-11 -75l-76 -401q-4 -23 -6 -42.5t-4 -35.5q0 -31 15.5 -47.5t60.5 -18.5 q16 0 49 2t55 7l-12 -68q-29 2 -60.5 3t-66.5 1q-59 0 -119.5 -3t-112.5 -13q18 111 47 248t58 327q16 80 24.5 129t8.5 90q0 49 -17.5 81t-70.5 32q-33 0 -78 -21.5t-91 -70.5t-87 -131t-62 -201l-86 -471h-174q29 115 52.5 234.5t43.5 232.5l19 96q10 61 18 116.5t8 98.5 q0 53 -17 85t-60 32t-92.5 -21.5t-93.5 -71.5t-81 -131t-57 -200l-82 -471h-176q29 123 50.5 238.5t41.5 228.5l35 190q6 35 8 64t2 51q0 63 -20.5 86t-65.5 23q-16 0 -45 -1t-49 -6l12 68q23 -2 39.5 -3t30.5 -1q72 0 131 6t133 23q0 -31 -2 -54.5t-5 -49t-8 -55.5t-14 -69 z" />
<glyph unicode="n" horiz-adv-x="1138" d="M776 469q18 104 32.5 180t14.5 131q0 61 -24.5 92t-85.5 31q-53 0 -104.5 -33.5t-97.5 -97t-83 -158t-57 -213.5l-70 -401h-176q10 47 24.5 114.5t30 142.5t29.5 153.5t25.5 149.5t18.5 127t7 89q0 66 -22.5 84.5t-65.5 18.5q-14 0 -41 -1t-47 -4l12 68q18 -4 47 -4h47 q61 0 115.5 7t120.5 18q-4 -53 -7 -104.5t-16 -129.5h11q12 27 40.5 68t71.5 78.5t100.5 64.5t127.5 27q68 0 111.5 -16.5t69.5 -45t36 -66.5t10 -81q0 -41 -5 -80t-13 -78l-64 -356q-4 -39 -9 -66.5t-5 -48.5q0 -39 23.5 -54.5t95.5 -15.5q10 0 26.5 1t28.5 3l-12 -67 q-35 2 -72 5t-74 3q-51 0 -104.5 -3t-108.5 -13z" />
<glyph unicode="o" horiz-adv-x="1052" d="M967 557q0 -104 -35 -209.5t-101.5 -190.5t-163 -139.5t-218.5 -54.5q-168 0 -265.5 105.5t-97.5 316.5q0 104 33 209.5t98.5 191.5t161.5 139.5t225 53.5q168 0 265.5 -105.5t97.5 -316.5zM457 27q86 0 147.5 62.5t101 151.5t59 189t19.5 174q0 70 -7 127t-28.5 98 t-58.5 63.5t-94 22.5q-84 0 -145.5 -60t-101.5 -148.5t-60.5 -188.5t-20.5 -180q0 -70 7.5 -127t29 -98t57.5 -63.5t95 -22.5z" />
<glyph unicode="p" horiz-adv-x="1140" d="M725 899q-74 0 -141.5 -60.5t-117.5 -151.5t-80 -198.5t-30 -203.5q0 -51 7.5 -95.5t26 -77t49 -51t77.5 -18.5q76 0 142.5 54.5t114.5 140.5t76 193.5t28 211.5q0 141 -39 198.5t-113 57.5zM45 -471q12 68 22.5 126t21.5 113.5t21.5 112t22.5 119.5l84 467 q10 55 18.5 98t13.5 79t8 67.5t3 62.5q0 39 -8 59.5t-23.5 30.5t-39 12.5t-54.5 2.5q-20 0 -33.5 -2.5t-23.5 -2.5l12 68q16 -2 30.5 -2h31.5q63 0 130.5 4t139.5 23q0 -45 -3 -100.5t-16 -137.5l11 -2q63 117 155.5 178.5t198.5 61.5q137 0 213 -101.5t76 -279.5 q0 -129 -43 -241t-114 -194.5t-163 -130t-190 -47.5q-63 0 -125 23.5t-117 77.5l-8 -2q0 -39 -3 -63.5t-7 -52.5t-11.5 -65.5t-17.5 -105.5q-4 -31 -8 -54.5t-4 -41.5q0 -49 28.5 -65.5t106.5 -16.5h25.5t27.5 2l-10 -68q-35 2 -76 4t-86 2q-53 0 -107.5 -4t-109.5 -14z" />
<glyph unicode="q" horiz-adv-x="1091" d="M782 -213q-4 -31 -9 -55.5t-5 -42.5q0 -49 28.5 -65.5t106.5 -16.5h25.5t27.5 2l-10 -68q-35 2 -76 4t-86 2q-53 0 -107 -4t-110 -14l70 340q6 29 15.5 77t18.5 96t18 88t16 52l-13 6q-59 -100 -146 -156.5t-167 -56.5q-78 0 -134.5 27t-92 75t-53 113.5t-17.5 143.5 q0 141 41 258t109.5 201t159.5 131t192 47q55 0 92 -12.5t64.5 -25.5t48 -25.5t40.5 -12.5q27 0 47.5 11.5t36.5 25.5q18 16 33 39l55 -23q-29 -125 -49 -239.5t-41 -239.5zM745 465q10 43 18.5 98t8.5 113q0 45 -7 87t-25.5 73.5t-50.5 51t-81 19.5q-68 0 -131 -49 t-113.5 -135t-80 -203t-29.5 -252q0 -111 40 -167t112 -56q45 0 94 27.5t95 81t85.5 131.5t64.5 180z" />
<glyph unicode="r" horiz-adv-x="856" d="M307 0h-182q16 74 29.5 135.5t23.5 116.5t19.5 108.5t19.5 108.5l35 193q8 41 10 69.5t2 50.5q0 35 -8 53.5t-24.5 27.5t-41 11.5t-59.5 2.5h-24.5t-22.5 -3l12 68q16 -2 31.5 -4t32.5 -2q61 0 126.5 6t147.5 25q0 -55 -8 -120t-16 -106l10 -4q25 51 59.5 94t76.5 74 t87 48.5t88 17.5q90 0 127 -44t37 -100q0 -53 -29.5 -92t-79.5 -39q-53 0 -71.5 21.5t-18.5 54.5q0 16 4.5 35.5t4.5 38.5q0 20 -13.5 31.5t-34.5 11.5q-31 0 -70.5 -34t-79.5 -95.5t-74 -148.5t-52 -191z" />
<glyph unicode="s" horiz-adv-x="880" d="M795 934q-16 -66 -25.5 -124t-9.5 -140h-64q2 10 2 39q0 20 -4 55t-22.5 68.5t-56 58t-105.5 24.5q-86 0 -142.5 -46t-56.5 -124q0 -49 33 -85.5t82 -68.5t106.5 -62.5t106.5 -68.5t82 -87t33 -117q0 -88 -40 -144.5t-101.5 -89t-133 -46t-135.5 -13.5q-80 0 -161 15.5 t-136 44.5q33 129 33 272h67q-2 -12 -3 -24.5t-1 -24.5q0 -98 53.5 -159.5t157.5 -61.5q119 0 168 55t49 141q0 53 -31.5 91t-80.5 69t-104.5 59.5t-104.5 63.5t-81 81t-32 111q0 57 23.5 108.5t71 90.5t117 61.5t163.5 22.5q61 0 105.5 -4t76 -11.5t55 -15.5t46.5 -14z" />
<glyph unicode="t" horiz-adv-x="696" d="M92 872l14 70q166 0 242 80t101 238h71l-53 -318h244l-13 -70h-243l-113 -643q-10 -57 -10 -94q0 -35 13 -56.5t48 -21.5q47 0 91 48.5t104 125.5l47 -34q-33 -47 -70 -90.5t-76.5 -75t-81.5 -50t-83 -18.5q-78 0 -122 37t-44 145q0 35 5 77t15 95l94 555h-180z" />
<glyph unicode="u" horiz-adv-x="1136" d="M362 473q-16 -98 -27 -171t-11 -124q0 -70 23.5 -101.5t80.5 -31.5q49 0 99.5 33t96.5 95.5t81.5 154.5t58.5 213l72 401h178q-27 -117 -52.5 -239.5t-45 -231.5t-32 -192.5t-12.5 -120.5q0 -66 34 -80.5t110 -14.5h13t22 3l-13 -66q-23 2 -46 2h-46q-59 0 -118.5 -5 t-120.5 -22q0 51 4 103.5t14 124.5l-10 2q-14 -31 -41 -71t-67 -74.5t-94 -59.5t-124 -25q-68 0 -112 18.5t-70.5 49.5t-36.5 73t-10 91q0 31 4 64.5t10 68.5l66 358q6 39 11 68t5 49q0 35 -24.5 48.5t-92.5 13.5h-28.5t-30.5 -3l12 68q31 -2 67 -4t77 -2q53 0 107 5t108 17 z" />
<glyph unicode="v" horiz-adv-x="1009" d="M399 963q0 -109 11.5 -218.5t23.5 -211t23.5 -190.5t13.5 -155h10l236 365q18 31 40.5 62.5t42 64.5t32 62.5t12.5 54.5q0 23 -6.5 37t-24.5 23t-53 13t-92 4l12 68q23 -2 57.5 -3t57.5 -1q63 0 116.5 6t120.5 19q-6 -35 -21.5 -69t-43 -81t-72.5 -112.5t-110.5 -163 t-155.5 -233.5t-207 -324h-76l-82 583q-12 94 -19 155.5t-19.5 97.5t-33 50.5t-61.5 14.5q-12 0 -25.5 -1t-29.5 -3l14 65q29 -2 63.5 -3t65.5 -1q84 0 180 25z" />
<glyph unicode="w" horiz-adv-x="1439" d="M1006 209l256 491q18 35 29.5 63t11.5 48q0 37 -28 50t-75 13q-16 0 -41.5 -1t-46.5 -3l12 72q20 -4 39 -4h39q61 0 121.5 5t122.5 20q-10 -55 -38 -119t-83 -171.5t-144 -273.5t-223 -424h-69l-82 496q-10 59 -16.5 116.5t-12.5 117.5h-10l-352 -730h-74l-88 689 q-8 57 -15.5 98t-19.5 65.5t-32.5 35.5t-57.5 11h-29.5t-31.5 -4l12 72q23 -4 42 -4h40q59 0 113.5 4t109.5 21q0 -119 10.5 -221.5t21.5 -192.5t21.5 -174t10.5 -166h8l352 733h80l72 -473q10 -63 19 -129t15 -131h11z" />
<glyph unicode="x" horiz-adv-x="1011" d="M598 504q45 -121 76 -205t58.5 -137t61 -78t87.5 -25q35 0 67 9l-16 -68q-29 2 -53.5 2h-51.5q-53 0 -106 -4t-117 -18q-4 25 -11 55.5t-20.5 79.5t-37 120.5t-62.5 180.5l-192 -168q-43 -41 -76 -76t-35 -66q-2 -27 24.5 -36t88.5 -9q43 0 73 7l-16 -68q-29 2 -57.5 3 t-57.5 1q-66 0 -135.5 -5t-130.5 -15q2 37 34 81t92 102t150.5 135t206.5 179l-73 205q-20 43 -33.5 78t-31 61.5t-44.5 41t-72 14.5q-31 0 -67 -7l16 68q33 -2 59.5 -3t53.5 -1q53 0 100 4t105 21q8 -27 14 -53.5t17.5 -67.5t30 -105.5t54.5 -165.5q135 117 201 180.5 t68 92.5q2 20 -32 27.5t-81 7.5q-14 0 -26.5 -1t-24.5 -1l14 65q37 -2 67.5 -3t65.5 -1q53 0 106.5 4t112.5 21q-2 -39 -48 -93.5t-112.5 -115t-143.5 -125t-140 -125.5z" />
<glyph unicode="y" horiz-adv-x="1009" d="M401 963q0 -109 11.5 -218.5t24 -211t23.5 -190.5t13 -155h10l236 365q18 31 40.5 62.5t42 64.5t32 62.5t12.5 54.5q0 23 -6 37t-24.5 23t-53.5 13t-92 4l12 68q23 -2 57.5 -3t57.5 -1q63 0 116.5 6t120.5 19q-6 -35 -21.5 -69t-47 -83t-80.5 -121t-122 -181.5t-172 -265 t-231 -372.5q-70 -115 -114.5 -182.5t-79.5 -102.5t-64.5 -46t-66.5 -11q-43 0 -67.5 27.5t-24.5 64.5q0 35 22.5 69t85.5 34q23 0 33 -2.5t27 -2.5q27 0 47 7.5t44.5 35t58.5 81t87 143.5l-76 577q-12 94 -22 155.5t-23.5 97.5t-33 50.5t-50.5 14.5q-12 0 -30.5 -1 t-34.5 -3l14 65q29 -2 63.5 -3t65.5 -1q84 0 180 25z" />
<glyph unicode="z" horiz-adv-x="915" d="M463 66q80 0 128 19t76.5 55t45 87.5t32.5 112.5l64 -12q-18 -53 -30.5 -93t-21.5 -76t-15.5 -75t-12.5 -90q-45 4 -131 7t-186 3q-109 0 -213.5 -3t-171.5 -9l-11 49q139 180 237.5 309t166 218t110.5 143.5t71 87t45.5 49t37.5 29.5h-262q-104 0 -158.5 -63.5 t-83.5 -188.5l-61 8q18 57 29.5 94t18.5 68.5t12 65.5t14 85q57 -4 150 -7t196 -3q90 0 173 2t146 8l12 -47q-137 -178 -233 -304t-162.5 -213t-107.5 -140.5t-68 -86t-45 -52t-39 -37.5h248z" />
<glyph unicode="{" horiz-adv-x="624" d="M438 784q-16 -88 -54 -141t-122 -74l-2 -8q59 -16 83 -51t24 -90q0 -35 -7 -74l-75 -416q-6 -25 -6 -51q0 -27 6 -55.5t22.5 -53t45 -44t71.5 -25.5l-12 -51q-35 0 -86.5 11t-99.5 40t-82.5 76t-34.5 119q0 25 6 55q31 178 48 275.5t26.5 145.5t11.5 60t2 23 q0 33 -24.5 57.5t-102.5 30.5q-6 6 -6 14q0 20 14 31q49 4 80 15t49 33.5t29.5 57.5t19.5 84l76 453q14 90 61 138t106.5 70.5t122 26.5t107.5 4l-8 -53q-66 -2 -105.5 -17.5t-61 -38t-31 -51t-13.5 -59.5l-78 -467v0z" />
<glyph unicode="|" horiz-adv-x="585" d="M354 -512h-110v2048h110v-2048z" />
<glyph unicode="}" horiz-adv-x="616" d="M215 340q16 88 54 141.5t122 73.5l2 8q-59 16 -82.5 51t-23.5 91q0 33 6 73l76 424q6 25 6 51q0 27 -6.5 53.5t-22.5 50t-45 41t-72 23.5l9 49q35 0 85 -9t97 -35.5t81 -71.5t34 -117q0 -25 -7 -55q-20 -119 -34.5 -201t-24.5 -137.5t-15 -87t-8.5 -49t-4.5 -24.5t-1 -13 q0 -33 24.5 -57.5t102.5 -30.5q6 -6 6 -15q0 -20 -14 -30q-49 -4 -79.5 -15.5t-49 -34t-30 -57.5t-19.5 -84l-76 -455q-16 -90 -61 -138t-102.5 -70.5t-118 -25.5t-105.5 -3l8 55q66 2 105 16.5t60.5 37t30.5 50t15 58.5z" />
<glyph unicode="~" d="M940 573q-45 -90 -104.5 -126.5t-126.5 -36.5q-41 0 -91.5 15t-97.5 38q-51 25 -90 43t-92 18t-90 -32.5t-70 -79.5l-78 47q41 74 101.5 113.5t148.5 39.5q61 0 113.5 -23.5t95.5 -43.5q51 -23 90 -36t68 -13q51 0 80.5 31.5t64.5 86.5z" />
<glyph unicode="&#xa1;" horiz-adv-x="593" d="M125 -469q-59 0 -86 40t-27 105q0 70 36 164t80 208t85 248t51 288h82q-29 -127 -39 -251t-10 -229q0 -80 2 -144t2 -122q0 -66 -10 -122t-31.5 -97t-55.5 -64.5t-79 -23.5zM489 897q0 -78 -45 -121t-104 -43q-49 0 -82 32t-33 97q0 78 45 119t105 41q49 0 81.5 -32 t32.5 -93z" />
<glyph unicode="&#xa2;" horiz-adv-x="966" d="M651 971q61 0 107.5 -20.5t77 -51.5t47 -66.5t16.5 -68.5q0 -49 -12.5 -80t-30.5 -48.5t-38.5 -24.5t-37.5 -7q-33 0 -55.5 20.5t-22.5 65.5q0 25 5.5 41.5t10.5 29.5t10 27.5t5 34.5q0 31 -23.5 52.5t-70.5 27.5l-156 -874h19q37 0 79 15t80.5 47t70.5 79t50 109 q4 -2 11 -5q6 -2 22 -6q14 -6 33 -10q-43 -129 -141.5 -212t-233.5 -83l-37 -209h-69l36 215q-61 2 -117.5 33t-99.5 83t-68.5 121.5t-25.5 149.5q0 129 35 243t99.5 197t154.5 131t201 48l36 205h70zM272 309q0 -113 39 -178t107 -90l151 864q-49 -8 -102 -49t-96 -114.5 t-71 -181.5t-28 -251z" />
<glyph unicode="&#xa3;" horiz-adv-x="1214" d="M367 786q29 135 59.5 259t85.5 218.5t146.5 150.5t238.5 56q63 0 119.5 -13t97.5 -42t65.5 -72t24.5 -104q0 -51 -25.5 -88t-84.5 -37q-37 0 -71 28.5t-34 71.5q0 29 7.5 54.5t7.5 54.5q0 37 -19.5 59.5t-81.5 22.5q-70 0 -120 -31t-84.5 -81t-56 -115.5t-37 -134 t-26 -136t-20.5 -121.5h285l-15 -84h-286q-35 -172 -73 -273t-76 -159.5t-73.5 -87t-66.5 -55.5l8 -10q72 27 130.5 40t135.5 13q43 0 83 -8t81 -17.5t81 -16.5t83 -7t76 19.5t56.5 42t35.5 42t16 19.5l54 -31q-35 -72 -77 -118t-88 -72.5t-92 -36t-89 -9.5q-47 0 -91.5 6.5 t-88.5 12.5l-88 12t-91 6q-39 0 -76 -2t-78.5 -5t-90 -8t-109.5 -13l-15 51q6 4 30 15t54.5 36t64.5 68t58 110q35 98 68 215t55 221h-227l16 84h228z" />
<glyph unicode="&#xa4;" horiz-adv-x="1193" d="M983 195l-137 157q-47 -33 -103.5 -52t-109.5 -19t-113.5 18t-107.5 51l-131 -155l-91 90l138 129q-47 66 -71 124t-24 140q0 80 25 138t70 120l-138 135l91 86l133 -153q47 35 104 52t117 17q49 0 108.5 -18.5t106.5 -50.5l133 153l90 -86l-137 -133q45 -59 69.5 -119.5 t24.5 -140.5q0 -82 -24.5 -140.5t-71.5 -121.5l139 -131zM633 991q-51 0 -96 -23.5t-79 -64.5t-53.5 -99.5t-19.5 -125.5q0 -70 19.5 -127t53.5 -99t80 -66t97 -24t95 24t78 66t53.5 99t19.5 127q0 68 -19.5 126t-53.5 99t-79 64.5t-96 23.5z" />
<glyph unicode="&#xa5;" horiz-adv-x="1368" d="M610 502l23 141h-301l16 78h260l-196 479q-16 39 -28.5 71t-28 55.5t-38 35.5t-61.5 12q-10 0 -20.5 -1t-22.5 -3l12 70q59 -6 120 -9.5t134 -3.5q72 0 147.5 4.5t153.5 8.5l-12 -70q-25 2 -46.5 3t-39.5 1q-59 0 -91 -14t-32 -55q0 -35 29 -105l188 -479h19l231 328 q76 109 113 173t37 99q0 29 -24 40t-67 11q-16 0 -36.5 -1t-42.5 -3l10 70q66 -4 115 -7.5t106 -3.5q51 0 77.5 1.5t45 2.5t40 3t66.5 4l-12 -70q-10 2 -17 2h-16q-39 0 -67.5 -14.5t-53 -41t-48 -61t-52.5 -73.5l-328 -459h265l-17 -78h-297l-26 -141h301l-17 -78h-299 l-34 -201q-8 -39 -9 -71q0 -53 27 -74t82 -21q33 0 82 6l-10 -69q-158 12 -302 12q-141 0 -301 -12l13 69q45 -6 80 -6q70 0 103.5 35t49.5 131l33 201h-303l16 78h301z" />
<glyph unicode="&#xa6;" horiz-adv-x="579" d="M350 -379h-110v758h110v-758zM350 647h-110v758h110v-758z" />
<glyph unicode="&#xa7;" horiz-adv-x="1067" d="M449 883q-66 41 -112 101t-46 153q0 66 28.5 126t83 106t131 73.5t175.5 27.5q61 0 120.5 -12t105.5 -37.5t74.5 -63.5t28.5 -89q0 -72 -34.5 -113t-88.5 -41q-88 0 -88 86q0 33 16.5 60.5t16.5 64.5q0 25 -17.5 41t-42 25.5t-53 13.5t-51.5 4q-31 0 -73.5 -12.5 t-81.5 -38t-65.5 -67.5t-26.5 -101q0 -68 39.5 -110t101 -72.5t131.5 -57t131 -62.5t101 -89.5t40 -136.5q0 -113 -81 -220.5t-257 -175.5q31 -14 62 -34.5t57.5 -50t43 -71.5t16.5 -102q0 -84 -37 -151.5t-99.5 -114.5t-143.5 -72.5t-169 -25.5q-61 0 -122.5 15t-110 45 t-79 74t-30.5 99q0 76 36 119t93 43q88 0 88 -84q0 -35 -16.5 -68.5t-16.5 -72.5q0 -29 15.5 -49.5t39 -34t53.5 -19.5t60 -6q45 0 94.5 16.5t89 47t65.5 75.5t26 103q0 55 -30 91t-73 62.5t-93 46t-91 37.5q-51 23 -100.5 49.5t-88 62.5t-63.5 81t-25 106q0 147 88.5 240.5 t254.5 159.5zM592 297q39 18 80 44t74.5 60.5t54 77.5t20.5 96q0 59 -33.5 102.5t-83 75t-103.5 55t-97 46.5q-41 -16 -81 -43t-73 -62.5t-53.5 -80.5t-20.5 -97q0 -59 33 -101t82 -72.5t103.5 -54t97.5 -46.5z" />
<glyph unicode="&#xa8;" horiz-adv-x="614" d="M174 1235q2 53 39 88t86 35q41 0 68.5 -27.5t27.5 -66.5q0 -57 -38 -91t-87 -34q-43 0 -69.5 27.5t-26.5 68.5zM489 1237q2 53 39 87t86 34q41 0 69 -27.5t28 -66.5q0 -57 -38 -91t-87 -34q-43 0 -70 28.5t-27 69.5z" />
<glyph unicode="&#xa9;" horiz-adv-x="1630" d="M1112 1126q-2 -12 -2 -25.5v-23.5q0 -47 3 -73.5t11 -71.5q0 -2 1 -3t1 -3l-57 -4q-2 57 -18.5 94t-42 58.5t-56 29.5t-63.5 8q-109 0 -181.5 -89t-72.5 -271q0 -176 66.5 -266.5t183.5 -90.5q66 0 122 39t85 103l55 -21q-47 -92 -119 -132t-166 -40q-84 0 -152.5 26.5 t-119.5 78t-79 128t-28 175.5q0 96 31 171.5t85 127t128 78t162 26.5q76 0 130 -9.5t93 -19.5zM154 715q0 147 54 275t149.5 223.5t223.5 150.5t275 55t275.5 -55t223.5 -150.5t150.5 -223.5t55.5 -275t-55.5 -275.5t-150.5 -223.5t-223 -149.5t-276 -54.5q-147 0 -275 54.5 t-223.5 149.5t-149.5 223.5t-54 275.5zM219 715q0 -131 50 -247t137.5 -203t203 -137t246.5 -50t248 50t204 137t137 203t50 247t-50 247.5t-137 203.5t-204 137.5t-248 50.5t-246.5 -50.5t-203 -137.5t-137.5 -203.5t-50 -247.5z" />
<glyph unicode="&#xaa;" horiz-adv-x="792" d="M633 856q-76 0 -76 100h-10q-23 -41 -67 -71.5t-111 -30.5q-45 0 -75 12.5t-48.5 32t-25.5 43t-7 45.5q0 35 17.5 71t59.5 65.5t110.5 49t170.5 23.5l11 55q6 31 10 54.5t4 42.5q0 33 -16.5 51t-59.5 18q-23 0 -50.5 -13t-31.5 -54q-6 -94 -78 -95q-16 0 -39.5 10.5 t-23.5 45.5q0 23 15.5 49t45 48t72.5 36t98 14q88 0 138.5 -33.5t50.5 -111.5q0 -12 -3 -32.5t-7 -37.5q-25 -123 -36.5 -182.5t-11.5 -81.5q0 -16 2.5 -31.5t18.5 -15.5q14 0 27.5 9t23.5 22q10 14 21 32l36 -32q-31 -41 -66.5 -74t-88.5 -33zM565 1155q-37 0 -76.5 -7 t-72.5 -25.5t-54.5 -51.5t-21.5 -86q0 -27 12.5 -53.5t53.5 -26.5q33 0 59.5 22.5t45.5 55.5t31.5 68.5t16.5 60.5z" />
<glyph unicode="&#xab;" horiz-adv-x="872" d="M106 502q4 33 27 60.5t55 60.5l277 284l45 -33l-227 -372l98 -373l-53 -33l-174 285q-18 31 -33 57.5t-15 63.5zM426 502q4 33 26.5 60.5t55.5 60.5l276 284l45 -33l-227 -372l98 -373l-53 -33l-174 285q-18 31 -32.5 57.5t-14.5 63.5z" />
<glyph unicode="&#xac;" d="M881 616h-807v82h889v-479h-82v397z" />
<glyph unicode="&#xad;" horiz-adv-x="827" d="M178 596h510l-14 -84h-510z" />
<glyph unicode="&#xae;" horiz-adv-x="1200" d="M633 844q0 -45 8 -55.5t29 -10.5h13t28 2v-39q-39 2 -67 4.5t-54 2.5q-29 0 -56.5 -2.5t-62.5 -4.5v39q16 -2 23.5 -2h11.5q23 0 32 10.5t9 55.5v340q0 33 -10.5 44t-34.5 11h-14.5t-18.5 -2v41q31 -4 57.5 -5t51.5 -1q27 0 53 2t65 2q57 0 94 -13.5t56.5 -33t27 -42 t7.5 -40.5q0 -45 -32 -80t-91 -51q47 -4 65.5 -27.5t28.5 -66.5l33 -101q8 -25 20.5 -34t38.5 -9h13.5t15.5 2v-39q-20 0 -37.5 2t-34.5 2q-16 0 -35.5 -1t-50.5 -5l-45 166q-8 27 -15 45.5t-20.5 27.5t-37 13t-64.5 4v-151zM791 1147q0 47 -29 72.5t-74 25.5q-39 0 -47 -11 t-8 -50v-156q70 0 114 23.5t44 95.5zM203 981q0 100 36.5 189.5t102.5 154t153 102t189 37.5q100 0 189.5 -37.5t154 -102t102 -154t37.5 -189.5q0 -98 -37.5 -185t-102 -154t-154 -104.5t-189.5 -37.5q-102 0 -189 37.5t-153 104.5t-102.5 154t-36.5 185zM262 981 q0 -88 33 -165t90 -134t134 -90t165 -33t166 33t135 90t90 134t33 165t-33 166t-90 135t-135 90t-166 33t-165 -33t-134 -90t-90 -135t-33 -166z" />
<glyph unicode="&#xaf;" horiz-adv-x="819" d="M270 1300h570l-17 -92h-569z" />
<glyph unicode="&#xb0;" horiz-adv-x="813" d="M522 956q43 0 80 17.5t64.5 47.5t44 69.5t16.5 85.5q0 45 -16.5 84.5t-44 69.5t-64.5 47.5t-80 17.5t-79.5 -17.5t-64.5 -47.5t-43.5 -69.5t-15.5 -84.5t15.5 -85t43.5 -70t64.5 -47.5t79.5 -17.5zM524 881q-61 0 -114.5 23.5t-93.5 63.5t-63.5 93t-23.5 115 q0 61 22.5 114t62.5 93t93.5 63.5t114.5 23.5t114.5 -23.5t93.5 -63.5t63.5 -93t23.5 -114t-22.5 -114.5t-62.5 -93.5t-93.5 -63.5t-114.5 -23.5z" />
<glyph unicode="&#xb1;" d="M539 979v-363h356v-86h-356v-362h-95v362h-358v86h358v363h95zM86 0v86h809v-86h-809z" />
<glyph unicode="&#xb2;" horiz-adv-x="724" d="M106 563q4 43 9.5 79t21.5 71q35 78 83 128t100.5 88t104.5 67.5t92 67.5t65.5 89t25.5 129q0 55 -28.5 91t-85.5 36q-49 0 -72 -16.5t-33 -41t-12 -54t-7 -54t-21.5 -41t-53.5 -16.5q-35 0 -55.5 22.5t-20.5 55.5q0 37 18.5 72.5t55.5 62t91 43t128 16.5q66 0 112 -16.5 t75.5 -43t44 -60t14.5 -70.5q0 -72 -32 -120t-83 -85t-112.5 -71t-121 -74.5t-110.5 -98t-78 -143.5q8 2 25.5 4t35 3t32 1h20.5h168q47 0 73.5 14.5t40 35t17.5 44t10 43.5l62 -6q-39 -117 -46 -252q-72 10 -132 11t-99 1h-106q-53 0 -105 -1t-111 -11z" />
<glyph unicode="&#xb3;" horiz-adv-x="731" d="M385 1317q0 -74 -24.5 -102.5t-67.5 -28.5q-29 0 -52.5 18.5t-23.5 55.5q0 39 20.5 75.5t59.5 63t91 43t118 16.5q63 0 110.5 -17.5t78 -44t45 -61.5t14.5 -67q0 -80 -31 -127t-72 -72t-80 -33t-55 -8v-8q25 -2 56.5 -12.5t61.5 -32t50.5 -57t20.5 -91.5q0 -86 -32 -140 t-80 -85t-101.5 -42t-96.5 -11q-127 0 -196.5 54t-69.5 122q0 57 28.5 83t63.5 26q31 0 54.5 -17.5t23.5 -50.5q0 -18 -3 -28.5t-7 -19.5t-7 -19.5t-3 -26.5q0 -35 29.5 -54.5t74.5 -19.5q33 0 64.5 15.5t56 46t40 76.5t15.5 108q0 49 -15.5 79.5t-39 46t-53 20.5t-58.5 5 h-14t-19 -2l11 60q27 -2 35 -2h12q96 0 144 60t48 163q0 55 -27.5 95t-84.5 40q-55 0 -84 -26.5t-29 -65.5z" />
<glyph unicode="&#xb4;" horiz-adv-x="819" d="M369 1118q37 63 77.5 125t80.5 111t79 79.5t74 30.5q23 0 44 -11t21 -40q0 -25 -18 -50.5t-57 -62t-101.5 -89t-150.5 -126.5z" />
<glyph unicode="&#xb5;" horiz-adv-x="1163" d="M70 -430q20 82 37.5 158.5t34 165t36 197t45.5 251.5q2 12 3 23.5t5 23.5l56 305q8 41 12 72t4 51q0 37 -22.5 49.5t-87.5 12.5h-28t-28 -2l13 67q29 -2 62.5 -4t70.5 -2q53 0 100 5t98 18l-88 -492q-16 -90 -24.5 -154.5t-8.5 -111.5q0 -72 25 -101.5t84 -29.5 q94 0 175 112.5t124 352.5l72 405h161q-27 -117 -52 -242t-44.5 -235.5t-32 -194.5t-12.5 -118q0 -59 21.5 -74t68.5 -15h37t43 5l-12 -66q-20 2 -40 2h-42q-53 0 -109.5 -5t-111.5 -15q0 10 -1 21t-1 24q0 31 3 70.5t13 99.5l-10 2q-12 -31 -33.5 -66t-55.5 -64.5t-82 -50 t-116 -20.5q-86 0 -133 35l-82 -465h-147z" />
<glyph unicode="&#xb6;" horiz-adv-x="1159" d="M516 575q-174 0 -270 87.5t-96 234.5q0 106 35.5 188t102 136.5t159 82t202.5 27.5h580l-15 -76h-172l-270 -1531h-92l270 1531h-223l-270 -1531h-92l151 851v0z" />
<glyph unicode="&#xb7;" horiz-adv-x="569" d="M160 524q0 76 48 117t105 41q47 0 83 -30.5t36 -92.5q0 -74 -48 -112.5t-105 -38.5q-47 0 -83 28.5t-36 87.5z" />
<glyph unicode="&#xb8;" horiz-adv-x="614" d="M16 -330q23 -12 45.5 -20t51.5 -8q12 0 27.5 2t30.5 10t25.5 21.5t10.5 37.5q0 18 -13.5 30.5t-28.5 24t-27.5 25.5t-12.5 41q0 51 53 97t137 87l21 -30q-51 -35 -77 -54.5t-26 -60.5q0 -23 16.5 -37t35 -30.5t35 -37t16.5 -55.5q0 -70 -55.5 -103.5t-126.5 -33.5 q-39 0 -87.5 7t-76.5 30z" />
<glyph unicode="&#xb9;" horiz-adv-x="602" d="M463 741q-2 -10 -2 -19v-17q0 -35 15.5 -55.5t51.5 -20.5h11.5t56.5 2l-10 -60q-59 6 -118.5 8.5t-100.5 2.5t-93.5 -2t-111.5 -9l10 62q25 -4 35 -4h20q29 0 45.5 5t25.5 18.5t13 35t11 53.5q20 121 42.5 240t41.5 240q4 20 4 36q0 18 -7.5 33t-29.5 15q-16 0 -41 -8.5 t-49.5 -18.5t-47 -21.5t-34.5 -19.5l-21 61q53 20 96 38t85 36.5t84 41t92 54.5l51 -32q-8 -31 -13.5 -57.5t-13.5 -71.5z" />
<glyph unicode="&#xba;" horiz-adv-x="776" d="M780 1204q0 -63 -21.5 -125.5t-62.5 -113t-100 -82t-137 -31.5q-106 0 -168 63.5t-62 192.5q0 63 20.5 125.5t60.5 113t100.5 81t140.5 30.5q106 0 167.5 -63.5t61.5 -190.5zM465 895q47 0 82 36t57.5 88t32.5 110.5t10 103.5q0 82 -19.5 133t-82.5 51q-45 0 -79 -34.5 t-57.5 -87t-35 -111t-11.5 -105.5q0 -82 20 -133t83 -51z" />
<glyph unicode="&#xbb;" horiz-adv-x="870" d="M774 516q0 -37 -22.5 -67.5t-59.5 -67.5l-276 -285l-45 33l227 373l-98 372l53 33l174 -284q18 -29 32.5 -53.5t14.5 -53.5zM455 516q0 -37 -22.5 -67.5t-59.5 -67.5l-277 -285l-45 33l228 373l-99 372l53 33l175 -284q18 -29 32.5 -53.5t14.5 -53.5z" />
<glyph unicode="&#xbc;" horiz-adv-x="1615" d="M942 326q18 2 47 3t68 1h166l28 159q2 18 9.5 49t14.5 64t13 62.5t10 44.5l-8 2zM1053 59q14 -2 27.5 -3t23.5 -1q41 0 58.5 17.5t27.5 70.5l18 105h-360l10 74l528 575l74 -31q-6 -27 -10 -48t-8 -45.5t-10.5 -56.5t-14.5 -79l-55 -307q45 0 83 1t77 5l-19 -90 q-20 2 -36.5 2h-28.5h-90l-17 -105q-2 -10 -2 -26q0 -35 16.5 -48.5t53.5 -13.5q10 0 22.5 1t26.5 3l-8 -59q-59 6 -108.5 8t-92.5 2q-41 0 -89 -2t-108 -8zM1294 1548l78 -41l-999 -1716l-80 39zM483 741q-2 -10 -2 -19v-17q0 -35 15.5 -55.5t52.5 -20.5h11t56 2l-10 -60 q-59 6 -118.5 8.5t-100.5 2.5t-93 -2t-112 -9l11 62q25 -4 35 -4h20q29 0 45 5t25.5 18.5t13.5 35t10 53.5q20 121 43 240t41 240q4 20 4 36q0 18 -7 33t-30 15q-16 0 -40.5 -8.5t-49 -18.5t-47.5 -21.5t-35 -19.5l-20 61q53 20 96 38t85 36.5t84 41t91 54.5l51 -32 q-8 -31 -13 -57.5t-13 -71.5z" />
<glyph unicode="&#xbd;" horiz-adv-x="1675" d="M483 741q-2 -10 -2 -19v-17q0 -35 15.5 -55.5t52.5 -20.5h11t56 2l-10 -60q-59 6 -118.5 8.5t-100.5 2.5t-93 -2t-112 -9l11 62q25 -4 35 -4h20q29 0 45 5t25.5 18.5t13.5 35t10 53.5q20 121 43 240t41 240q4 20 4 36q0 18 -7 33t-30 15q-16 0 -40.5 -8.5t-49 -18.5 t-47.5 -21.5t-35 -19.5l-20 61q53 20 96 38t85 36.5t84 41t91 54.5l51 -32q-8 -31 -13 -57.5t-13 -71.5zM1294 1548l78 -41l-999 -1716l-80 39zM950 -8q4 43 9.5 78.5t21.5 70.5q35 78 83 128t100.5 88t104.5 68t92 67.5t65.5 89t25.5 129.5q0 55 -28.5 91t-86.5 36 q-49 0 -71.5 -16.5t-32.5 -41t-12 -54.5t-7.5 -54.5t-21.5 -41t-53 -16.5q-35 0 -55.5 22.5t-20.5 55.5q0 37 18.5 73t55.5 62.5t91 43t128 16.5q66 0 111.5 -16.5t75.5 -43t44.5 -60.5t14.5 -71q0 -72 -32 -120t-83 -84.5t-112.5 -70.5t-121 -75t-110.5 -98.5t-78 -143.5 q8 2 25.5 4.5t35 3.5t31.5 1h21h168q47 0 73.5 14t40 34.5t17.5 44t10 44.5l61 -6q-39 -117 -45 -252q-72 10 -132 11t-99 1h-107q-53 0 -104.5 -1t-110.5 -11z" />
<glyph unicode="&#xbe;" horiz-adv-x="1632" d="M967 326q18 2 46.5 3t67.5 1h166l29 159q2 18 9 49t14.5 64t13.5 62.5t10 44.5l-8 2zM1077 59q14 -2 27.5 -3t23.5 -1q41 0 58.5 17.5t27.5 70.5l19 105h-361l11 74l528 575l74 -31q-6 -27 -10.5 -48t-8.5 -45.5t-10 -56.5t-14 -79l-56 -307q45 0 83 1t77 5l-18 -90 q-20 2 -36.5 2h-29.5h-90l-16 -105q-2 -10 -2 -26q0 -35 16 -48.5t53 -13.5q10 0 22.5 1t27.5 3l-9 -59q-59 6 -108 8t-92 2q-41 0 -89.5 -2t-107.5 -8zM1319 1548l78 -41l-1000 -1716l-80 39zM385 1317q0 -74 -24.5 -102.5t-67.5 -28.5q-29 0 -52.5 18.5t-23.5 55.5 q0 39 20.5 75.5t59.5 63t91 43t118 16.5q63 0 110.5 -17.5t78 -44t45 -61.5t14.5 -67q0 -80 -31 -127t-72 -72t-80 -33t-55 -8v-8q25 -2 56.5 -12.5t61.5 -32t50.5 -57t20.5 -91.5q0 -86 -32 -140t-80 -85t-101.5 -42t-96.5 -11q-127 0 -196.5 54t-69.5 122q0 57 28.5 83 t63.5 26q31 0 54.5 -17.5t23.5 -50.5q0 -18 -3 -28.5t-7 -19.5t-7 -19.5t-3 -26.5q0 -35 29.5 -54.5t74.5 -19.5q33 0 64.5 15.5t56 46t40 76.5t15.5 108q0 49 -15.5 79.5t-39 46t-53 20.5t-58.5 5h-14t-19 -2l11 60q27 -2 35 -2h12q96 0 144 60t48 163q0 55 -27.5 95 t-84.5 40q-55 0 -84 -26.5t-29 -65.5z" />
<glyph unicode="&#xbf;" horiz-adv-x="933" d="M567 584q-8 -111 -44 -188t-83 -135t-100 -105t-98 -97.5t-75 -113t-30 -150.5t54.5 -145.5t154.5 -57.5t145.5 49.5t45.5 116.5q0 18 -3.5 33.5t-3.5 34.5q0 78 37 112.5t88 34.5q45 0 72 -31.5t27 -82.5q0 -68 -31 -127.5t-88 -104.5t-140 -71.5t-186 -26.5 q-94 0 -162.5 24.5t-113.5 65.5t-66.5 94.5t-21.5 110.5q0 88 36.5 149.5t92 109.5t122 92t127 98.5t105.5 128t57 182.5h82zM690 895q0 -78 -45 -121t-104 -43q-49 0 -82 32t-33 97q0 78 45 119t104 41q49 0 82 -32t33 -93z" />
<glyph unicode="&#xc0;" horiz-adv-x="1413" d="M903 1470l254 -1151q10 -49 19.5 -95t26 -83t44 -59.5t76.5 -22.5q10 0 20.5 1t22.5 3l-12 -69q-78 6 -142.5 9t-140.5 3q-37 0 -69.5 -1t-65.5 -2t-67.5 -4t-75.5 -5l12 69q23 -4 48.5 -4h45.5q63 0 85 26t22 67q0 20 -3.5 41.5t-7.5 46.5l-61 282h-559l-123 -243 q-27 -51 -47.5 -99.5t-20.5 -64.5q0 -31 21.5 -43.5t81.5 -12.5h35.5t42.5 4l-13 -69q-61 4 -121.5 7t-119.5 3q-53 0 -106.5 -2t-108.5 -8l12 69q12 -4 31.5 -4h31.5q59 0 99.5 60.5t93.5 159.5l645 1191h94zM410 588h512l-86 389q-14 66 -25.5 133.5t-22.5 163.5h-8z M725 1688q-51 31 -72.5 56t-21.5 54q0 37 25.5 56.5t60.5 19.5q37 0 74.5 -27.5t76.5 -71.5t80 -98.5t82 -105.5l-49 -45z" />
<glyph unicode="&#xc1;" horiz-adv-x="1413" d="M903 1470l254 -1151q10 -49 19.5 -95t26 -83t44 -59.5t76.5 -22.5q10 0 20.5 1t22.5 3l-12 -69q-78 6 -142.5 9t-140.5 3q-37 0 -69.5 -1t-65.5 -2t-67.5 -4t-75.5 -5l12 69q23 -4 48.5 -4h45.5q63 0 85 26t22 67q0 20 -3.5 41.5t-7.5 46.5l-61 282h-559l-123 -243 q-27 -51 -47.5 -99.5t-20.5 -64.5q0 -31 21.5 -43.5t81.5 -12.5h35.5t42.5 4l-13 -69q-61 4 -121.5 7t-119.5 3q-53 0 -106.5 -2t-108.5 -8l12 69q12 -4 31.5 -4h31.5q59 0 99.5 60.5t93.5 159.5l645 1191h94zM410 588h512l-86 389q-14 66 -25.5 133.5t-22.5 163.5h-8z M719 1526l-35 49q47 51 99.5 104.5t102.5 96.5t95 70.5t82 27.5q23 0 46.5 -15.5t23.5 -48.5q0 -27 -26 -56.5t-97 -65.5z" />
<glyph unicode="&#xc2;" horiz-adv-x="1413" d="M903 1470l254 -1151q10 -49 19.5 -95t26 -83t44 -59.5t76.5 -22.5q10 0 20.5 1t22.5 3l-12 -69q-78 6 -142.5 9t-140.5 3q-37 0 -69.5 -1t-65.5 -2t-67.5 -4t-75.5 -5l12 69q23 -4 48.5 -4h45.5q63 0 85 26t22 67q0 20 -3.5 41.5t-7.5 46.5l-61 282h-559l-123 -243 q-27 -51 -47.5 -99.5t-20.5 -64.5q0 -31 21.5 -43.5t81.5 -12.5h35.5t42.5 4l-13 -69q-61 4 -121.5 7t-119.5 3q-53 0 -106.5 -2t-108.5 -8l12 69q12 -4 31.5 -4h31.5q59 0 99.5 60.5t93.5 159.5l645 1191h94zM410 588h512l-86 389q-14 66 -25.5 133.5t-22.5 163.5h-8z M614 1526l-34 41l225 245q27 29 47 45.5t45 16.5q29 0 46.5 -16.5t39.5 -45.5l168 -245l-41 -41l-221 192z" />
<glyph unicode="&#xc3;" horiz-adv-x="1413" d="M903 1470l254 -1151q10 -49 19.5 -95t26 -83t44 -59.5t76.5 -22.5q10 0 20.5 1t22.5 3l-12 -69q-78 6 -142.5 9t-140.5 3q-37 0 -69.5 -1t-65.5 -2t-67.5 -4t-75.5 -5l12 69q23 -4 48.5 -4h45.5q63 0 85 26t22 67q0 20 -3.5 41.5t-7.5 46.5l-61 282h-559l-123 -243 q-27 -51 -47.5 -99.5t-20.5 -64.5q0 -31 21.5 -43.5t81.5 -12.5h35.5t42.5 4l-13 -69q-61 4 -121.5 7t-119.5 3q-53 0 -106.5 -2t-108.5 -8l12 69q12 -4 31.5 -4h31.5q59 0 99.5 60.5t93.5 159.5l645 1191h94zM410 588h512l-86 389q-14 66 -25.5 133.5t-22.5 163.5h-8z M563 1632q18 33 40 63.5t49.5 55.5t60 39t73.5 14q43 0 70 -17.5t48.5 -39t46 -38.5t61.5 -17q47 0 74.5 28.5t52.5 63.5l49 -25q-18 -33 -40 -63.5t-48.5 -55t-59 -39t-73.5 -14.5q-43 0 -71 17.5t-49.5 39t-46 39t-61.5 17.5q-47 0 -74.5 -30t-54.5 -66z" />
<glyph unicode="&#xc4;" horiz-adv-x="1413" d="M903 1470l254 -1151q10 -49 19.5 -95t26 -83t44 -59.5t76.5 -22.5q10 0 20.5 1t22.5 3l-12 -69q-78 6 -142.5 9t-140.5 3q-37 0 -69.5 -1t-65.5 -2t-67.5 -4t-75.5 -5l12 69q23 -4 48.5 -4h45.5q63 0 85 26t22 67q0 20 -3.5 41.5t-7.5 46.5l-61 282h-559l-123 -243 q-27 -51 -47.5 -99.5t-20.5 -64.5q0 -31 21.5 -43.5t81.5 -12.5h35.5t42.5 4l-13 -69q-61 4 -121.5 7t-119.5 3q-53 0 -106.5 -2t-108.5 -8l12 69q12 -4 31.5 -4h31.5q59 0 99.5 60.5t93.5 159.5l645 1191h94zM410 588h512l-86 389q-14 66 -25.5 133.5t-22.5 163.5h-8z M557 1700q6 47 43 82t84 35q45 0 74.5 -30t29.5 -73q0 -53 -37.5 -91t-88.5 -38q-53 0 -79 34t-26 81zM952 1700q6 47 43 82t84 35q45 0 75 -30t30 -73q0 -53 -38 -91t-89 -38q-53 0 -79 34t-26 81z" />
<glyph unicode="&#xc5;" horiz-adv-x="1413" d="M903 1470l254 -1151q10 -49 19.5 -95t26 -83t44 -59.5t76.5 -22.5q10 0 20.5 1t22.5 3l-12 -69q-78 6 -142.5 9t-140.5 3q-37 0 -69.5 -1t-65.5 -2t-67.5 -4t-75.5 -5l12 69q23 -4 48.5 -4h45.5q63 0 85 26t22 67q0 20 -3.5 41.5t-7.5 46.5l-61 282h-559l-123 -243 q-27 -51 -47.5 -99.5t-20.5 -64.5q0 -31 21.5 -43.5t81.5 -12.5h35.5t42.5 4l-13 -69q-61 4 -121.5 7t-119.5 3q-53 0 -106.5 -2t-108.5 -8l12 69q12 -4 31.5 -4h31.5q59 0 99.5 60.5t93.5 159.5l645 1191h94zM410 588h512l-86 389q-14 66 -25.5 133.5t-22.5 163.5h-8z M874 1866q80 0 125 -49.5t45 -116.5q0 -70 -45 -119t-125 -49t-124.5 49t-44.5 119q0 68 44.5 117t124.5 49zM772 1700q0 -53 29.5 -84t72.5 -31q45 0 74 31t29 84q0 51 -28.5 81.5t-74.5 30.5q-43 0 -72.5 -30.5t-29.5 -81.5z" />
<glyph unicode="&#xc6;" horiz-adv-x="1970" d="M836 59q37 0 61.5 7.5t40.5 27t27.5 55t17.5 91.5l53 436h-516l-258 -391q-23 -33 -46 -77t-23 -81q0 -29 21.5 -48.5t80.5 -19.5h36.5t43.5 4l-13 -69q-76 6 -135 9t-131 3q-37 0 -60.5 -1t-45 -2t-42 -4t-50.5 -5l12 69q6 -2 15 -2h16q68 0 111.5 50.5t92.5 124.5 l621 929q31 47 49.5 86t20.5 68q0 25 -14.5 40t-53.5 15q-16 0 -35.5 -1t-42.5 -3l8 70q129 -8 247 -11.5t231 -3.5q72 0 169 1t199.5 3.5t197.5 4.5t163 6q-8 -70 -11.5 -123t-3.5 -111q0 -35 1 -72.5t3 -84.5l-67 -5q0 16 1 29.5t1 28.5q0 92 -17.5 145t-55.5 80 t-100.5 33t-154.5 6q-78 0 -119 -5t-61.5 -19.5t-26.5 -41t-12 -69.5l-59 -494q33 -4 61.5 -4h54.5q94 0 142.5 13.5t70 41t27.5 66.5t16 92l70 -4q-14 -74 -25.5 -136.5t-18.5 -119.5t-10 -112.5t-3 -114.5l-72 -4q2 23 4 43t2 39q0 37 -5 62.5t-26.5 41.5t-63.5 24.5 t-114 8.5h-56.5t-62.5 -4l-51 -430q-4 -27 -6 -47.5t-2 -36.5q0 -29 8 -45.5t29.5 -26.5t58.5 -13t95 -3q119 0 197.5 9t128.5 45t81 106.5t55 193.5l70 -10q-18 -61 -31.5 -112.5t-24 -100.5t-19.5 -98.5t-17 -106.5q-156 6 -297 9t-289 3q-117 0 -229.5 -2t-225.5 -10 l11 69q23 -4 42.5 -4h37.5zM559 739h483l74 619q-16 2 -28.5 2h-22.5q-35 0 -62.5 -12.5t-50 -34t-42 -49t-38.5 -56.5z" />
<glyph unicode="&#xc7;" horiz-adv-x="1292" d="M479 -330q23 -12 45.5 -20t50.5 -8q12 0 27.5 2t31 10t26 21.5t10.5 37.5q0 18 -13.5 30.5t-29 24t-27.5 25.5t-12 41q0 35 25.5 67.5t68.5 61.5q-121 4 -220.5 48t-170 124t-109.5 192.5t-39 254.5q0 219 62.5 386t171 278.5t253 167.5t308.5 56q133 0 226 -18t153 -35 q-10 -86 -21.5 -176t-11.5 -203h-72q2 16 3.5 35t1.5 35q0 61 -14.5 115.5t-48.5 95.5t-88 64.5t-134 23.5q-111 0 -216.5 -51t-188.5 -155.5t-133 -262.5t-50 -369q0 -123 28.5 -223t82 -170t131.5 -107.5t174 -37.5q129 0 229.5 72.5t165.5 189.5l62 -31 q-92 -154 -203 -220.5t-252 -76.5q-33 -23 -49.5 -41t-16.5 -51q0 -23 16.5 -37t35 -30.5t35 -37t16.5 -55.5q0 -70 -55.5 -103.5t-127.5 -33.5q-39 0 -87 7t-76 30z" />
<glyph unicode="&#xc8;" horiz-adv-x="1249" d="M418 1192q4 29 8 53.5t4 44.5q0 43 -23.5 63.5t-89.5 20.5q-16 0 -39.5 -1t-48.5 -3l11 70q135 -8 262 -10.5t243 -2.5q74 0 135.5 1.5t120 2.5t117 3t129.5 6q-14 -102 -21 -195.5t-9 -189.5h-70q2 23 3 43t1 39q0 84 -17.5 130t-53.5 68.5t-91 26.5t-131 4 q-90 0 -138 -5t-71.5 -22.5t-32 -52.5t-18.5 -94l-72 -412q33 -4 58.5 -4h52.5q98 0 149.5 15.5t76 44t33.5 69.5t22 90h69q-43 -147 -61.5 -264t-24.5 -235h-70q4 33 8.5 60.5t4.5 49.5q0 27 -9.5 46.5t-33 33.5t-65.5 21.5t-109 7.5h-53.5t-59.5 -4l-84 -463 q-8 -47 -8 -86q0 -35 9 -54.5t30.5 -28.5t56.5 -10t84 -1q104 0 179 5t128.5 36.5t91 99t70.5 192.5l70 -12q-20 -61 -34.5 -109.5t-25 -93.5t-18.5 -90t-19 -102q-80 2 -152.5 5t-142 4l-139 2t-145.5 1q-121 0 -233.5 -2t-229.5 -10l14 69q23 -4 44.5 -4h39.5 q37 0 60.5 8.5t40 28t28 54t21.5 90.5zM690 1688q-51 31 -72.5 56t-21.5 54q0 37 25.5 56.5t60.5 19.5q37 0 75 -27.5t76.5 -71.5t79.5 -98.5t82 -105.5l-49 -45z" />
<glyph unicode="&#xc9;" horiz-adv-x="1249" d="M418 1192q4 29 8 53.5t4 44.5q0 43 -23.5 63.5t-89.5 20.5q-16 0 -39.5 -1t-48.5 -3l11 70q135 -8 262 -10.5t243 -2.5q74 0 135.5 1.5t120 2.5t117 3t129.5 6q-14 -102 -21 -195.5t-9 -189.5h-70q2 23 3 43t1 39q0 84 -17.5 130t-53.5 68.5t-91 26.5t-131 4 q-90 0 -138 -5t-71.5 -22.5t-32 -52.5t-18.5 -94l-72 -412q33 -4 58.5 -4h52.5q98 0 149.5 15.5t76 44t33.5 69.5t22 90h69q-43 -147 -61.5 -264t-24.5 -235h-70q4 33 8.5 60.5t4.5 49.5q0 27 -9.5 46.5t-33 33.5t-65.5 21.5t-109 7.5h-53.5t-59.5 -4l-84 -463 q-8 -47 -8 -86q0 -35 9 -54.5t30.5 -28.5t56.5 -10t84 -1q104 0 179 5t128.5 36.5t91 99t70.5 192.5l70 -12q-20 -61 -34.5 -109.5t-25 -93.5t-18.5 -90t-19 -102q-80 2 -152.5 5t-142 4l-139 2t-145.5 1q-121 0 -233.5 -2t-229.5 -10l14 69q23 -4 44.5 -4h39.5 q37 0 60.5 8.5t40 28t28 54t21.5 90.5zM643 1526l-35 49q47 51 99.5 104.5t102.5 96.5t95 70.5t82 27.5q23 0 46.5 -15.5t23.5 -48.5q0 -27 -25.5 -56.5t-97.5 -65.5z" />
<glyph unicode="&#xca;" horiz-adv-x="1249" d="M418 1192q4 29 8 53.5t4 44.5q0 43 -23.5 63.5t-89.5 20.5q-16 0 -39.5 -1t-48.5 -3l11 70q135 -8 262 -10.5t243 -2.5q74 0 135.5 1.5t120 2.5t117 3t129.5 6q-14 -102 -21 -195.5t-9 -189.5h-70q2 23 3 43t1 39q0 84 -17.5 130t-53.5 68.5t-91 26.5t-131 4 q-90 0 -138 -5t-71.5 -22.5t-32 -52.5t-18.5 -94l-72 -412q33 -4 58.5 -4h52.5q98 0 149.5 15.5t76 44t33.5 69.5t22 90h69q-43 -147 -61.5 -264t-24.5 -235h-70q4 33 8.5 60.5t4.5 49.5q0 27 -9.5 46.5t-33 33.5t-65.5 21.5t-109 7.5h-53.5t-59.5 -4l-84 -463 q-8 -47 -8 -86q0 -35 9 -54.5t30.5 -28.5t56.5 -10t84 -1q104 0 179 5t128.5 36.5t91 99t70.5 192.5l70 -12q-20 -61 -34.5 -109.5t-25 -93.5t-18.5 -90t-19 -102q-80 2 -152.5 5t-142 4l-139 2t-145.5 1q-121 0 -233.5 -2t-229.5 -10l14 69q23 -4 44.5 -4h39.5 q37 0 60.5 8.5t40 28t28 54t21.5 90.5zM565 1526l-35 41l226 245q27 29 47 45.5t45 16.5q29 0 46 -16.5t40 -45.5l168 -245l-41 -41l-221 192z" />
<glyph unicode="&#xcb;" horiz-adv-x="1249" d="M418 1192q4 29 8 53.5t4 44.5q0 43 -23.5 63.5t-89.5 20.5q-16 0 -39.5 -1t-48.5 -3l11 70q135 -8 262 -10.5t243 -2.5q74 0 135.5 1.5t120 2.5t117 3t129.5 6q-14 -102 -21 -195.5t-9 -189.5h-70q2 23 3 43t1 39q0 84 -17.5 130t-53.5 68.5t-91 26.5t-131 4 q-90 0 -138 -5t-71.5 -22.5t-32 -52.5t-18.5 -94l-72 -412q33 -4 58.5 -4h52.5q98 0 149.5 15.5t76 44t33.5 69.5t22 90h69q-43 -147 -61.5 -264t-24.5 -235h-70q4 33 8.5 60.5t4.5 49.5q0 27 -9.5 46.5t-33 33.5t-65.5 21.5t-109 7.5h-53.5t-59.5 -4l-84 -463 q-8 -47 -8 -86q0 -35 9 -54.5t30.5 -28.5t56.5 -10t84 -1q104 0 179 5t128.5 36.5t91 99t70.5 192.5l70 -12q-20 -61 -34.5 -109.5t-25 -93.5t-18.5 -90t-19 -102q-80 2 -152.5 5t-142 4l-139 2t-145.5 1q-121 0 -233.5 -2t-229.5 -10l14 69q23 -4 44.5 -4h39.5 q37 0 60.5 8.5t40 28t28 54t21.5 90.5zM915 1700q6 47 43 82t84 35q45 0 75 -30t30 -73q0 -53 -38 -91t-89 -38q-53 0 -79 34t-26 81zM520 1700q6 47 43 82t84 35q45 0 75 -30t30 -73q0 -53 -38 -91t-89 -38q-53 0 -79 34t-26 81z" />
<glyph unicode="&#xcc;" horiz-adv-x="768" d="M432 244q-6 -31 -8 -54.5t-2 -42.5q0 -59 28.5 -73.5t94.5 -14.5q18 0 37.5 1t44.5 3l-13 -69q-84 4 -158.5 8t-152.5 4q-80 0 -147.5 -4t-145.5 -8l13 69q25 -2 41 -3t34 -1q37 0 60.5 5.5t41 23.5t29 55t23.5 101l168 946q4 31 6 54.5t4 41.5q0 59 -28.5 73.5 t-94.5 14.5q-18 0 -37.5 -1t-44.5 -3l13 70q84 -8 158.5 -10.5t152.5 -2.5q80 0 147.5 4.5t145.5 8.5l-13 -70q-25 2 -41 3t-34 1q-37 0 -61.5 -5t-41 -23.5t-28 -55.5t-23.5 -100zM449 1688q-51 31 -73 56t-22 54q0 37 26 56.5t60 19.5q37 0 75 -27.5t77 -71.5t80 -98.5 t82 -105.5l-49 -45z" />
<glyph unicode="&#xcd;" horiz-adv-x="768" d="M432 244q-6 -31 -8 -54.5t-2 -42.5q0 -59 28.5 -73.5t94.5 -14.5q18 0 37.5 1t44.5 3l-13 -69q-84 4 -158.5 8t-152.5 4q-80 0 -147.5 -4t-145.5 -8l13 69q25 -2 41 -3t34 -1q37 0 60.5 5.5t41 23.5t29 55t23.5 101l168 946q4 31 6 54.5t4 41.5q0 59 -28.5 73.5 t-94.5 14.5q-18 0 -37.5 -1t-44.5 -3l13 70q84 -8 158.5 -10.5t152.5 -2.5q80 0 147.5 4.5t145.5 8.5l-13 -70q-25 2 -41 3t-34 1q-37 0 -61.5 -5t-41 -23.5t-28 -55.5t-23.5 -100zM451 1526l-35 49q47 51 99 104.5t102.5 96.5t95.5 70.5t82 27.5q23 0 46 -15.5t23 -48.5 q0 -27 -25.5 -56.5t-97.5 -65.5z" />
<glyph unicode="&#xce;" horiz-adv-x="768" d="M432 244q-6 -31 -8 -54.5t-2 -42.5q0 -59 28.5 -73.5t94.5 -14.5q18 0 37.5 1t44.5 3l-13 -69q-84 4 -158.5 8t-152.5 4q-80 0 -147.5 -4t-145.5 -8l13 69q25 -2 41 -3t34 -1q37 0 60.5 5.5t41 23.5t29 55t23.5 101l168 946q4 31 6 54.5t4 41.5q0 59 -28.5 73.5 t-94.5 14.5q-18 0 -37.5 -1t-44.5 -3l13 70q84 -8 158.5 -10.5t152.5 -2.5q80 0 147.5 4.5t145.5 8.5l-13 -70q-25 2 -41 3t-34 1q-37 0 -61.5 -5t-41 -23.5t-28 -55.5t-23.5 -100zM328 1526l-35 41l225 245q27 29 47.5 45.5t44.5 16.5q29 0 46.5 -16.5t39.5 -45.5l168 -245 l-41 -41l-221 192z" />
<glyph unicode="&#xcf;" horiz-adv-x="768" d="M432 244q-6 -31 -8 -54.5t-2 -42.5q0 -59 28.5 -73.5t94.5 -14.5q18 0 37.5 1t44.5 3l-13 -69q-84 4 -158.5 8t-152.5 4q-80 0 -147.5 -4t-145.5 -8l13 69q25 -2 41 -3t34 -1q37 0 60.5 5.5t41 23.5t29 55t23.5 101l168 946q4 31 6 54.5t4 41.5q0 59 -28.5 73.5 t-94.5 14.5q-18 0 -37.5 -1t-44.5 -3l13 70q84 -8 158.5 -10.5t152.5 -2.5q80 0 147.5 4.5t145.5 8.5l-13 -70q-25 2 -41 3t-34 1q-37 0 -61.5 -5t-41 -23.5t-28 -55.5t-23.5 -100zM291 1700q6 47 43 82t84 35q45 0 74.5 -30t29.5 -73q0 -53 -38 -91t-89 -38q-53 0 -78.5 34 t-25.5 81zM686 1700q6 47 43 82t84 35q45 0 75 -30t30 -73q0 -53 -38 -91t-89 -38q-53 0 -79 34t-26 81z" />
<glyph unicode="&#xd0;" horiz-adv-x="1492" d="M1436 838q0 -158 -45 -308.5t-142.5 -270.5t-249 -192.5t-364.5 -72.5q-61 0 -107.5 1t-86.5 3t-78.5 3t-88.5 1q-72 0 -140 -1t-138 -7l14 69q49 -6 84 -6q70 0 104.5 35t51.5 131l88 498h-168l14 84h168l72 405q4 20 6 40t2 36q0 41 -21.5 65.5t-88.5 24.5 q-37 0 -89 -6l13 70q82 -4 148.5 -6t142.5 -2q37 0 65.5 1t63 3t81 3t115.5 1q137 0 243.5 -43t180.5 -123t112 -190.5t38 -245.5zM641 55q162 0 274.5 74t183 192.5t103.5 267t33 300.5q0 92 -17.5 180t-63.5 156.5t-124 110.5t-199 42q-88 0 -131 -7t-61 -26.5t-22.5 -52 t-12.5 -82.5l-72 -405h203l-14 -84h-203l-88 -498q-6 -41 -6 -67q0 -35 11 -55.5t38 -31t68 -12.5t100 -2z" />
<glyph unicode="&#xd1;" horiz-adv-x="1572" d="M1192 268l166 942q6 39 6 70q0 55 -27.5 74.5t-87.5 19.5q-18 0 -37.5 -1t-42.5 -3l13 70q57 0 117.5 -6.5t132.5 -6.5q39 0 65.5 1.5t52 2.5t54 3t71.5 6l-12 -70q-25 2 -45.5 4t-36.5 2q-35 0 -58.5 -7t-40 -26.5t-26.5 -51t-18 -81.5l-221 -1247h-89l-507 1104 q-6 12 -17.5 42t-25 65.5t-26.5 71.5t-22 61h-14l-190 -1086q-4 -20 -6.5 -36.5t-2.5 -32.5q0 -53 27 -74t84 -21q37 0 86 6l-12 -69q-41 2 -70 5t-56.5 4t-56 2t-67.5 1q-63 0 -119.5 -4t-122.5 -8l13 69q18 -2 35.5 -3t31.5 -1q72 0 105.5 32t50.5 130l174 989q8 41 8 76 q0 51 -23.5 69.5t-76.5 18.5q-37 0 -88 -6l14 72q57 -4 114.5 -8.5t127.5 -4.5q45 0 80.5 2.5t89.5 10.5q23 -66 45 -121t45 -107l344 -745q14 -29 34.5 -74t43.5 -125h14zM715 1632q18 33 39.5 63.5t49 55.5t60.5 39t74 14q43 0 69.5 -17.5t48 -39t46 -38.5t61.5 -17 q47 0 75 28.5t52 63.5l49 -25q-18 -33 -39.5 -63.5t-48 -55t-59.5 -39t-74 -14.5q-43 0 -70.5 17.5t-49 39t-46 39t-61.5 17.5q-47 0 -75 -30t-54 -66z" />
<glyph unicode="&#xd2;" horiz-adv-x="1476" d="M786 1688q-51 31 -72.5 56t-21.5 54q0 37 25.5 56.5t60.5 19.5q37 0 75 -27.5t77 -71.5t80 -98.5t82 -105.5l-50 -45zM682 -37q-123 0 -222.5 42t-171 122t-110.5 193.5t-39 254.5q0 199 55.5 364t152.5 283.5t230.5 183t288.5 64.5q123 0 223.5 -44t173 -125.5 t112.5 -196.5t40 -258q0 -201 -56 -364t-154.5 -277.5t-232.5 -178t-290 -63.5zM682 29q113 0 210 62.5t170 177t114 276.5t41 358q0 115 -23 208t-67 158.5t-109.5 100.5t-151.5 35q-113 0 -210 -64.5t-167.5 -181.5t-110.5 -279.5t-40 -359.5q0 -231 85 -361t259 -130z " />
<glyph unicode="&#xd3;" horiz-adv-x="1476" d="M782 1526l-34 49q47 51 99 104.5t102 96.5t95.5 70.5t81.5 27.5q23 0 46.5 -15.5t23.5 -48.5q0 -27 -25.5 -56.5t-97.5 -65.5zM682 -37q-123 0 -222.5 42t-171 122t-110.5 193.5t-39 254.5q0 199 55.5 364t152.5 283.5t230.5 183t288.5 64.5q123 0 223.5 -44t173 -125.5 t112.5 -196.5t40 -258q0 -201 -56 -364t-154.5 -277.5t-232.5 -178t-290 -63.5zM682 29q113 0 210 62.5t170 177t114 276.5t41 358q0 115 -23 208t-67 158.5t-109.5 100.5t-151.5 35q-113 0 -210 -64.5t-167.5 -181.5t-110.5 -279.5t-40 -359.5q0 -231 85 -361t259 -130z " />
<glyph unicode="&#xd4;" horiz-adv-x="1476" d="M676 1526l-35 41l225 245q27 29 47.5 45.5t44.5 16.5q29 0 46.5 -16.5t39.5 -45.5l168 -245l-41 -41l-221 192zM682 -37q-123 0 -222.5 42t-171 122t-110.5 193.5t-39 254.5q0 199 55.5 364t152.5 283.5t230.5 183t288.5 64.5q123 0 223.5 -44t173 -125.5t112.5 -196.5 t40 -258q0 -201 -56 -364t-154.5 -277.5t-232.5 -178t-290 -63.5zM682 29q113 0 210 62.5t170 177t114 276.5t41 358q0 115 -23 208t-67 158.5t-109.5 100.5t-151.5 35q-113 0 -210 -64.5t-167.5 -181.5t-110.5 -279.5t-40 -359.5q0 -231 85 -361t259 -130z" />
<glyph unicode="&#xd5;" horiz-adv-x="1476" d="M621 1632q18 33 39.5 63.5t49 55.5t60.5 39t74 14q43 0 69.5 -17.5t48 -39t46 -38.5t61.5 -17q47 0 74.5 28.5t52.5 63.5l49 -25q-18 -33 -39.5 -63.5t-48.5 -55t-59.5 -39t-73.5 -14.5q-43 0 -70.5 17.5t-49 39t-46 39t-61.5 17.5q-47 0 -75 -30t-54 -66zM682 -37 q-123 0 -222.5 42t-171 122t-110.5 193.5t-39 254.5q0 199 55.5 364t152.5 283.5t230.5 183t288.5 64.5q123 0 223.5 -44t173 -125.5t112.5 -196.5t40 -258q0 -201 -56 -364t-154.5 -277.5t-232.5 -178t-290 -63.5zM682 29q113 0 210 62.5t170 177t114 276.5t41 358 q0 115 -23 208t-67 158.5t-109.5 100.5t-151.5 35q-113 0 -210 -64.5t-167.5 -181.5t-110.5 -279.5t-40 -359.5q0 -231 85 -361t259 -130z" />
<glyph unicode="&#xd6;" horiz-adv-x="1476" d="M625 1700q6 47 43 82t84 35q45 0 74.5 -30t29.5 -73q0 -53 -38 -91t-89 -38q-53 0 -78.5 34t-25.5 81zM1020 1700q6 47 43 82t84 35q45 0 74.5 -30t29.5 -73q0 -53 -37.5 -91t-89.5 -38q-53 0 -78.5 34t-25.5 81zM682 -37q-123 0 -222.5 42t-171 122t-110.5 193.5 t-39 254.5q0 199 55.5 364t152.5 283.5t230.5 183t288.5 64.5q123 0 223.5 -44t173 -125.5t112.5 -196.5t40 -258q0 -201 -56 -364t-154.5 -277.5t-232.5 -178t-290 -63.5zM682 29q113 0 210 62.5t170 177t114 276.5t41 358q0 115 -23 208t-67 158.5t-109.5 100.5t-151.5 35 q-113 0 -210 -64.5t-167.5 -181.5t-110.5 -279.5t-40 -359.5q0 -231 85 -361t259 -130z" />
<glyph unicode="&#xd7;" d="M219 874l299 -301l297 297l59 -61l-294 -295l299 -301l-66 -66l-301 299l-297 -296l-59 61l297 297l-301 299z" />
<glyph unicode="&#xd8;" horiz-adv-x="1476" d="M682 -37q-154 0 -272 66l-115 -197l-76 43l119 205q-94 78 -146.5 204t-52.5 291q0 199 55.5 364t152.5 283.5t230.5 183t288.5 64.5q137 0 248 -57l103 176l77 -41l-106 -180q106 -80 166.5 -213t60.5 -309q0 -201 -56 -364t-154.5 -277.5t-232.5 -178t-290 -63.5z M682 29q113 0 210 62.5t170 177t114 276.5t41 358q0 227 -89 363l-669 -1151q86 -86 223 -86zM338 520q0 -102 15.5 -184t49.5 -143l666 1142q-82 70 -203 70q-113 0 -210 -64.5t-167.5 -181.5t-110.5 -279.5t-40 -359.5z" />
<glyph unicode="&#xd9;" horiz-adv-x="1511" d="M1303 733q-27 -147 -58 -285.5t-89 -246t-157.5 -173t-263.5 -65.5q-246 0 -359.5 110.5t-113.5 309.5q0 45 6 93t17 102l112 632q4 23 6.5 39.5t2.5 32.5q0 53 -25 71.5t-78 18.5q-20 0 -42.5 -2t-51.5 -6l14 74q80 -4 157 -7.5t152 -3.5q78 0 149 4.5t157 8.5l-15 -74 q-27 4 -49 6t-41 2q-66 0 -96.5 -33.5t-46.5 -130.5l-109 -616q-16 -90 -24 -154.5t-8 -113.5q0 -84 28.5 -141.5t74.5 -91.5t102.5 -48t111.5 -14q123 0 202 63.5t129 163.5t77.5 226t50.5 251l84 475q6 37 6 64q0 59 -31 78.5t-94 19.5q-18 0 -39 -1t-43 -3l12 70 q80 -4 138.5 -6t134.5 -2q37 0 62.5 1t49 2t50 3t69.5 4l-12 -70q-25 2 -45.5 4t-36.5 2q-35 0 -58.5 -7t-40 -26.5t-26.5 -51t-19 -81.5zM850 1688q-51 31 -72.5 56t-21.5 54q0 37 25.5 56.5t60.5 19.5q37 0 74.5 -27.5t76.5 -71.5t80 -98.5t82 -105.5l-49 -45z" />
<glyph unicode="&#xda;" horiz-adv-x="1511" d="M1303 733q-27 -147 -58 -285.5t-89 -246t-157.5 -173t-263.5 -65.5q-246 0 -359.5 110.5t-113.5 309.5q0 45 6 93t17 102l112 632q4 23 6.5 39.5t2.5 32.5q0 53 -25 71.5t-78 18.5q-20 0 -42.5 -2t-51.5 -6l14 74q80 -4 157 -7.5t152 -3.5q78 0 149 4.5t157 8.5l-15 -74 q-27 4 -49 6t-41 2q-66 0 -96.5 -33.5t-46.5 -130.5l-109 -616q-16 -90 -24 -154.5t-8 -113.5q0 -84 28.5 -141.5t74.5 -91.5t102.5 -48t111.5 -14q123 0 202 63.5t129 163.5t77.5 226t50.5 251l84 475q6 37 6 64q0 59 -31 78.5t-94 19.5q-18 0 -39 -1t-43 -3l12 70 q80 -4 138.5 -6t134.5 -2q37 0 62.5 1t49 2t50 3t69.5 4l-12 -70q-25 2 -45.5 4t-36.5 2q-35 0 -58.5 -7t-40 -26.5t-26.5 -51t-19 -81.5zM868 1526l-34 49q47 51 99 104.5t102 96.5t95.5 70.5t81.5 27.5q23 0 46.5 -15.5t23.5 -48.5q0 -27 -25.5 -56.5t-97.5 -65.5z" />
<glyph unicode="&#xdb;" horiz-adv-x="1511" d="M1303 733q-27 -147 -58 -285.5t-89 -246t-157.5 -173t-263.5 -65.5q-246 0 -359.5 110.5t-113.5 309.5q0 45 6 93t17 102l112 632q4 23 6.5 39.5t2.5 32.5q0 53 -25 71.5t-78 18.5q-20 0 -42.5 -2t-51.5 -6l14 74q80 -4 157 -7.5t152 -3.5q78 0 149 4.5t157 8.5l-15 -74 q-27 4 -49 6t-41 2q-66 0 -96.5 -33.5t-46.5 -130.5l-109 -616q-16 -90 -24 -154.5t-8 -113.5q0 -84 28.5 -141.5t74.5 -91.5t102.5 -48t111.5 -14q123 0 202 63.5t129 163.5t77.5 226t50.5 251l84 475q6 37 6 64q0 59 -31 78.5t-94 19.5q-18 0 -39 -1t-43 -3l12 70 q80 -4 138.5 -6t134.5 -2q37 0 62.5 1t49 2t50 3t69.5 4l-12 -70q-25 2 -45.5 4t-36.5 2q-35 0 -58.5 -7t-40 -26.5t-26.5 -51t-19 -81.5zM735 1526l-35 41l226 245q27 29 47 45.5t45 16.5q29 0 46 -16.5t40 -45.5l168 -245l-41 -41l-221 192z" />
<glyph unicode="&#xdc;" horiz-adv-x="1511" d="M1303 733q-27 -147 -58 -285.5t-89 -246t-157.5 -173t-263.5 -65.5q-246 0 -359.5 110.5t-113.5 309.5q0 45 6 93t17 102l112 632q4 23 6.5 39.5t2.5 32.5q0 53 -25 71.5t-78 18.5q-20 0 -42.5 -2t-51.5 -6l14 74q80 -4 157 -7.5t152 -3.5q78 0 149 4.5t157 8.5l-15 -74 q-27 4 -49 6t-41 2q-66 0 -96.5 -33.5t-46.5 -130.5l-109 -616q-16 -90 -24 -154.5t-8 -113.5q0 -84 28.5 -141.5t74.5 -91.5t102.5 -48t111.5 -14q123 0 202 63.5t129 163.5t77.5 226t50.5 251l84 475q6 37 6 64q0 59 -31 78.5t-94 19.5q-18 0 -39 -1t-43 -3l12 70 q80 -4 138.5 -6t134.5 -2q37 0 62.5 1t49 2t50 3t69.5 4l-12 -70q-25 2 -45.5 4t-36.5 2q-35 0 -58.5 -7t-40 -26.5t-26.5 -51t-19 -81.5zM696 1700q6 47 43 82t84 35q45 0 75 -30t30 -73q0 -53 -38 -91t-89 -38q-53 0 -79 34t-26 81zM1092 1700q6 47 42.5 82t84.5 35 q45 0 74.5 -30t29.5 -73q0 -53 -38 -91t-89 -38q-53 0 -78.5 34t-25.5 81z" />
<glyph unicode="&#xdd;" horiz-adv-x="1263" d="M770 606l-65 -383q-6 -41 -7 -69q0 -55 26 -76t81 -21q33 0 82 6l-10 -69q-158 12 -302 12q-141 0 -301 -12l13 69q45 -6 80 -6q70 0 103.5 35t49.5 131l66 383l-230 594q-16 39 -27.5 71t-26.5 55.5t-38.5 35.5t-62.5 12q-10 0 -20.5 -1t-22.5 -3l12 70 q63 -4 122.5 -8.5t131.5 -4.5t147.5 4.5t153.5 8.5l-12 -70q-25 2 -46.5 3t-39.5 1q-59 0 -91 -14t-32 -55t28 -105l103 -246q29 -66 52.5 -133t37.5 -135h14l262 373q76 104 111 168.5t35 97.5q0 29 -22.5 39t-65.5 10q-18 0 -34.5 -1t-41.5 -5l10 70q66 -4 115 -7.5 t106 -3.5q51 0 78 1.5t45.5 2.5t40 3t66.5 4l-12 -70q-10 2 -22.5 2h-20.5q-39 0 -68 -14.5t-53.5 -41t-48 -61t-52.5 -73.5zM709 1526l-35 49q47 51 99 104.5t102.5 96.5t95.5 70.5t82 27.5q23 0 46 -15.5t23 -48.5q0 -27 -25.5 -56.5t-97.5 -65.5z" />
<glyph unicode="&#xde;" horiz-adv-x="1191" d="M768 1135q121 0 200 -34t125 -86t64.5 -113.5t18.5 -117.5q0 -63 -24 -140t-90.5 -142.5t-186 -110.5t-314.5 -45q-23 0 -48.5 2t-51.5 4l-29 -149q-4 -16 -8 -37t-4 -43q0 -27 11 -46.5t46 -19.5q51 0 150 6l-13 -69q-78 4 -154.5 8t-156.5 4t-147.5 -4t-145.5 -8l13 69 q25 -2 41 -3t34 -1q37 0 60.5 5.5t41 23.5t29 55t23.5 101l168 946q4 31 6 54.5t4 41.5q0 59 -28.5 73.5t-94.5 14.5q-18 0 -37.5 -1t-44.5 -3l13 70q78 -4 154.5 -8.5t156.5 -4.5t147.5 4.5t145.5 8.5l-13 -70q-25 2 -41 3t-34 1q-37 0 -61.5 -11t-42 -40t-30 -76 t-24.5 -119q43 4 86 5.5t86 1.5zM473 426q29 -4 54.5 -6t52.5 -2q92 0 166.5 24.5t128 73.5t83 126t29.5 181q0 72 -22.5 119t-60.5 74.5t-88 39t-105 11.5q-33 0 -64 -3t-63 -7z" />
<glyph unicode="&#xdf;" horiz-adv-x="1163" d="M692 49q53 0 92 20.5t66 52.5t39 71.5t12 78.5q0 55 -25.5 95.5t-63.5 73t-83 62t-83 64.5t-63.5 77t-25.5 101q0 96 49 167t108.5 129.5t108.5 112.5t49 118q0 43 -15 70.5t-38.5 42t-53.5 19.5t-56 5q-104 0 -166 -84t-92 -260l-189 -1065h-176q14 59 24.5 104.5 t20.5 95.5t21.5 114.5t29.5 160.5l99 553q14 88 38.5 168t73.5 141.5t130 97t210 35.5q88 0 143.5 -21.5t88 -53t45 -70.5t12.5 -74q0 -51 -25.5 -87t-64.5 -64.5t-84 -53t-84 -53t-64.5 -64.5t-25.5 -85t28.5 -88t71.5 -76t93.5 -73t93.5 -78t71.5 -95t28.5 -121 q0 -41 -19.5 -97t-63.5 -107.5t-113.5 -87t-170.5 -35.5q-41 0 -91 8t-94 27.5t-73.5 52t-29.5 82.5q0 59 28.5 86.5t63.5 27.5q43 0 61.5 -16t22.5 -41t4 -53.5t6 -53t27.5 -41t72.5 -16.5z" />
<glyph unicode="&#xe0;" horiz-adv-x="1026" d="M594 172q-10 -18 -33.5 -52t-61.5 -67t-93.5 -57.5t-124.5 -24.5q-70 0 -116 20.5t-74 52.5t-39 70t-11 74q0 59 28.5 121t98.5 112t185.5 84t289.5 36q10 55 17.5 93t12.5 65.5t8 48t3 43.5q0 55 -31.5 91t-115.5 36q-25 0 -51.5 -5.5t-51 -18.5t-41 -35.5t-18.5 -57.5 q-4 -76 -32 -111t-75 -35q-12 0 -26.5 2t-28.5 10.5t-23.5 25t-9.5 42.5q0 39 24.5 82t72 79t116 59.5t156.5 23.5q135 0 214 -57.5t79 -182.5q0 -23 -6.5 -56.5t-10.5 -59.5l-41 -213q-2 -12 -8 -44t-12 -67t-11 -69.5t-5 -53.5q0 -29 10 -55.5t39 -26.5q25 0 47 15.5 t39 33.5q20 23 37 52l45 -45q-25 -33 -51.5 -65t-56.5 -56.5t-62.5 -40t-71.5 -15.5q-53 0 -87 34t-34 106v26.5t4 30.5zM633 477q-70 0 -143.5 -10t-135 -42t-101.5 -89t-40 -150q0 -23 5 -46t18.5 -42.5t39 -33t66.5 -13.5q63 0 111.5 39t83 94.5t56 114.5t28.5 102z M633 1085q-59 68 -103.5 115t-75 81t-46 58.5t-15.5 46.5q0 39 20.5 58.5t55.5 19.5q33 0 62.5 -29.5t56 -78.5t51.5 -110.5t49 -125.5z" />
<glyph unicode="&#xe1;" horiz-adv-x="1026" d="M594 172q-10 -18 -33.5 -52t-61.5 -67t-93.5 -57.5t-124.5 -24.5q-70 0 -116 20.5t-74 52.5t-39 70t-11 74q0 59 28.5 121t98.5 112t185.5 84t289.5 36q10 55 17.5 93t12.5 65.5t8 48t3 43.5q0 55 -31.5 91t-115.5 36q-25 0 -51.5 -5.5t-51 -18.5t-41 -35.5t-18.5 -57.5 q-4 -76 -32 -111t-75 -35q-12 0 -26.5 2t-28.5 10.5t-23.5 25t-9.5 42.5q0 39 24.5 82t72 79t116 59.5t156.5 23.5q135 0 214 -57.5t79 -182.5q0 -23 -6.5 -56.5t-10.5 -59.5l-41 -213q-2 -12 -8 -44t-12 -67t-11 -69.5t-5 -53.5q0 -29 10 -55.5t39 -26.5q25 0 47 15.5 t39 33.5q20 23 37 52l45 -45q-25 -33 -51.5 -65t-56.5 -56.5t-62.5 -40t-71.5 -15.5q-53 0 -87 34t-34 106v26.5t4 30.5zM633 477q-70 0 -143.5 -10t-135 -42t-101.5 -89t-40 -150q0 -23 5 -46t18.5 -42.5t39 -33t66.5 -13.5q63 0 111.5 39t83 94.5t56 114.5t28.5 102z M424 1118q37 63 78 125t81 111t78.5 79.5t73.5 30.5q23 0 44.5 -11t21.5 -40q0 -25 -18.5 -50.5t-57.5 -62t-101.5 -89t-150.5 -126.5z" />
<glyph unicode="&#xe2;" horiz-adv-x="1026" d="M594 172q-10 -18 -33.5 -52t-61.5 -67t-93.5 -57.5t-124.5 -24.5q-70 0 -116 20.5t-74 52.5t-39 70t-11 74q0 59 28.5 121t98.5 112t185.5 84t289.5 36q10 55 17.5 93t12.5 65.5t8 48t3 43.5q0 55 -31.5 91t-115.5 36q-25 0 -51.5 -5.5t-51 -18.5t-41 -35.5t-18.5 -57.5 q-4 -76 -32 -111t-75 -35q-12 0 -26.5 2t-28.5 10.5t-23.5 25t-9.5 42.5q0 39 24.5 82t72 79t116 59.5t156.5 23.5q135 0 214 -57.5t79 -182.5q0 -23 -6.5 -56.5t-10.5 -59.5l-41 -213q-2 -12 -8 -44t-12 -67t-11 -69.5t-5 -53.5q0 -29 10 -55.5t39 -26.5q25 0 47 15.5 t39 33.5q20 23 37 52l45 -45q-25 -33 -51.5 -65t-56.5 -56.5t-62.5 -40t-71.5 -15.5q-53 0 -87 34t-34 106v26.5t4 30.5zM633 477q-70 0 -143.5 -10t-135 -42t-101.5 -89t-40 -150q0 -23 5 -46t18.5 -42.5t39 -33t66.5 -13.5q63 0 111.5 39t83 94.5t56 114.5t28.5 102z M760 1085q-49 55 -80 96.5t-48.5 70t-25.5 46t-12 25.5q-6 -8 -22.5 -25.5t-46 -47t-76 -69.5t-113.5 -96l-45 41l227 273q29 33 49.5 48t48.5 17q47 0 76 -65l121 -275z" />
<glyph unicode="&#xe3;" horiz-adv-x="1026" d="M594 172q-10 -18 -33.5 -52t-61.5 -67t-93.5 -57.5t-124.5 -24.5q-70 0 -116 20.5t-74 52.5t-39 70t-11 74q0 59 28.5 121t98.5 112t185.5 84t289.5 36q10 55 17.5 93t12.5 65.5t8 48t3 43.5q0 55 -31.5 91t-115.5 36q-25 0 -51.5 -5.5t-51 -18.5t-41 -35.5t-18.5 -57.5 q-4 -76 -32 -111t-75 -35q-12 0 -26.5 2t-28.5 10.5t-23.5 25t-9.5 42.5q0 39 24.5 82t72 79t116 59.5t156.5 23.5q135 0 214 -57.5t79 -182.5q0 -23 -6.5 -56.5t-10.5 -59.5l-41 -213q-2 -12 -8 -44t-12 -67t-11 -69.5t-5 -53.5q0 -29 10 -55.5t39 -26.5q25 0 47 15.5 t39 33.5q20 23 37 52l45 -45q-25 -33 -51.5 -65t-56.5 -56.5t-62.5 -40t-71.5 -15.5q-53 0 -87 34t-34 106v26.5t4 30.5zM633 477q-70 0 -143.5 -10t-135 -42t-101.5 -89t-40 -150q0 -23 5 -46t18.5 -42.5t39 -33t66.5 -13.5q63 0 111.5 39t83 94.5t56 114.5t28.5 102z M268 1188q18 33 39 63.5t45.5 55t56 39t72.5 14.5q43 0 70 -17.5t48.5 -39t46 -39t61.5 -17.5q45 0 68.5 29t47.5 63l49 -24q-18 -33 -38.5 -63.5t-45 -55.5t-55.5 -39t-71 -14q-43 0 -71 17.5t-49.5 39t-46 38.5t-61.5 17q-47 0 -69.5 -29.5t-49.5 -66.5z" />
<glyph unicode="&#xe4;" horiz-adv-x="1026" d="M594 172q-10 -18 -33.5 -52t-61.5 -67t-93.5 -57.5t-124.5 -24.5q-70 0 -116 20.5t-74 52.5t-39 70t-11 74q0 59 28.5 121t98.5 112t185.5 84t289.5 36q10 55 17.5 93t12.5 65.5t8 48t3 43.5q0 55 -31.5 91t-115.5 36q-25 0 -51.5 -5.5t-51 -18.5t-41 -35.5t-18.5 -57.5 q-4 -76 -32 -111t-75 -35q-12 0 -26.5 2t-28.5 10.5t-23.5 25t-9.5 42.5q0 39 24.5 82t72 79t116 59.5t156.5 23.5q135 0 214 -57.5t79 -182.5q0 -23 -6.5 -56.5t-10.5 -59.5l-41 -213q-2 -12 -8 -44t-12 -67t-11 -69.5t-5 -53.5q0 -29 10 -55.5t39 -26.5q25 0 47 15.5 t39 33.5q20 23 37 52l45 -45q-25 -33 -51.5 -65t-56.5 -56.5t-62.5 -40t-71.5 -15.5q-53 0 -87 34t-34 106v26.5t4 30.5zM633 477q-70 0 -143.5 -10t-135 -42t-101.5 -89t-40 -150q0 -23 5 -46t18.5 -42.5t39 -33t66.5 -13.5q63 0 111.5 39t83 94.5t56 114.5t28.5 102z M301 1235q2 53 39 88t86 35q41 0 68.5 -27.5t27.5 -66.5q0 -57 -38 -91t-87 -34q-43 0 -69.5 27.5t-26.5 68.5zM616 1237q2 53 39 87t86 34q41 0 69 -27.5t28 -66.5q0 -57 -38 -91t-87 -34q-43 0 -70 28.5t-27 69.5z" />
<glyph unicode="&#xe5;" horiz-adv-x="1026" d="M594 172q-10 -18 -33.5 -52t-61.5 -67t-93.5 -57.5t-124.5 -24.5q-70 0 -116 20.5t-74 52.5t-39 70t-11 74q0 59 28.5 121t98.5 112t185.5 84t289.5 36q10 55 17.5 93t12.5 65.5t8 48t3 43.5q0 55 -31.5 91t-115.5 36q-25 0 -51.5 -5.5t-51 -18.5t-41 -35.5t-18.5 -57.5 q-4 -76 -32 -111t-75 -35q-12 0 -26.5 2t-28.5 10.5t-23.5 25t-9.5 42.5q0 39 24.5 82t72 79t116 59.5t156.5 23.5q135 0 214 -57.5t79 -182.5q0 -23 -6.5 -56.5t-10.5 -59.5l-41 -213q-2 -12 -8 -44t-12 -67t-11 -69.5t-5 -53.5q0 -29 10 -55.5t39 -26.5q25 0 47 15.5 t39 33.5q20 23 37 52l45 -45q-25 -33 -51.5 -65t-56.5 -56.5t-62.5 -40t-71.5 -15.5q-53 0 -87 34t-34 106v26.5t4 30.5zM633 477q-70 0 -143.5 -10t-135 -42t-101.5 -89t-40 -150q0 -23 5 -46t18.5 -42.5t39 -33t66.5 -13.5q63 0 111.5 39t83 94.5t56 114.5t28.5 102z M575 1419q80 0 125 -49t45 -117q0 -70 -45 -119t-125 -49t-124.5 49.5t-44.5 118.5q0 68 44.5 117t124.5 49zM473 1253q0 -53 29.5 -83.5t72.5 -30.5q45 0 74 30.5t29 83.5q0 51 -28.5 82t-74.5 31q-43 0 -72.5 -31t-29.5 -82z" />
<glyph unicode="&#xe6;" horiz-adv-x="1505" d="M1382 252q-37 -66 -76.5 -118t-89 -91t-108.5 -59.5t-133 -20.5q-123 0 -200 53.5t-111 149.5q-37 -57 -74 -96t-78 -62.5t-92 -34t-119 -10.5q-70 0 -119 21.5t-79.5 53.5t-45 70.5t-14.5 75.5q0 59 28.5 121t99.5 111t187.5 80.5t294.5 31.5q10 70 18.5 115t13.5 75 t7 47t2 30q0 23 -7 45t-23.5 39.5t-44 28t-68.5 10.5q-25 0 -54.5 -8.5t-56 -25t-45 -41t-20.5 -57.5q-6 -76 -38 -110.5t-79 -34.5q-12 0 -26.5 4t-29 14.5t-23.5 28t-9 43.5q0 39 27.5 82t79 80t123 61.5t159.5 24.5q98 0 166 -37t102 -129q66 82 152 124t178 42 q86 0 143.5 -19.5t91 -51t48 -71.5t14.5 -81q0 -152 -133 -223.5t-401 -71.5h-107q-8 -43 -11 -83t-3 -75q0 -143 55 -208.5t162 -65.5q72 0 154.5 58t148.5 189l33 -12q14 -6 30 -12zM643 465q-80 0 -156.5 -8t-136 -37t-96.5 -85t-37 -153q0 -23 5 -49.5t20.5 -49 t42 -38.5t67.5 -16q63 0 109.5 30.5t79 83t54 118t36.5 136.5zM928 526q98 0 164.5 19.5t106.5 53.5t57.5 80t17.5 99q0 59 -27.5 99.5t-107.5 40.5q-59 0 -109.5 -37t-90.5 -93.5t-66.5 -126t-38.5 -135.5h94z" />
<glyph unicode="&#xe7;" horiz-adv-x="935" d="M176 -330q23 -12 45.5 -20t50.5 -8q12 0 27.5 2t31 10t26 21.5t10.5 37.5q0 18 -13.5 30.5t-29 24t-27.5 25.5t-12 41q0 37 27.5 71t74.5 64q-141 23 -222 125.5t-81 261.5q0 131 37 245t104.5 198t160.5 132t206 48q82 0 139 -19.5t94 -49t54.5 -66.5t17.5 -72 q0 -49 -13.5 -79.5t-33 -48t-41 -25t-37.5 -7.5q-33 0 -55.5 20.5t-22.5 65.5q0 25 5.5 41.5t10.5 29.5t10 27.5t5 34.5q0 37 -30.5 57.5t-104.5 20.5q-51 0 -108.5 -35.5t-105.5 -110.5t-80 -187.5t-32 -266.5q0 -143 62.5 -211.5t167.5 -68.5q37 0 78.5 15t80.5 47t71 79 t50 109l10 -5q6 -2 23 -6q14 -6 33 -10q-43 -129 -143.5 -212t-237.5 -83h-2q-33 -23 -48.5 -40t-15.5 -50q0 -23 16.5 -37t35 -30.5t35 -37t16.5 -55.5q0 -70 -55.5 -103.5t-127.5 -33.5q-39 0 -87 7t-76 30z" />
<glyph unicode="&#xe8;" horiz-adv-x="972" d="M850 252q-37 -66 -77 -118t-89 -91t-108.5 -59.5t-133.5 -20.5q-176 0 -268 106.5t-92 282.5q0 135 42 250t115.5 199t173 131t212.5 47q86 0 143 -19.5t91 -51t48.5 -71.5t14.5 -81q0 -152 -133.5 -223.5t-401.5 -71.5h-115q-8 -43 -11 -83t-3 -75q0 -143 59.5 -208.5 t165.5 -65.5q72 0 155 58t148 189l33 -12q15 -6 31 -12zM395 526q98 0 165 19.5t107 53.5t57 80t17 99q0 59 -27.5 99.5t-107.5 40.5q-59 0 -110.5 -37t-92.5 -93.5t-68.5 -126t-39.5 -135.5h100zM651 1085q-59 68 -103 115t-75 81t-46 58.5t-15 46.5q0 39 20.5 58.5 t54.5 19.5q33 0 63 -29.5t56.5 -78.5t51 -110.5t49.5 -125.5z" />
<glyph unicode="&#xe9;" horiz-adv-x="972" d="M850 252q-37 -66 -77 -118t-89 -91t-108.5 -59.5t-133.5 -20.5q-176 0 -268 106.5t-92 282.5q0 135 42 250t115.5 199t173 131t212.5 47q86 0 143 -19.5t91 -51t48.5 -71.5t14.5 -81q0 -152 -133.5 -223.5t-401.5 -71.5h-115q-8 -43 -11 -83t-3 -75q0 -143 59.5 -208.5 t165.5 -65.5q72 0 155 58t148 189l33 -12q15 -6 31 -12zM395 526q98 0 165 19.5t107 53.5t57 80t17 99q0 59 -27.5 99.5t-107.5 40.5q-59 0 -110.5 -37t-92.5 -93.5t-68.5 -126t-39.5 -135.5h100zM514 1118q37 63 78 125t81 111t79 79.5t73 30.5q23 0 44.5 -11t21.5 -40 q0 -25 -18.5 -50.5t-57.5 -62t-101.5 -89t-150.5 -126.5z" />
<glyph unicode="&#xea;" horiz-adv-x="972" d="M850 252q-37 -66 -77 -118t-89 -91t-108.5 -59.5t-133.5 -20.5q-176 0 -268 106.5t-92 282.5q0 135 42 250t115.5 199t173 131t212.5 47q86 0 143 -19.5t91 -51t48.5 -71.5t14.5 -81q0 -152 -133.5 -223.5t-401.5 -71.5h-115q-8 -43 -11 -83t-3 -75q0 -143 59.5 -208.5 t165.5 -65.5q72 0 155 58t148 189l33 -12q15 -6 31 -12zM395 526q98 0 165 19.5t107 53.5t57 80t17 99q0 59 -27.5 99.5t-107.5 40.5q-59 0 -110.5 -37t-92.5 -93.5t-68.5 -126t-39.5 -135.5h100zM776 1085q-49 55 -79.5 96.5t-48 70t-26 46t-12.5 25.5q-6 -8 -22.5 -25.5 t-46 -47t-75.5 -69.5t-114 -96l-45 41l228 273q29 33 49 48t49 17q47 0 76 -65l120 -275z" />
<glyph unicode="&#xeb;" horiz-adv-x="972" d="M850 252q-37 -66 -77 -118t-89 -91t-108.5 -59.5t-133.5 -20.5q-176 0 -268 106.5t-92 282.5q0 135 42 250t115.5 199t173 131t212.5 47q86 0 143 -19.5t91 -51t48.5 -71.5t14.5 -81q0 -152 -133.5 -223.5t-401.5 -71.5h-115q-8 -43 -11 -83t-3 -75q0 -143 59.5 -208.5 t165.5 -65.5q72 0 155 58t148 189l33 -12q15 -6 31 -12zM395 526q98 0 165 19.5t107 53.5t57 80t17 99q0 59 -27.5 99.5t-107.5 40.5q-59 0 -110.5 -37t-92.5 -93.5t-68.5 -126t-39.5 -135.5h100zM330 1235q2 53 39 88t86 35q41 0 68.5 -27.5t27.5 -66.5q0 -57 -38 -91 t-87 -34q-43 0 -69.5 27.5t-26.5 68.5zM645 1237q2 53 39 87t86 34q41 0 68.5 -27.5t27.5 -66.5q0 -57 -37.5 -91t-87.5 -34q-43 0 -69.5 28.5t-26.5 69.5z" />
<glyph unicode="&#xec;" horiz-adv-x="608" d="M514 1085q-59 68 -103 115t-75 81t-46.5 58.5t-15.5 46.5q0 39 20.5 58.5t55.5 19.5q33 0 62.5 -29.5t56.5 -78.5t51.5 -110.5t48.5 -125.5zM348 244q-8 -41 -12 -70t-4 -49q0 -35 23.5 -47t90.5 -12h36t38 2l-12 -68q-35 2 -76 4t-84 2q-51 0 -105.5 -4t-109.5 -14 l131 741q4 25 6 43.5t2 34.5q0 43 -27.5 56.5t-62.5 13.5h-52.5t-45.5 -3l14 68q57 -6 117 -6q125 0 260 31z" />
<glyph unicode="&#xed;" horiz-adv-x="608" d="M348 244q-8 -41 -12 -70t-4 -49q0 -35 23.5 -47t90.5 -12h36t38 2l-12 -68q-35 2 -76 4t-84 2q-51 0 -105.5 -4t-109.5 -14l131 741q4 25 6 43.5t2 34.5q0 43 -27.5 56.5t-62.5 13.5h-52.5t-45.5 -3l14 68q57 -6 117 -6q125 0 260 31zM301 1118q37 63 78 125t81 111 t79 79.5t73 30.5q23 0 44.5 -11t21.5 -40q0 -25 -18.5 -50.5t-57.5 -62t-101.5 -89t-150.5 -126.5z" />
<glyph unicode="&#xee;" horiz-adv-x="608" d="M604 1085q-41 55 -67.5 96.5t-42 70t-23.5 46t-12 25.5q-14 -16 -66.5 -72.5t-171.5 -165.5l-45 41l207 273q29 33 49.5 48t48.5 17q47 0 76 -65l100 -275zM348 244q-8 -41 -12 -70t-4 -49q0 -35 23.5 -47t90.5 -12h36t38 2l-12 -68q-35 2 -76 4t-84 2q-51 0 -105.5 -4 t-109.5 -14l131 741q4 25 6 43.5t2 34.5q0 43 -27.5 56.5t-62.5 13.5h-52.5t-45.5 -3l14 68q57 -6 117 -6q125 0 260 31z" />
<glyph unicode="&#xef;" horiz-adv-x="608" d="M184 1231q2 53 39 88t86 35q41 0 69 -28t28 -66q0 -57 -38 -91t-87 -34q-43 0 -70 27.5t-27 68.5zM479 1233q2 53 39 87t86 34q41 0 68.5 -28t27.5 -66q0 -57 -37.5 -91t-87.5 -34q-43 0 -69.5 28.5t-26.5 69.5zM348 244q-8 -41 -12 -70t-4 -49q0 -35 23.5 -47t90.5 -12 h36t38 2l-12 -68q-35 2 -76 4t-84 2q-51 0 -105.5 -4t-109.5 -14l131 741q4 25 6 43.5t2 34.5q0 43 -27.5 56.5t-62.5 13.5h-52.5t-45.5 -3l14 68q57 -6 117 -6q125 0 260 31z" />
<glyph unicode="&#xf0;" horiz-adv-x="1099" d="M727 1456q23 -25 43.5 -50.5t38.5 -49.5l248 117l24 -70l-229 -109q78 -127 110.5 -258t32.5 -266q0 -131 -25.5 -273.5t-89 -261t-168 -195.5t-263.5 -77q-82 0 -150 27.5t-116 80t-74.5 124t-26.5 161.5q0 147 46 259t116.5 188t156.5 114.5t166 38.5q70 0 118 -16 t78 -43t44 -57.5t18 -59.5l13 4q-6 20 -9.5 61.5t-15.5 97.5t-38.5 127t-78.5 151l-237 -113l-27 70l221 104q-29 37 -65.5 74t-79.5 78q35 0 61.5 2t50 5t49 7t58.5 8zM594 885q-86 0 -147.5 -58.5t-101.5 -143.5t-58.5 -180t-18.5 -169q0 -137 48.5 -221t138.5 -84 q80 0 141 50t104 130t64.5 178t21.5 195q0 68 -14 123t-38.5 95t-60.5 62.5t-79 22.5z" />
<glyph unicode="&#xf1;" horiz-adv-x="1138" d="M776 469q18 104 32.5 180t14.5 131q0 61 -24.5 92t-85.5 31q-53 0 -104.5 -33.5t-97.5 -97t-83 -158t-57 -213.5l-70 -401h-176q10 47 24.5 114.5t30 142.5t29.5 153.5t25.5 149.5t18.5 127t7 89q0 66 -22.5 84.5t-65.5 18.5q-14 0 -41 -1t-47 -4l12 68q18 -4 47 -4h47 q61 0 115.5 7t120.5 18q-4 -53 -7 -104.5t-16 -129.5h11q12 27 40.5 68t71.5 78.5t100.5 64.5t127.5 27q68 0 111.5 -16.5t69.5 -45t36 -66.5t10 -81q0 -41 -5 -80t-13 -78l-64 -356q-4 -39 -9 -66.5t-5 -48.5q0 -39 23.5 -54.5t95.5 -15.5q10 0 26.5 1t28.5 3l-12 -67 q-35 2 -72 5t-74 3q-51 0 -104.5 -3t-108.5 -13zM397 1188q18 33 39 63.5t45.5 55t56 39t72.5 14.5q43 0 70 -17.5t48.5 -39t46 -39t61.5 -17.5q45 0 68.5 29t47.5 63l49 -24q-18 -33 -38.5 -63.5t-45 -55.5t-55.5 -39t-71 -14q-43 0 -71 17.5t-49.5 39t-46 38.5t-61.5 17 q-47 0 -69.5 -29.5t-49.5 -66.5z" />
<glyph unicode="&#xf2;" horiz-adv-x="1052" d="M967 557q0 -104 -35 -209.5t-101.5 -190.5t-163 -139.5t-218.5 -54.5q-168 0 -265.5 105.5t-97.5 316.5q0 104 33 209.5t98.5 191.5t161.5 139.5t225 53.5q168 0 265.5 -105.5t97.5 -316.5zM457 27q86 0 147.5 62.5t101 151.5t59 189t19.5 174q0 70 -7 127t-28.5 98 t-58.5 63.5t-94 22.5q-84 0 -145.5 -60t-101.5 -148.5t-60.5 -188.5t-20.5 -180q0 -70 7.5 -127t29 -98t57.5 -63.5t95 -22.5zM692 1085q-59 68 -103 115t-75 81t-46 58.5t-15 46.5q0 39 20.5 58.5t54.5 19.5q33 0 63 -29.5t56.5 -78.5t51 -110.5t49.5 -125.5z" />
<glyph unicode="&#xf3;" horiz-adv-x="1052" d="M967 557q0 -104 -35 -209.5t-101.5 -190.5t-163 -139.5t-218.5 -54.5q-168 0 -265.5 105.5t-97.5 316.5q0 104 33 209.5t98.5 191.5t161.5 139.5t225 53.5q168 0 265.5 -105.5t97.5 -316.5zM457 27q86 0 147.5 62.5t101 151.5t59 189t19.5 174q0 70 -7 127t-28.5 98 t-58.5 63.5t-94 22.5q-84 0 -145.5 -60t-101.5 -148.5t-60.5 -188.5t-20.5 -180q0 -70 7.5 -127t29 -98t57.5 -63.5t95 -22.5zM500 1118q37 63 77.5 125t80.5 111t79 79.5t74 30.5q23 0 44.5 -11t21.5 -40q0 -25 -18.5 -50.5t-57.5 -62t-101.5 -89t-150.5 -126.5z" />
<glyph unicode="&#xf4;" horiz-adv-x="1052" d="M967 557q0 -104 -35 -209.5t-101.5 -190.5t-163 -139.5t-218.5 -54.5q-168 0 -265.5 105.5t-97.5 316.5q0 104 33 209.5t98.5 191.5t161.5 139.5t225 53.5q168 0 265.5 -105.5t97.5 -316.5zM457 27q86 0 147.5 62.5t101 151.5t59 189t19.5 174q0 70 -7 127t-28.5 98 t-58.5 63.5t-94 22.5q-84 0 -145.5 -60t-101.5 -148.5t-60.5 -188.5t-20.5 -180q0 -70 7.5 -127t29 -98t57.5 -63.5t95 -22.5zM825 1085q-49 55 -79.5 96.5t-48 70t-25.5 46t-13 25.5q-6 -8 -22 -25.5t-46 -47t-76 -69.5t-114 -96l-45 41l228 273q29 33 49 48t49 17 q47 0 76 -65l121 -275z" />
<glyph unicode="&#xf5;" horiz-adv-x="1052" d="M967 557q0 -104 -35 -209.5t-101.5 -190.5t-163 -139.5t-218.5 -54.5q-168 0 -265.5 105.5t-97.5 316.5q0 104 33 209.5t98.5 191.5t161.5 139.5t225 53.5q168 0 265.5 -105.5t97.5 -316.5zM457 27q86 0 147.5 62.5t101 151.5t59 189t19.5 174q0 70 -7 127t-28.5 98 t-58.5 63.5t-94 22.5q-84 0 -145.5 -60t-101.5 -148.5t-60.5 -188.5t-20.5 -180q0 -70 7.5 -127t29 -98t57.5 -63.5t95 -22.5zM336 1188q18 33 38.5 63.5t45 55t56.5 39t73 14.5q43 0 69.5 -17.5t48 -39t46 -39t61.5 -17.5q45 0 68.5 29t48.5 63l49 -24q-18 -33 -38.5 -63.5 t-45.5 -55.5t-55.5 -39t-71.5 -14q-43 0 -70.5 17.5t-49 39t-46 38.5t-61.5 17q-47 0 -69.5 -29.5t-49.5 -66.5z" />
<glyph unicode="&#xf6;" horiz-adv-x="1052" d="M967 557q0 -104 -35 -209.5t-101.5 -190.5t-163 -139.5t-218.5 -54.5q-168 0 -265.5 105.5t-97.5 316.5q0 104 33 209.5t98.5 191.5t161.5 139.5t225 53.5q168 0 265.5 -105.5t97.5 -316.5zM457 27q86 0 147.5 62.5t101 151.5t59 189t19.5 174q0 70 -7 127t-28.5 98 t-58.5 63.5t-94 22.5q-84 0 -145.5 -60t-101.5 -148.5t-60.5 -188.5t-20.5 -180q0 -70 7.5 -127t29 -98t57.5 -63.5t95 -22.5zM369 1235q2 53 38.5 88t86.5 35q41 0 68.5 -27.5t27.5 -66.5q0 -57 -38 -91t-87 -34q-43 0 -69.5 27.5t-26.5 68.5zM684 1237q2 53 39 87t86 34 q41 0 68.5 -27.5t27.5 -66.5q0 -57 -38 -91t-87 -34q-43 0 -69.5 28.5t-26.5 69.5z" />
<glyph unicode="&#xf7;" d="M406 221q0 47 31.5 78t78.5 31t78 -31t31 -78t-31 -78.5t-78 -31.5t-78.5 31.5t-31.5 78.5zM406 797q0 47 31.5 77.5t78.5 30.5t78 -30.5t31 -77.5t-31 -79t-78 -32t-78.5 32t-31.5 79zM981 551v-82h-930v82h930z" />
<glyph unicode="&#xf8;" horiz-adv-x="1116" d="M1020 557q0 -104 -35 -209.5t-101.5 -190.5t-162.5 -139.5t-219 -54.5q-100 0 -176 38t-123 114l-191 -181l-45 52l205 192q-33 84 -33 207q0 104 33 209.5t98.5 191.5t161.5 139.5t225 53.5q162 0 258 -100l146 137l45 -51l-150 -142q64 -104 64 -266zM510 27 q86 0 147.5 62.5t101.5 151.5t59.5 189t19.5 174q0 29 -1 54.5t-3 48.5l-508 -478q10 -92 51 -147t133 -55zM322 319l495 467q-16 59 -56 94t-112 35q-84 0 -145.5 -60t-101.5 -148.5t-60 -188.5t-20 -180v-19z" />
<glyph unicode="&#xf9;" horiz-adv-x="1136" d="M362 473q-16 -98 -27 -171t-11 -124q0 -70 23.5 -101.5t80.5 -31.5q49 0 99.5 33t96.5 95.5t81.5 154.5t58.5 213l72 401h178q-27 -117 -52.5 -239.5t-45 -231.5t-32 -192.5t-12.5 -120.5q0 -66 34 -80.5t110 -14.5h13t22 3l-13 -66q-23 2 -46 2h-46q-59 0 -118.5 -5 t-120.5 -22q0 51 4 103.5t14 124.5l-10 2q-14 -31 -41 -71t-67 -74.5t-94 -59.5t-124 -25q-68 0 -112 18.5t-70.5 49.5t-36.5 73t-10 91q0 31 4 64.5t10 68.5l66 358q6 39 11 68t5 49q0 35 -24.5 48.5t-92.5 13.5h-28.5t-30.5 -3l12 68q31 -2 67 -4t77 -2q53 0 107 5t108 17 zM717 1085q-59 68 -103.5 115t-75 81t-46 58.5t-15.5 46.5q0 39 20.5 58.5t55.5 19.5q33 0 62.5 -29.5t56 -78.5t51.5 -110.5t49 -125.5z" />
<glyph unicode="&#xfa;" horiz-adv-x="1136" d="M362 473q-16 -98 -27 -171t-11 -124q0 -70 23.5 -101.5t80.5 -31.5q49 0 99.5 33t96.5 95.5t81.5 154.5t58.5 213l72 401h178q-27 -117 -52.5 -239.5t-45 -231.5t-32 -192.5t-12.5 -120.5q0 -66 34 -80.5t110 -14.5h13t22 3l-13 -66q-23 2 -46 2h-46q-59 0 -118.5 -5 t-120.5 -22q0 51 4 103.5t14 124.5l-10 2q-14 -31 -41 -71t-67 -74.5t-94 -59.5t-124 -25q-68 0 -112 18.5t-70.5 49.5t-36.5 73t-10 91q0 31 4 64.5t10 68.5l66 358q6 39 11 68t5 49q0 35 -24.5 48.5t-92.5 13.5h-28.5t-30.5 -3l12 68q31 -2 67 -4t77 -2q53 0 107 5t108 17 zM522 1118q37 63 78 125t81 111t79 79.5t74 30.5q23 0 44 -11t21 -40q0 -25 -18.5 -50.5t-57.5 -62t-101.5 -89t-150.5 -126.5z" />
<glyph unicode="&#xfb;" horiz-adv-x="1136" d="M362 473q-16 -98 -27 -171t-11 -124q0 -70 23.5 -101.5t80.5 -31.5q49 0 99.5 33t96.5 95.5t81.5 154.5t58.5 213l72 401h178q-27 -117 -52.5 -239.5t-45 -231.5t-32 -192.5t-12.5 -120.5q0 -66 34 -80.5t110 -14.5h13t22 3l-13 -66q-23 2 -46 2h-46q-59 0 -118.5 -5 t-120.5 -22q0 51 4 103.5t14 124.5l-10 2q-14 -31 -41 -71t-67 -74.5t-94 -59.5t-124 -25q-68 0 -112 18.5t-70.5 49.5t-36.5 73t-10 91q0 31 4 64.5t10 68.5l66 358q6 39 11 68t5 49q0 35 -24.5 48.5t-92.5 13.5h-28.5t-30.5 -3l12 68q31 -2 67 -4t77 -2q53 0 107 5t108 17 zM844 1085q-49 55 -80 96.5t-48.5 70t-25.5 46t-12 25.5q-6 -8 -22.5 -25.5t-46 -47t-76 -69.5t-113.5 -96l-45 41l227 273q29 33 49.5 48t48.5 17q47 0 76 -65l121 -275z" />
<glyph unicode="&#xfc;" horiz-adv-x="1136" d="M362 473q-16 -98 -27 -171t-11 -124q0 -70 23.5 -101.5t80.5 -31.5q49 0 99.5 33t96.5 95.5t81.5 154.5t58.5 213l72 401h178q-27 -117 -52.5 -239.5t-45 -231.5t-32 -192.5t-12.5 -120.5q0 -66 34 -80.5t110 -14.5h13t22 3l-13 -66q-23 2 -46 2h-46q-59 0 -118.5 -5 t-120.5 -22q0 51 4 103.5t14 124.5l-10 2q-14 -31 -41 -71t-67 -74.5t-94 -59.5t-124 -25q-68 0 -112 18.5t-70.5 49.5t-36.5 73t-10 91q0 31 4 64.5t10 68.5l66 358q6 39 11 68t5 49q0 35 -24.5 48.5t-92.5 13.5h-28.5t-30.5 -3l12 68q31 -2 67 -4t77 -2q53 0 107 5t108 17 zM397 1235q2 53 39 88t86 35q41 0 68.5 -27.5t27.5 -66.5q0 -57 -37.5 -91t-86.5 -34q-43 0 -70 27.5t-27 68.5zM713 1237q2 53 38.5 87t86.5 34q41 0 68.5 -27.5t27.5 -66.5q0 -57 -38 -91t-87 -34q-43 0 -69.5 28.5t-26.5 69.5z" />
<glyph unicode="&#xfd;" horiz-adv-x="1009" d="M401 963q0 -109 11.5 -218.5t24 -211t23.5 -190.5t13 -155h10l244 365q20 31 40.5 62.5t38 64.5t29 62.5t11.5 54.5q0 23 -6 37t-24.5 23t-53.5 13t-92 4l12 68q23 -2 57.5 -3t57.5 -1q63 0 116.5 6t120.5 19q-6 -35 -21.5 -69t-47 -83t-80.5 -121t-122 -181.5t-172 -265 t-231 -372.5q-70 -115 -114.5 -182.5t-79.5 -102.5t-64.5 -46t-66.5 -11q-43 0 -67.5 27.5t-24.5 64.5q0 35 22.5 69t85.5 34q23 0 33 -2.5t27 -2.5q27 0 47 7.5t44.5 35t58.5 81t87 143.5l-76 577q-12 94 -22 155.5t-23.5 97.5t-33 50.5t-50.5 14.5q-12 0 -30.5 -1 t-34.5 -3l14 65q29 -2 63.5 -3t65.5 -1q84 0 180 25zM543 1118q37 63 78 125t80.5 111t78.5 79.5t74 30.5q23 0 44.5 -11t21.5 -40q0 -25 -18.5 -50.5t-57.5 -62t-101.5 -89t-150.5 -126.5z" />
<glyph unicode="&#xfe;" horiz-adv-x="1101" d="M686 899q-74 0 -141.5 -60.5t-117.5 -151.5t-80 -198.5t-30 -203.5q0 -51 7.5 -95.5t26 -76t49 -50t77.5 -18.5q76 0 142.5 54.5t114.5 140.5t76 193.5t28 211.5q0 141 -39 197.5t-113 56.5zM403 770q63 117 141.5 157t184.5 40q137 0 213 -100.5t76 -278.5 q0 -129 -43 -240.5t-113.5 -194.5t-163 -130.5t-190.5 -47.5q-63 0 -124.5 22.5t-117.5 76.5l-8 -2q0 -39 -3 -63.5t-7 -52.5t-11.5 -65.5t-17.5 -105.5q-4 -31 -8 -54.5t-4 -41.5q0 -49 28.5 -65.5t106.5 -16.5h25.5t27.5 2l-10 -68q-35 2 -76 4t-86 2q-53 0 -107.5 -4 t-109.5 -14q12 68 22.5 126t21.5 113.5t21.5 112t22.5 119.5l223 1249q6 27 7 54q0 33 -17.5 52t-66.5 19q-35 0 -97 -6l11 68q31 -2 61.5 -3t52.5 -1q39 0 71 2t59.5 5t55 8t62.5 11l-67 -389q-6 -29 -13.5 -74t-15.5 -90t-15.5 -82t-13.5 -49z" />
<glyph unicode="&#xff;" horiz-adv-x="1009" d="M401 963q0 -109 11.5 -218.5t24 -211t23.5 -190.5t13 -155h10l244 365q20 31 40.5 62.5t38 64.5t29 62.5t11.5 54.5q0 23 -6 37t-24.5 23t-53.5 13t-92 4l12 68q23 -2 57.5 -3t57.5 -1q63 0 116.5 6t120.5 19q-6 -35 -21.5 -69t-47 -83t-80.5 -121t-122 -181.5t-172 -265 t-231 -372.5q-70 -115 -114.5 -182.5t-79.5 -102.5t-64.5 -46t-66.5 -11q-43 0 -67.5 27.5t-24.5 64.5q0 35 22.5 69t85.5 34q23 0 33 -2.5t27 -2.5q27 0 47 7.5t44.5 35t58.5 81t87 143.5l-76 577q-12 94 -22 155.5t-23.5 97.5t-33 50.5t-50.5 14.5q-12 0 -30.5 -1 t-34.5 -3l14 65q29 -2 63.5 -3t65.5 -1q84 0 180 25zM403 1235q2 53 39 88t86 35q41 0 69 -27.5t28 -66.5q0 -57 -38 -91t-87 -34q-43 0 -70 27.5t-27 68.5zM719 1237q2 53 39 87t86 34q41 0 68.5 -27.5t27.5 -66.5q0 -57 -38 -91t-87 -34q-43 0 -69.5 28.5t-26.5 69.5z" />
<glyph unicode="&#x104;" horiz-adv-x="1413" d="M903 1470l254 -1151q10 -49 19.5 -95t26 -83t44 -59.5t76.5 -22.5q10 0 20.5 1t22.5 3l-12 -69l-74 6q-94 -57 -138 -113.5t-44 -130.5q0 -53 27.5 -81.5t74.5 -28.5q45 0 92 22l19 -59q-31 -14 -70 -22.5t-72 -8.5q-98 0 -145 40t-47 99q0 53 22.5 97.5t57.5 79t76 61.5 t77 47q-35 2 -68.5 3t-70.5 1t-69.5 -1t-65.5 -2t-67.5 -4t-75.5 -5l12 69q23 -4 48.5 -4h45.5q63 0 85 26t22 67q0 20 -3.5 41.5t-7.5 46.5l-61 282h-559l-123 -243q-27 -51 -47.5 -99.5t-20.5 -64.5q0 -31 21.5 -43.5t81.5 -12.5h35.5t42.5 4l-13 -69q-61 4 -121.5 7 t-119.5 3q-53 0 -106.5 -2t-108.5 -8l12 69q12 -4 31.5 -4h31.5q59 0 99.5 60.5t93.5 159.5l645 1191h94zM410 588h512l-86 389q-14 66 -25.5 133.5t-22.5 163.5h-8z" />
<glyph unicode="&#x105;" horiz-adv-x="1026" d="M594 172q-10 -18 -33.5 -52t-61.5 -67t-93.5 -57.5t-124.5 -24.5q-70 0 -116 20.5t-74 52.5t-39 70t-11 74q0 59 28.5 121t98.5 112t185.5 84t289.5 36q10 55 17.5 93t12.5 65.5t8 48t3 43.5q0 55 -31.5 91t-115.5 36q-25 0 -51.5 -5.5t-51 -18.5t-41 -35.5t-18.5 -57.5 q-4 -76 -32 -111t-75 -35q-12 0 -26.5 2t-28.5 10.5t-23.5 25t-9.5 42.5q0 39 24.5 82t72 79t116 59.5t156.5 23.5q135 0 214 -57.5t79 -182.5q0 -23 -6.5 -56.5t-10.5 -59.5l-41 -213q-2 -12 -8 -44t-12 -67t-11 -69.5t-5 -53.5q0 -29 10 -55.5t39 -26.5q25 0 47 15.5 t39 33.5q20 23 37 52l45 -45q-43 -59 -93.5 -109.5t-113.5 -63.5q-74 -51 -110 -103t-36 -118q0 -53 28 -81.5t75 -28.5q45 0 92 22l18 -59q-31 -14 -69.5 -22.5t-71.5 -8.5q-98 0 -145 40t-47 99q0 47 17 86t45 71t61.5 58.5t68.5 47.5q-37 10 -59.5 42.5t-22.5 90.5v26.5 t4 30.5zM633 477q-70 0 -143.5 -10t-135 -42t-101.5 -89t-40 -150q0 -23 5 -46t18.5 -42.5t39 -33t66.5 -13.5q63 0 111.5 39t83 94.5t56 114.5t28.5 102z" />
<glyph unicode="&#x106;" horiz-adv-x="1292" d="M1317 1417q-10 -86 -21.5 -176t-11.5 -203h-72q2 16 3.5 35t1.5 35q0 61 -14.5 115.5t-48.5 95.5t-88 64.5t-134 23.5q-111 0 -216.5 -51t-188.5 -155.5t-133 -262.5t-50 -369q0 -123 28.5 -223t82 -170t131.5 -107.5t174 -37.5q129 0 229.5 72.5t165.5 189.5l62 -31 q-100 -166 -222.5 -232.5t-283.5 -66.5q-127 0 -231.5 42t-179.5 122t-116 194.5t-41 260.5q0 219 62.5 386t171 278.5t253 167.5t308.5 56q133 0 226.5 -18.5t152.5 -34.5zM745 1526l-34 49q47 51 99 104.5t102.5 96.5t95.5 70.5t82 27.5q23 0 46 -15.5t23 -48.5 q0 -27 -25.5 -56.5t-97.5 -65.5z" />
<glyph unicode="&#x107;" horiz-adv-x="935" d="M590 909q-51 0 -108.5 -35.5t-105.5 -110.5t-80 -187.5t-32 -266.5q0 -143 62.5 -211.5t167.5 -68.5q37 0 78.5 15t80.5 47t71 79t50 109l10 -5q6 -2 23 -6q14 -6 33 -10q-43 -129 -143.5 -212t-237.5 -83q-86 0 -154.5 28.5t-118 80t-76 124t-26.5 160.5q0 131 37 245 t104.5 198t160.5 132t206 48q82 0 139 -19.5t94 -49t54.5 -66.5t17.5 -72q0 -49 -13.5 -79.5t-33 -48t-41 -25t-37.5 -7.5q-33 0 -55.5 20.5t-22.5 65.5q0 25 5.5 41.5t10.5 29.5t10 27.5t5 34.5q0 37 -30.5 57.5t-104.5 20.5zM465 1118q37 63 78 125t81 111t78.5 79.5 t73.5 30.5q23 0 44.5 -11t21.5 -40q0 -25 -18.5 -50.5t-57.5 -62t-101.5 -89t-150.5 -126.5z" />
<glyph unicode="&#x10c;" horiz-adv-x="1292" d="M1317 1417q-10 -86 -21.5 -176t-11.5 -203h-72q2 16 3.5 35t1.5 35q0 61 -14.5 115.5t-48.5 95.5t-88 64.5t-134 23.5q-111 0 -216.5 -51t-188.5 -155.5t-133 -262.5t-50 -369q0 -123 28.5 -223t82 -170t131.5 -107.5t174 -37.5q129 0 229.5 72.5t165.5 189.5l62 -31 q-100 -166 -222.5 -232.5t-283.5 -66.5q-127 0 -231.5 42t-179.5 122t-116 194.5t-41 260.5q0 219 62.5 386t171 278.5t253 167.5t308.5 56q133 0 226.5 -18.5t152.5 -34.5zM1139 1874l35 -41l-226 -246q-27 -29 -47 -42t-45 -13q-29 0 -47 13.5t-39 41.5l-168 246l41 41 l223 -193z" />
<glyph unicode="&#x10d;" horiz-adv-x="935" d="M590 909q-51 0 -108.5 -35.5t-105.5 -110.5t-80 -187.5t-32 -266.5q0 -143 62.5 -211.5t167.5 -68.5q37 0 78.5 15t80.5 47t71 79t50 109l10 -5q6 -2 23 -6q14 -6 33 -10q-43 -129 -143.5 -212t-237.5 -83q-86 0 -154.5 28.5t-118 80t-76 124t-26.5 160.5q0 131 37 245 t104.5 198t160.5 132t206 48q82 0 139 -19.5t94 -49t54.5 -66.5t17.5 -72q0 -49 -13.5 -79.5t-33 -48t-41 -25t-37.5 -7.5q-33 0 -55.5 20.5t-22.5 65.5q0 25 5.5 41.5t10.5 29.5t10 27.5t5 34.5q0 37 -30.5 57.5t-104.5 20.5zM410 1464q51 -55 83.5 -96t51 -69.5t28 -46 t15.5 -25.5q6 8 20.5 25.5t43 47t72.5 69.5t110 95l47 -41l-215 -272q-27 -33 -46.5 -48.5t-48.5 -17.5q-25 0 -43 16.5t-34 49.5l-136 274z" />
<glyph unicode="&#x10e;" horiz-adv-x="1490" d="M1434 838q0 -158 -45.5 -308.5t-142.5 -270.5t-248.5 -192.5t-364.5 -72.5q-61 0 -107.5 1t-86.5 3t-78.5 3t-88.5 1q-72 0 -140.5 -1t-137.5 -7l14 69q49 -6 84 -6q70 0 104.5 35t51.5 131l174 987q4 20 6 40t2 36q0 41 -21.5 65.5t-89.5 24.5q-37 0 -88 -6l13 70 q82 -4 148.5 -6t142.5 -2q37 0 65.5 1t63 3t81 3t115.5 1q137 0 243.5 -43t180.5 -123t112 -190.5t38 -245.5zM639 55q162 0 274.5 74t183 192.5t103.5 267t33 300.5q0 92 -17.5 180t-63.5 156.5t-124 110.5t-199 42q-88 0 -131 -7t-61.5 -26.5t-22.5 -52t-12 -82.5 l-174 -987q-6 -41 -6 -67q0 -35 11 -55.5t38 -31t68 -12.5t100 -2zM1163 1874l35 -41l-225 -246q-27 -29 -47.5 -42t-44.5 -13q-29 0 -47.5 13.5t-38.5 41.5l-168 246l41 41l223 -193z" />
<glyph unicode="&#x10f;" horiz-adv-x="1167" d="M766 494q6 39 11 81.5t5 83.5q0 45 -8 89.5t-27.5 79t-52 55t-84.5 20.5q-78 0 -140 -54t-108.5 -142.5t-71 -199t-24.5 -222.5q0 -139 39 -191.5t113 -52.5q57 0 113.5 36t103.5 98.5t81 144.5t50 174zM727 211q-59 -117 -151.5 -176.5t-206.5 -59.5q-137 0 -213 89.5 t-76 267.5q0 135 41 250.5t110.5 201.5t159.5 134.5t189 48.5q66 0 131 -22.5t116 -100.5l9 2q2 66 13 120t21.5 106t19.5 104.5t9 113.5q0 57 -37 68.5t-110 11.5h-21.5t-25.5 -2l10 68q57 -6 114 -6q66 0 131.5 5t141.5 19q-23 -137 -47.5 -262t-46.5 -254l-80 -467 q-18 -109 -31.5 -180.5t-13.5 -116.5q0 -72 22.5 -93.5t69.5 -21.5q14 0 38.5 2t45.5 7l-10 -68q-16 2 -32 2h-32q-131 0 -264 -33q0 45 3 101.5t15 138.5zM1163 1339q0 59 33 85t74 26q59 0 83.5 -41t24.5 -92q0 -125 -64.5 -194.5t-176.5 -121.5l-27 68q66 35 100.5 61.5 t34.5 71.5q0 20 -13 33.5t-28.5 26t-28 29.5t-12.5 48z" />
<glyph unicode="&#x118;" horiz-adv-x="1249" d="M418 1192q4 29 8 53.5t4 44.5q0 43 -23.5 63.5t-89.5 20.5q-16 0 -39.5 -1t-48.5 -3l11 70q135 -8 262 -10.5t243 -2.5q74 0 135.5 1.5t120 2.5t117 3t129.5 6q-14 -102 -21 -195.5t-9 -189.5h-70q2 23 3 43t1 39q0 84 -17.5 130t-53.5 68.5t-91 26.5t-131 4 q-90 0 -138 -5t-71.5 -22.5t-32 -52.5t-18.5 -94l-72 -412q33 -4 58.5 -4h52.5q98 0 149.5 15.5t76 44t33.5 69.5t22 90h69q-43 -147 -61.5 -264t-24.5 -235h-70q4 33 8.5 60.5t4.5 49.5q0 27 -9.5 46.5t-33 33.5t-65.5 21.5t-109 7.5h-53.5t-59.5 -4l-84 -463 q-8 -47 -8 -86q0 -35 9 -54.5t30.5 -28.5t56.5 -10t84 -1q104 0 179 5t128.5 36.5t91 99t70.5 192.5l70 -12q-20 -61 -34.5 -109.5t-25 -93.5t-18.5 -90t-19 -102q-33 2 -62.5 3t-57.5 1q-92 -57 -136.5 -113.5t-44.5 -128.5q0 -53 28 -81.5t75 -28.5q45 0 92 22l18 -59 q-31 -14 -69.5 -22.5t-71.5 -8.5q-98 0 -145 40t-47 99q0 53 22.5 96.5t56 78t73.5 61.5t77 47q-98 4 -190.5 5t-196.5 1q-121 0 -233.5 -2t-229.5 -10l14 69q23 -4 44.5 -4h39.5q37 0 60.5 8.5t40 28t28 54t21.5 90.5z" />
<glyph unicode="&#x119;" horiz-adv-x="972" d="M850 252q-59 -102 -126 -173t-163 -99q-78 -51 -113.5 -104.5t-35.5 -119.5q0 -53 27.5 -81.5t74.5 -28.5q45 0 92 22l19 -59q-31 -14 -70 -22.5t-72 -8.5q-98 0 -145 40t-47 99q0 84 52 144.5t116 101.5h-17q-176 0 -268 106.5t-92 282.5q0 135 42 250t115.5 199 t173 131t212.5 47q86 0 143 -19.5t91 -51t48.5 -71.5t14.5 -81q0 -152 -133.5 -223.5t-401.5 -71.5h-115q-8 -43 -11 -83t-3 -75q0 -143 59.5 -208.5t165.5 -65.5q72 0 155 58t148 189l33 -12q15 -6 31 -12zM395 526q98 0 165 19.5t107 53.5t57 80t17 99q0 59 -27.5 99.5 t-107.5 40.5q-59 0 -110.5 -37t-92.5 -93.5t-68.5 -126t-39.5 -135.5h100z" />
<glyph unicode="&#x11a;" horiz-adv-x="1249" d="M418 1192q4 29 8 53.5t4 44.5q0 43 -23.5 63.5t-89.5 20.5q-16 0 -39.5 -1t-48.5 -3l11 70q135 -8 262 -10.5t243 -2.5q74 0 135.5 1.5t120 2.5t117 3t129.5 6q-14 -102 -21 -195.5t-9 -189.5h-70q2 23 3 43t1 39q0 84 -17.5 130t-53.5 68.5t-91 26.5t-131 4 q-90 0 -138 -5t-71.5 -22.5t-32 -52.5t-18.5 -94l-72 -412q33 -4 58.5 -4h52.5q98 0 149.5 15.5t76 44t33.5 69.5t22 90h69q-43 -147 -61.5 -264t-24.5 -235h-70q4 33 8.5 60.5t4.5 49.5q0 27 -9.5 46.5t-33 33.5t-65.5 21.5t-109 7.5h-53.5t-59.5 -4l-84 -463 q-8 -47 -8 -86q0 -35 9 -54.5t30.5 -28.5t56.5 -10t84 -1q104 0 179 5t128.5 36.5t91 99t70.5 192.5l70 -12q-20 -61 -34.5 -109.5t-25 -93.5t-18.5 -90t-19 -102q-80 2 -152.5 5t-142 4l-139 2t-145.5 1q-121 0 -233.5 -2t-229.5 -10l14 69q23 -4 44.5 -4h39.5 q37 0 60.5 8.5t40 28t28 54t21.5 90.5zM1104 1874l35 -41l-226 -246q-27 -29 -47 -42t-45 -13q-29 0 -47 13.5t-39 41.5l-168 246l41 41l223 -193z" />
<glyph unicode="&#x11b;" horiz-adv-x="972" d="M850 252q-37 -66 -77 -118t-89 -91t-108.5 -59.5t-133.5 -20.5q-176 0 -268 106.5t-92 282.5q0 135 42 250t115.5 199t173 131t212.5 47q86 0 143 -19.5t91 -51t48.5 -71.5t14.5 -81q0 -152 -133.5 -223.5t-401.5 -71.5h-115q-8 -43 -11 -83t-3 -75q0 -143 59.5 -208.5 t165.5 -65.5q72 0 155 58t148 189l33 -12q15 -6 31 -12zM395 526q98 0 165 19.5t107 53.5t57 80t17 99q0 59 -27.5 99.5t-107.5 40.5q-59 0 -110.5 -37t-92.5 -93.5t-68.5 -126t-39.5 -135.5h100zM412 1464q51 -55 83.5 -96t51 -69.5t28 -46t15.5 -25.5q6 8 20.5 25.5t43 47 t72.5 69.5t110 95l47 -41l-215 -272q-27 -33 -46.5 -48.5t-48.5 -17.5q-25 0 -43 16.5t-34 49.5l-136 274z" />
<glyph unicode="&#x141;" horiz-adv-x="1169" d="M121 629l217 100l82 461q4 31 7 54.5t3 41.5q0 59 -28.5 73.5t-94.5 14.5q-18 0 -37.5 -1t-44.5 -3l13 70q156 -12 311 -13q80 0 147.5 4.5t145.5 8.5l-13 -70q-25 2 -41 3t-34 1q-37 0 -61.5 -5t-41 -23.5t-28 -55.5t-23.5 -100l-65 -369l198 92l29 -73l-244 -115 l-86 -481q-4 -25 -6 -45.5t-2 -36.5q0 -35 9 -54.5t27.5 -28.5t47.5 -11t67 -2q121 0 200 13t130 52t81 110.5t54 188.5l78 -10q-25 -70 -39 -121t-25.5 -98t-19.5 -97.5t-16 -113.5q-137 6 -272.5 11t-280.5 5h-115.5t-108 -2t-109.5 -4t-122 -6l13 69q25 -2 41 -3t34 -1 q37 0 60.5 5.5t41 23.5t29 55t23.5 101l70 391l-172 -80z" />
<glyph unicode="&#x142;" horiz-adv-x="612" d="M451 821l131 68l30 -80l-180 -92l-84 -473q-6 -31 -8 -55.5t-4 -43.5q0 -47 22.5 -64.5t100.5 -17.5q10 0 29.5 1.5t31.5 3.5l-12 -68q-41 2 -77 3t-77 1q-51 0 -106 -3t-115 -13l113 635l-135 -68l-31 80l184 94l90 494q4 25 6 43t2 34q0 39 -19 54.5t-69 15.5 q-16 0 -43.5 -1t-50.5 -3l13 68q25 -2 49 -3t49 -1q66 0 131 5t141 23z" />
<glyph unicode="&#x143;" horiz-adv-x="1572" d="M1192 268l166 942q6 39 6 70q0 55 -27.5 74.5t-87.5 19.5q-18 0 -37.5 -1t-42.5 -3l13 70q57 0 117.5 -6.5t132.5 -6.5q39 0 65.5 1.5t52 2.5t54 3t71.5 6l-12 -70q-25 2 -45.5 4t-36.5 2q-35 0 -58.5 -7t-40 -26.5t-26.5 -51t-18 -81.5l-221 -1247h-89l-507 1104 q-6 12 -17.5 42t-25 65.5t-26.5 71.5t-22 61h-14l-190 -1086q-4 -20 -6.5 -36.5t-2.5 -32.5q0 -53 27 -74t84 -21q37 0 86 6l-12 -69q-41 2 -70 5t-56.5 4t-56 2t-67.5 1q-63 0 -119.5 -4t-122.5 -8l13 69q18 -2 35.5 -3t31.5 -1q72 0 105.5 32t50.5 130l174 989q8 41 8 76 q0 51 -23.5 69.5t-76.5 18.5q-37 0 -88 -6l14 72q57 -4 114.5 -8.5t127.5 -4.5q45 0 80.5 2.5t89.5 10.5q23 -66 45 -121t45 -107l344 -745q14 -29 34.5 -74t43.5 -125h14zM891 1526l-35 49q47 51 99.5 104.5t102.5 96.5t95 70.5t82 27.5q23 0 46.5 -15.5t23.5 -48.5 q0 -27 -26 -56.5t-97 -65.5z" />
<glyph unicode="&#x144;" horiz-adv-x="1138" d="M776 469q18 104 32.5 180t14.5 131q0 61 -24.5 92t-85.5 31q-53 0 -104.5 -33.5t-97.5 -97t-83 -158t-57 -213.5l-70 -401h-176q10 47 24.5 114.5t30 142.5t29.5 153.5t25.5 149.5t18.5 127t7 89q0 66 -22.5 84.5t-65.5 18.5q-14 0 -41 -1t-47 -4l12 68q18 -4 47 -4h47 q61 0 115.5 7t120.5 18q-4 -53 -7 -104.5t-16 -129.5h11q12 27 40.5 68t71.5 78.5t100.5 64.5t127.5 27q68 0 111.5 -16.5t69.5 -45t36 -66.5t10 -81q0 -41 -5 -80t-13 -78l-64 -356q-4 -39 -9 -66.5t-5 -48.5q0 -39 23.5 -54.5t95.5 -15.5q10 0 26.5 1t28.5 3l-12 -67 q-35 2 -72 5t-74 3q-51 0 -104.5 -3t-108.5 -13zM567 1118q37 63 78 125t81 111t79 79.5t74 30.5q23 0 44 -11t21 -40q0 -25 -18.5 -50.5t-57.5 -62t-101 -89t-151 -126.5z" />
<glyph unicode="&#x147;" horiz-adv-x="1572" d="M1192 268l166 942q6 39 6 70q0 55 -27.5 74.5t-87.5 19.5q-18 0 -37.5 -1t-42.5 -3l13 70q57 0 117.5 -6.5t132.5 -6.5q39 0 65.5 1.5t52 2.5t54 3t71.5 6l-12 -70q-25 2 -45.5 4t-36.5 2q-35 0 -58.5 -7t-40 -26.5t-26.5 -51t-18 -81.5l-221 -1247h-89l-507 1104 q-6 12 -17.5 42t-25 65.5t-26.5 71.5t-22 61h-14l-190 -1086q-4 -20 -6.5 -36.5t-2.5 -32.5q0 -53 27 -74t84 -21q37 0 86 6l-12 -69q-41 2 -70 5t-56.5 4t-56 2t-67.5 1q-63 0 -119.5 -4t-122.5 -8l13 69q18 -2 35.5 -3t31.5 -1q72 0 105.5 32t50.5 130l174 989q8 41 8 76 q0 51 -23.5 69.5t-76.5 18.5q-37 0 -88 -6l14 72q57 -4 114.5 -8.5t127.5 -4.5q45 0 80.5 2.5t89.5 10.5q23 -66 45 -121t45 -107l344 -745q14 -29 34.5 -74t43.5 -125h14zM1292 1874l35 -41l-225 -246q-27 -29 -47.5 -42t-44.5 -13q-29 0 -47.5 13.5t-38.5 41.5l-168 246 l41 41l223 -193z" />
<glyph unicode="&#x148;" horiz-adv-x="1138" d="M776 469q18 104 32.5 180t14.5 131q0 61 -24.5 92t-85.5 31q-53 0 -104.5 -33.5t-97.5 -97t-83 -158t-57 -213.5l-70 -401h-176q10 47 24.5 114.5t30 142.5t29.5 153.5t25.5 149.5t18.5 127t7 89q0 66 -22.5 84.5t-65.5 18.5q-14 0 -41 -1t-47 -4l12 68q18 -4 47 -4h47 q61 0 115.5 7t120.5 18q-4 -53 -7 -104.5t-16 -129.5h11q12 27 40.5 68t71.5 78.5t100.5 64.5t127.5 27q68 0 111.5 -16.5t69.5 -45t36 -66.5t10 -81q0 -41 -5 -80t-13 -78l-64 -356q-4 -39 -9 -66.5t-5 -48.5q0 -39 23.5 -54.5t95.5 -15.5q10 0 26.5 1t28.5 3l-12 -67 q-35 2 -72 5t-74 3q-51 0 -104.5 -3t-108.5 -13zM510 1464q51 -55 84 -96t51.5 -69.5t27.5 -46t15 -25.5q6 8 20.5 25.5t43 47t72.5 69.5t110 95l47 -41l-215 -272q-27 -33 -46.5 -48.5t-47.5 -17.5q-25 0 -43.5 16.5t-34.5 49.5l-135 274z" />
<glyph unicode="&#x152;" horiz-adv-x="1943" d="M946 1450q131 0 250 -6t229 -6q143 0 264 3t255 9q-8 -55 -13.5 -99t-8.5 -87t-4 -90.5t-3 -110.5h-70q4 29 5 50.5t1 43.5q0 76 -17 120t-55 66.5t-98.5 27.5t-146.5 5q-78 0 -122 -5t-65.5 -21.5t-29.5 -45t-17 -73.5l-79 -449q33 -4 53 -4h47q94 0 146.5 15.5t81 44 t39.5 69.5t22 94l67 -4q-43 -145 -61.5 -259.5t-24.5 -233.5l-67 -4q4 25 7 47t3 45q0 31 -9 54.5t-34 39.5t-69 24.5t-113 8.5h-45.5t-51.5 -4l-84 -475q-4 -27 -7 -47.5t-3 -36.5q0 -27 4 -44.5t20.5 -26.5t49.5 -13t92 -4q119 0 195.5 6t129 37.5t88.5 99.5t70 190 l68 -10q-23 -61 -37 -109.5t-24.5 -93.5t-18.5 -91t-20 -103q-158 6 -296.5 9t-285.5 3q-115 0 -227.5 -6t-225.5 -6q-125 0 -228 42t-177 119.5t-115 186.5t-41 242q0 201 63.5 361.5t172 272t256 172t315.5 60.5zM934 1384q-127 0 -235.5 -52t-188.5 -155.5t-126 -256 t-46 -353.5q0 -113 26.5 -206t74.5 -160.5t118 -104.5t156 -37q74 0 116.5 8.5t66.5 30t33 55t19 87.5l168 962q6 37 6 70q0 37 -7 59.5t-27.5 33.5t-57.5 15t-96 4z" />
<glyph unicode="&#x153;" horiz-adv-x="1656" d="M1534 252q-37 -66 -77 -118t-89 -91t-108.5 -59.5t-133.5 -20.5q-121 0 -201.5 53.5t-117.5 143.5q-63 -86 -149.5 -141.5t-208.5 -55.5q-168 0 -265.5 103.5t-97.5 314.5q0 104 33 210.5t98.5 192.5t161.5 140.5t225 54.5q117 0 202 -56.5t122 -158.5q72 96 165 155.5 t216 59.5q86 0 143 -19.5t91 -51t48.5 -71.5t14.5 -81q0 -152 -133.5 -223.5t-401.5 -71.5h-115q-8 -43 -11 -83t-3 -75q0 -143 59.5 -208.5t165.5 -65.5q72 0 155 58t148 189l33 -12q15 -6 31 -12zM457 29q86 0 147.5 60.5t101 148.5t59 186t19.5 172q0 70 -7 128 t-28.5 101t-58.5 68t-94 25q-84 0 -145.5 -61.5t-101.5 -151t-60.5 -190.5t-20.5 -181q0 -70 7.5 -126t29 -96t57.5 -61.5t95 -21.5zM1079 526q98 0 165 19.5t107 53.5t57 80t17 99q0 59 -27.5 99.5t-107.5 40.5q-59 0 -110.5 -37t-92 -93.5t-68.5 -126t-40 -135.5h100z" />
<glyph unicode="&#x158;" horiz-adv-x="1368" d="M811 745q61 0 103 -14t70 -46t44 -81t27 -119l47 -303q4 -72 40 -98.5t97 -26.5q37 0 80 6l-14 -69q-45 4 -82 7t-78 3q-43 0 -93.5 -5t-123.5 -15q0 49 -5 98t-12.5 104.5t-17.5 118t-23 137.5q-10 72 -20 124t-36 85t-74 48.5t-134 15.5q-16 0 -45 -1t-49 -3l-82 -488 q-4 -23 -6 -39t-2 -30q0 -55 27.5 -75t87.5 -20q16 0 38.5 1t45.5 3l-15 -69q-158 12 -307 12q-72 0 -145.5 -2t-149.5 -10l14 69q23 -2 41.5 -3t30.5 -1q70 0 103.5 32t52.5 132l176 987q6 39 6 72q0 53 -24.5 73.5t-77.5 20.5q-35 0 -84 -6l14 70q66 -6 132.5 -8t133.5 -2 q45 0 65.5 2t47.5 3t72 3t139 2q123 0 196.5 -32t113.5 -79t52.5 -99t12.5 -91q0 -160 -101.5 -260.5t-306.5 -122.5zM592 780q84 0 161.5 18.5t138 60.5t97.5 107.5t37 161.5q0 51 -13.5 97.5t-40 80t-67.5 54t-96 20.5q-61 0 -97 -6t-55.5 -23.5t-30 -51t-20.5 -89.5 l-78 -428q16 -2 32 -2h32zM1108 1874l35 -41l-225 -246q-27 -29 -47.5 -42t-45.5 -13q-29 0 -47 13.5t-39 41.5l-168 246l41 41l224 -193z" />
<glyph unicode="&#x159;" horiz-adv-x="856" d="M307 0h-182q16 74 29.5 135.5t23.5 116.5t19.5 108.5t19.5 108.5l35 193q8 41 10 69.5t2 50.5q0 35 -8 53.5t-24.5 27.5t-41 11.5t-59.5 2.5h-24.5t-22.5 -3l12 68q16 -2 31.5 -4t32.5 -2q61 0 126.5 6t147.5 25q0 -55 -8 -120t-16 -106l10 -4q25 51 59.5 94t76.5 74 t87 48.5t88 17.5q90 0 127 -44t37 -100q0 -53 -29.5 -92t-79.5 -39q-53 0 -71.5 21.5t-18.5 54.5q0 16 4.5 35.5t4.5 38.5q0 20 -13.5 31.5t-34.5 11.5q-31 0 -70.5 -34t-79.5 -95.5t-74 -148.5t-52 -191zM299 1464q51 -55 84 -96t51.5 -69.5t27.5 -46t15 -25.5 q6 8 20.5 25.5t43 47t72.5 69.5t110 95l47 -41l-215 -272q-27 -33 -46.5 -48.5t-47.5 -17.5q-25 0 -43.5 16.5t-34.5 49.5l-135 274z" />
<glyph unicode="&#x15a;" horiz-adv-x="1130" d="M461 31q68 0 132 19.5t114.5 57t81 97t30.5 139.5q0 86 -43 146.5t-108.5 108.5t-141 90t-141.5 92t-109 116t-43 162q0 106 38 183t108 128t164 75.5t209 24.5q164 0 333 -49q-10 -47 -17 -84t-13 -72.5t-9.5 -71.5t-3.5 -81v-25.5t2 -29.5h-73q4 20 5 35.5t1 35.5 q0 45 -9.5 93.5t-35 89.5t-71.5 67.5t-122 26.5q-100 0 -163.5 -28.5t-99.5 -71.5t-49 -94.5t-13 -96.5q0 -78 44 -133t110.5 -101t143 -89t143.5 -96.5t111 -124t44 -171.5q0 -113 -46 -194.5t-122 -136t-174.5 -80t-204.5 -25.5q-123 0 -213 21.5t-170 46.5l10 51 q8 45 15.5 87t12.5 84t8 87t3 98h78q-4 -23 -6 -51.5t-2 -54.5q0 -47 11 -100.5t41 -98.5t80 -73.5t130 -28.5zM584 1526l-35 49q47 51 99 104.5t102.5 96.5t95.5 70.5t82 27.5q23 0 46 -15.5t23 -48.5q0 -27 -25.5 -56.5t-97.5 -65.5z" />
<glyph unicode="&#x15b;" horiz-adv-x="880" d="M795 934q-16 -66 -25.5 -124t-9.5 -140h-64q2 10 2 39q0 20 -4 55t-22.5 68.5t-56 58t-105.5 24.5q-86 0 -142.5 -46t-56.5 -124q0 -49 33 -85.5t82 -68.5t106.5 -62.5t106.5 -68.5t82 -87t33 -117q0 -88 -40 -144.5t-101.5 -89t-133 -46t-135.5 -13.5q-80 0 -161 15.5 t-136 44.5q33 129 33 272h67q-2 -12 -3 -24.5t-1 -24.5q0 -98 53.5 -159.5t157.5 -61.5q119 0 168 55t49 141q0 53 -31.5 91t-80.5 69t-104.5 59.5t-104.5 63.5t-81 81t-32 111q0 57 23.5 108.5t71 90.5t117 61.5t163.5 22.5q61 0 105.5 -4t76 -11.5t55 -15.5t46.5 -14z M399 1118q37 63 78 125t81 111t79 79.5t74 30.5q23 0 44 -11t21 -40q0 -25 -18.5 -50.5t-57 -62t-101 -89t-150.5 -126.5z" />
<glyph unicode="&#x160;" horiz-adv-x="1130" d="M461 31q68 0 132 19.5t114.5 57t81 97t30.5 139.5q0 86 -43 146.5t-108.5 108.5t-141 90t-141.5 92t-109 116t-43 162q0 106 38 183t108 128t164 75.5t209 24.5q164 0 333 -49q-10 -47 -17 -84t-13 -72.5t-9.5 -71.5t-3.5 -81v-25.5t2 -29.5h-73q4 20 5 35.5t1 35.5 q0 45 -9.5 93.5t-35 89.5t-71.5 67.5t-122 26.5q-100 0 -163.5 -28.5t-99.5 -71.5t-49 -94.5t-13 -96.5q0 -78 44 -133t110.5 -101t143 -89t143.5 -96.5t111 -124t44 -171.5q0 -113 -46 -194.5t-122 -136t-174.5 -80t-204.5 -25.5q-123 0 -213 21.5t-170 46.5l10 51 q8 45 15.5 87t12.5 84t8 87t3 98h78q-4 -23 -6 -51.5t-2 -54.5q0 -47 11 -100.5t41 -98.5t80 -73.5t130 -28.5zM999 1874l35 -41l-225 -246q-27 -29 -47.5 -42t-44.5 -13q-29 0 -47.5 13.5t-38.5 41.5l-168 246l41 41l223 -193z" />
<glyph unicode="&#x161;" horiz-adv-x="880" d="M795 934q-16 -66 -25.5 -124t-9.5 -140h-64q2 10 2 39q0 20 -4 55t-22.5 68.5t-56 58t-105.5 24.5q-86 0 -142.5 -46t-56.5 -124q0 -49 33 -85.5t82 -68.5t106.5 -62.5t106.5 -68.5t82 -87t33 -117q0 -88 -40 -144.5t-101.5 -89t-133 -46t-135.5 -13.5q-80 0 -161 15.5 t-136 44.5q33 129 33 272h67q-2 -12 -3 -24.5t-1 -24.5q0 -98 53.5 -159.5t157.5 -61.5q119 0 168 55t49 141q0 53 -31.5 91t-80.5 69t-104.5 59.5t-104.5 63.5t-81 81t-32 111q0 57 23.5 108.5t71 90.5t117 61.5t163.5 22.5q61 0 105.5 -4t76 -11.5t55 -15.5t46.5 -14z M352 1464q51 -55 84 -96t51.5 -69.5t27.5 -46t15 -25.5q6 8 20.5 25.5t43.5 47t73 69.5t109 95l47 -41l-215 -272q-27 -33 -46 -48.5t-48 -17.5q-25 0 -43 16.5t-35 49.5l-135 274z" />
<glyph unicode="&#x164;" horiz-adv-x="1226" d="M666 244q-6 -31 -8.5 -54.5t-2.5 -42.5q0 -59 29 -73.5t94 -14.5q18 0 38 1t44 3l-12 -69q-78 4 -155 8t-156 4q-80 0 -147.5 -4t-145.5 -8l12 69q25 -2 41 -3t35 -1q37 0 60.5 5.5t41 23.5t28.5 55t23 101l168 944q4 31 8.5 54.5t4.5 41.5q0 55 -38 69.5t-139 14.5 q-84 0 -131 -28.5t-72.5 -74.5t-37.5 -102.5t-27 -113.5l-71 8q18 55 29 102t19.5 92t15.5 90t17 99q41 -4 113 -6t151.5 -3t156.5 -2.5t130 -1.5t128 1.5t153 2.5t146.5 3t109.5 6q-14 -96 -26.5 -178t-12.5 -179v-36h-76q4 35 8.5 74.5t4.5 80.5q0 33 -7.5 62.5t-26 53 t-51 37t-85.5 13.5q-59 0 -96.5 -5t-60 -23.5t-34.5 -54.5t-22 -97zM1102 1874l35 -41l-226 -246q-27 -29 -47 -42t-45 -13q-29 0 -47 13.5t-39 41.5l-168 246l41 41l223 -193z" />
<glyph unicode="&#x165;" horiz-adv-x="696" d="M92 872l14 70q166 0 242 80t101 238h71l-53 -318h244l-13 -70h-243l-113 -643q-10 -57 -10 -94q0 -35 13 -56.5t48 -21.5q47 0 91 48.5t104 125.5l47 -34q-33 -47 -70 -90.5t-76.5 -75t-81.5 -50t-83 -18.5q-78 0 -122 37t-44 145q0 35 5 77t15 95l94 555h-180zM657 1352 q0 59 33 84.5t74 25.5q59 0 83.5 -41t24.5 -92q0 -125 -64.5 -194.5t-176.5 -120.5l-27 67q66 35 100.5 61.5t34.5 71.5q0 20 -13 34t-28.5 26t-28 29.5t-12.5 48.5z" />
<glyph unicode="&#x16e;" horiz-adv-x="1511" d="M1303 733q-27 -147 -58 -285.5t-89 -246t-157.5 -173t-263.5 -65.5q-246 0 -359.5 110.5t-113.5 309.5q0 45 6 93t17 102l112 632q4 23 6.5 39.5t2.5 32.5q0 53 -25 71.5t-78 18.5q-20 0 -42.5 -2t-51.5 -6l14 74q80 -4 157 -7.5t152 -3.5q78 0 149 4.5t157 8.5l-15 -74 q-27 4 -49 6t-41 2q-66 0 -96.5 -33.5t-46.5 -130.5l-109 -616q-16 -90 -24 -154.5t-8 -113.5q0 -84 28.5 -141.5t74.5 -91.5t102.5 -48t111.5 -14q123 0 202 63.5t129 163.5t77.5 226t50.5 251l84 475q6 37 6 64q0 59 -31 78.5t-94 19.5q-18 0 -39 -1t-43 -3l12 70 q80 -4 138.5 -6t134.5 -2q37 0 62.5 1t49 2t50 3t69.5 4l-12 -70q-25 2 -45.5 4t-36.5 2q-35 0 -58.5 -7t-40 -26.5t-26.5 -51t-19 -81.5zM1014 1866q80 0 125 -49.5t45 -116.5q0 -70 -45 -119t-125 -49t-125 49t-45 119q0 68 45 117t125 49zM911 1700q0 -53 30 -84t73 -31 q45 0 73.5 31t28.5 84q0 51 -28.5 81.5t-73.5 30.5q-43 0 -73 -30.5t-30 -81.5z" />
<glyph unicode="&#x16f;" horiz-adv-x="1136" d="M362 473q-16 -98 -27 -171t-11 -124q0 -70 23.5 -101.5t80.5 -31.5q49 0 99.5 33t96.5 95.5t81.5 154.5t58.5 213l72 401h178q-27 -117 -52.5 -239.5t-45 -231.5t-32 -192.5t-12.5 -120.5q0 -66 34 -80.5t110 -14.5h13t22 3l-13 -66q-23 2 -46 2h-46q-59 0 -118.5 -5 t-120.5 -22q0 51 4 103.5t14 124.5l-10 2q-14 -31 -41 -71t-67 -74.5t-94 -59.5t-124 -25q-68 0 -112 18.5t-70.5 49.5t-36.5 73t-10 91q0 31 4 64.5t10 68.5l66 358q6 39 11 68t5 49q0 35 -24.5 48.5t-92.5 13.5h-28.5t-30.5 -3l12 68q31 -2 67 -4t77 -2q53 0 107 5t108 17 zM664 1419q80 0 125 -49t45 -117q0 -70 -45.5 -119t-124.5 -49q-80 0 -125 49.5t-45 118.5q0 68 45 117t125 49zM561 1253q0 -53 30 -83.5t73 -30.5q45 0 73.5 30.5t28.5 83.5q0 51 -28.5 82t-73.5 31q-43 0 -73 -31t-30 -82z" />
<glyph unicode="&#x178;" horiz-adv-x="1263" d="M770 606l-65 -383q-6 -41 -7 -69q0 -55 26 -76t81 -21q33 0 82 6l-10 -69q-158 12 -302 12q-141 0 -301 -12l13 69q45 -6 80 -6q70 0 103.5 35t49.5 131l66 383l-230 594q-16 39 -27.5 71t-26.5 55.5t-38.5 35.5t-62.5 12q-10 0 -20.5 -1t-22.5 -3l12 70 q63 -4 122.5 -8.5t131.5 -4.5t147.5 4.5t153.5 8.5l-12 -70q-25 2 -46.5 3t-39.5 1q-59 0 -91 -14t-32 -55t28 -105l103 -246q29 -66 52.5 -133t37.5 -135h14l262 373q76 104 111 168.5t35 97.5q0 29 -22.5 39t-65.5 10q-18 0 -34.5 -1t-41.5 -5l10 70q66 -4 115 -7.5 t106 -3.5q51 0 78 1.5t45.5 2.5t40 3t66.5 4l-12 -70q-10 2 -22.5 2h-20.5q-39 0 -68 -14.5t-53.5 -41t-48 -61t-52.5 -73.5zM539 1700q6 47 42.5 82t84.5 35q45 0 74.5 -30t29.5 -73q0 -53 -38 -91t-89 -38q-53 0 -78.5 34t-25.5 81zM934 1700q6 47 43 82t84 35 q45 0 74.5 -30t29.5 -73q0 -53 -37.5 -91t-89.5 -38q-53 0 -78.5 34t-25.5 81z" />
<glyph unicode="&#x179;" horiz-adv-x="1232" d="M803 1098q25 31 46 61.5t47 61t56.5 64.5t71.5 73l-6 4h-324q-94 0 -162.5 -9.5t-119 -41t-85 -95t-61.5 -172.5l-69 11q25 70 39 114.5t23 84.5t15.5 82t16.5 108q68 -4 123 -7t108 -4t109.5 -2t126.5 -1q45 0 105.5 1t123 2t122.5 4t110 7l28 -53l-837 -1098 q-31 -41 -50.5 -63.5t-36 -42t-37 -41t-50.5 -58.5l8 -10h368q106 0 183 12t131.5 49t91.5 104.5t63 176.5l72 -10q-27 -70 -41 -120t-23.5 -95t-16.5 -93.5t-17 -111.5q-51 2 -119 5t-144.5 5t-157.5 4t-155 2q-90 0 -142 -1t-92 -3t-82 -5t-110 -7l-37 65zM662 1526 l-35 49q47 51 99 104.5t102.5 96.5t95.5 70.5t82 27.5q23 0 46 -15.5t23 -48.5q0 -27 -25.5 -56.5t-97.5 -65.5z" />
<glyph unicode="&#x17a;" horiz-adv-x="915" d="M463 66q80 0 128 19t76.5 55t45 87.5t32.5 112.5l64 -12q-18 -53 -30.5 -93t-21.5 -76t-15.5 -75t-12.5 -90q-45 4 -131 7t-186 3q-109 0 -213.5 -3t-171.5 -9l-11 49q139 180 237.5 309t166 218t110.5 143.5t71 87t45.5 49t37.5 29.5h-262q-104 0 -158.5 -63.5 t-83.5 -188.5l-61 8q18 57 29.5 94t18.5 68.5t12 65.5t14 85q57 -4 150 -7t196 -3q90 0 173 2t146 8l12 -47q-137 -178 -233 -304t-162.5 -213t-107.5 -140.5t-68 -86t-45 -52t-39 -37.5h248zM465 1118q37 63 78 125t81 111t78.5 79.5t73.5 30.5q23 0 44.5 -11t21.5 -40 q0 -25 -18.5 -50.5t-57.5 -62t-101.5 -89t-150.5 -126.5z" />
<glyph unicode="&#x17b;" horiz-adv-x="1232" d="M803 1098q25 31 46 61.5t47 61t56.5 64.5t71.5 73l-6 4h-324q-94 0 -162.5 -9.5t-119 -41t-85 -95t-61.5 -172.5l-69 11q25 70 39 114.5t23 84.5t15.5 82t16.5 108q68 -4 123 -7t108 -4t109.5 -2t126.5 -1q45 0 105.5 1t123 2t122.5 4t110 7l28 -53l-837 -1098 q-31 -41 -50.5 -63.5t-36 -42t-37 -41t-50.5 -58.5l8 -10h368q106 0 183 12t131.5 49t91.5 104.5t63 176.5l72 -10q-27 -70 -41 -120t-23.5 -95t-16.5 -93.5t-17 -111.5q-51 2 -119 5t-144.5 5t-157.5 4t-155 2q-90 0 -142 -1t-92 -3t-82 -5t-110 -7l-37 65zM795 1581 q-53 0 -78 28.5t-25 69.5q0 25 9.5 51.5t28 48t45 35t61.5 13.5q51 0 73.5 -29t22.5 -65q0 -27 -9.5 -53.5t-27.5 -48t-43.5 -36t-56.5 -14.5z" />
<glyph unicode="&#x17c;" horiz-adv-x="915" d="M463 66q80 0 128 19t76.5 55t45 87.5t32.5 112.5l64 -12q-18 -53 -30.5 -93t-21.5 -76t-15.5 -75t-12.5 -90q-45 4 -131 7t-186 3q-109 0 -213.5 -3t-171.5 -9l-11 49q139 180 237.5 309t166 218t110.5 143.5t71 87t45.5 49t37.5 29.5h-262q-104 0 -158.5 -63.5 t-83.5 -188.5l-61 8q18 57 29.5 94t18.5 68.5t12 65.5t14 85q57 -4 150 -7t196 -3q90 0 173 2t146 8l12 -47q-137 -178 -233 -304t-162.5 -213t-107.5 -140.5t-68 -86t-45 -52t-39 -37.5h248zM584 1130q-53 0 -78 29t-25 70q0 25 9.5 51.5t28 48t45 34.5t61.5 13 q51 0 73.5 -28.5t22.5 -65.5q0 -27 -9.5 -53.5t-27.5 -48t-43.5 -36t-56.5 -14.5z" />
<glyph unicode="&#x17d;" horiz-adv-x="1232" d="M803 1098q25 31 46 61.5t47 61t56.5 64.5t71.5 73l-6 4h-324q-94 0 -162.5 -9.5t-119 -41t-85 -95t-61.5 -172.5l-69 11q25 70 39 114.5t23 84.5t15.5 82t16.5 108q68 -4 123 -7t108 -4t109.5 -2t126.5 -1q45 0 105.5 1t123 2t122.5 4t110 7l28 -53l-837 -1098 q-31 -41 -50.5 -63.5t-36 -42t-37 -41t-50.5 -58.5l8 -10h368q106 0 183 12t131.5 49t91.5 104.5t63 176.5l72 -10q-27 -70 -41 -120t-23.5 -95t-16.5 -93.5t-17 -111.5q-51 2 -119 5t-144.5 5t-157.5 4t-155 2q-90 0 -142 -1t-92 -3t-82 -5t-110 -7l-37 65zM1077 1874 l35 -41l-225 -246q-27 -29 -47.5 -42t-44.5 -13q-29 0 -47.5 13.5t-38.5 41.5l-168 246l41 41l223 -193z" />
<glyph unicode="&#x17e;" horiz-adv-x="915" d="M463 66q80 0 128 19t76.5 55t45 87.5t32.5 112.5l64 -12q-18 -53 -30.5 -93t-21.5 -76t-15.5 -75t-12.5 -90q-45 4 -131 7t-186 3q-109 0 -213.5 -3t-171.5 -9l-11 49q139 180 237.5 309t166 218t110.5 143.5t71 87t45.5 49t37.5 29.5h-262q-104 0 -158.5 -63.5 t-83.5 -188.5l-61 8q18 57 29.5 94t18.5 68.5t12 65.5t14 85q57 -4 150 -7t196 -3q90 0 173 2t146 8l12 -47q-137 -178 -233 -304t-162.5 -213t-107.5 -140.5t-68 -86t-45 -52t-39 -37.5h248zM416 1464q51 -55 83.5 -96t51 -69.5t28 -46t15.5 -25.5q6 8 20.5 25.5t43 47 t72.5 69.5t110 95l47 -41l-215 -272q-27 -33 -46.5 -48.5t-47.5 -17.5q-25 0 -43.5 16.5t-34.5 49.5l-135 274z" />
<glyph unicode="&#x2c6;" horiz-adv-x="819" d="M723 1085q-49 55 -80 96.5t-48 70t-25.5 46t-12.5 25.5q-6 -8 -22.5 -25.5t-46 -47t-75.5 -69.5t-114 -96l-45 41l227 273q29 33 49.5 48t49.5 17q47 0 75 -65l121 -275z" />
<glyph unicode="&#x2da;" horiz-adv-x="819" d="M549 1419q80 0 125 -49t45 -117q0 -70 -45 -119t-125 -49t-125 49.5t-45 118.5q0 68 45 117t125 49zM446 1253q0 -53 30 -83.5t73 -30.5q45 0 73.5 30.5t28.5 83.5q0 51 -28.5 82t-73.5 31q-43 0 -73 -31t-30 -82z" />
<glyph unicode="&#x2dc;" horiz-adv-x="819" d="M246 1188q18 33 38.5 63.5t45 55t56.5 39t73 14.5q43 0 69.5 -17.5t48 -39t46 -39t61.5 -17.5q45 0 68.5 29t48.5 63l49 -24q-18 -33 -38.5 -63.5t-45.5 -55.5t-55.5 -39t-71.5 -14q-43 0 -70.5 17.5t-49 39t-46 38.5t-61.5 17q-47 0 -70 -29.5t-49 -66.5z" />
<glyph unicode="&#x2013;" d="M967 520l-15 -90h-893l15 90h893z" />
<glyph unicode="&#x2014;" horiz-adv-x="1638" d="M1530 520l-14 -90h-1405l14 90h1405z" />
<glyph unicode="&#x2018;" horiz-adv-x="520" d="M489 1079q0 -49 -32.5 -89t-87.5 -40q-66 0 -101 49.5t-35 116.5q0 82 26 140.5t66 99.5t87 69.5t92 49.5l39 -68q-23 -10 -51.5 -27.5t-54 -39t-43 -45t-17.5 -44.5q0 -20 17.5 -36.5t39 -34t38.5 -41t17 -60.5z" />
<glyph unicode="&#x2019;" horiz-adv-x="505" d="M256 1354q4 49 39 82.5t90 33.5q61 0 100 -46t39 -126q0 -72 -18.5 -126t-49 -98t-69.5 -80t-78 -68l-51 51q20 16 45 39.5t45.5 49.5t34.5 52.5t16 48.5q0 27 -22.5 40.5t-49 29.5t-49 42t-22.5 75z" />
<glyph unicode="&#x201a;" horiz-adv-x="544" d="M82 143q4 49 39 83t90 34q61 0 100 -46t39 -126q0 -72 -18.5 -126t-49 -98t-69.5 -80t-78 -69l-51 52q20 16 45 39.5t45.5 49t34.5 52t16 49.5q0 27 -22.5 40t-49 29.5t-49 42t-22.5 74.5z" />
<glyph unicode="&#x201c;" horiz-adv-x="868" d="M489 1079q0 -49 -32.5 -89t-87.5 -40q-66 0 -101 49.5t-35 116.5q0 82 26 140.5t66 99.5t87 69.5t92 49.5l39 -68q-23 -10 -51.5 -27.5t-54 -39t-43 -45t-17.5 -44.5q0 -20 17.5 -36.5t39 -34t38.5 -41t17 -60.5zM838 1079q0 -49 -33 -89t-88 -40q-66 0 -100.5 49.5 t-34.5 116.5q0 82 25.5 140.5t65.5 99.5t87 69.5t92 49.5l39 -68q-23 -10 -51.5 -27.5t-54 -39t-43 -45t-17.5 -44.5q0 -20 17.5 -36.5t39 -34t39 -41t17.5 -60.5z" />
<glyph unicode="&#x201d;" horiz-adv-x="862" d="M256 1354q4 49 39 82.5t90 33.5q61 0 100 -46t39 -126q0 -72 -18.5 -126t-49 -98t-69.5 -80t-78 -68l-51 51q20 16 45 39.5t45.5 49.5t34.5 52.5t16 48.5q0 27 -22.5 40.5t-49 29.5t-49 42t-22.5 75zM612 1354q4 49 39 82.5t90 33.5q61 0 100.5 -46t39.5 -126 q0 -72 -18.5 -126t-49.5 -98t-69.5 -80t-77.5 -68l-52 51q20 16 45 39.5t45.5 49.5t35 52.5t16.5 48.5q0 27 -22.5 40.5t-49.5 29.5t-49.5 42t-22.5 75z" />
<glyph unicode="&#x201e;" horiz-adv-x="897" d="M80 147q4 49 39 83t90 34q61 0 100 -46t39 -126q0 -72 -18.5 -126t-49 -98t-69.5 -80t-78 -69l-51 52q20 16 45 39.5t45.5 49t34.5 52.5t16 49q0 27 -22.5 40t-49 29.5t-49 42t-22.5 74.5zM436 147q4 49 39 83t90 34q61 0 100.5 -46t39.5 -126q0 -72 -18.5 -126 t-49.5 -98t-70 -80t-78 -69l-51 52q20 16 45 39.5t45.5 49t35 52.5t16.5 49q0 27 -22.5 40t-49.5 29.5t-49.5 42t-22.5 74.5z" />
<glyph unicode="&#x2022;" horiz-adv-x="884" d="M475 961q57 0 106.5 -20.5t86.5 -57.5t58.5 -87.5t21.5 -107.5t-21.5 -106.5t-58.5 -86t-86.5 -57t-106.5 -20.5t-106.5 20.5t-86 57t-58 86t-21.5 106.5t21.5 107.5t58 87.5t86 57.5t106.5 20.5z" />
<glyph unicode="&#x2026;" horiz-adv-x="1603" d="M76 94q0 76 48 117t105 41q47 0 83 -31t36 -92q0 -74 -48 -113t-105 -39q-47 0 -83 29t-36 88zM608 94q0 76 48.5 117t105.5 41q47 0 83 -31t36 -92q0 -74 -48.5 -113t-105.5 -39q-47 0 -83 29t-36 88zM1141 94q0 76 48 117t105 41q47 0 83 -31t36 -92q0 -74 -48 -113 t-105 -39q-47 0 -83 29t-36 88z" />
<glyph unicode="&#x2039;" horiz-adv-x="552" d="M104 487q0 37 25 69t59 67l277 284l45 -33l-227 -372l96 -377l-60 -21l-165 277q-18 29 -34 53t-16 53z" />
<glyph unicode="&#x203a;" horiz-adv-x="548" d="M455 524q-4 -43 -26.5 -72.5t-55.5 -62.5l-277 -285l-45 33l228 373l-97 377l60 20l166 -276q18 -31 32.5 -54.5t14.5 -52.5z" />
<glyph unicode="&#x20ac;" horiz-adv-x="1329" d="M279 887q33 117 90 223.5t143 186t200.5 126.5t260.5 47q113 0 190.5 -17t143.5 -36q-10 -66 -15.5 -104.5t-8.5 -70.5t-3 -67.5v-91.5h-72q4 23 4 41.5v34.5q0 80 -22.5 129t-59 75t-84 34t-96.5 8q-72 0 -143.5 -31t-135 -95.5t-115.5 -161.5t-83 -230h578l-31 -74 h-563q-6 -37 -11.5 -76t-9.5 -80h520l-28 -73h-496q-2 -23 -2 -46.5v-45.5q0 -236 83 -349.5t239 -113.5q53 0 112.5 16t112.5 56t96 110t64 178l71 -8q-8 -29 -19 -76t-23.5 -98t-21.5 -102.5t-16 -88.5q-59 -16 -159.5 -34.5t-220.5 -18.5q-119 0 -214.5 41t-161 119 t-101 189.5t-35.5 250.5v21h-140l13 37q10 31 16 36h115q4 39 8 77t12 79h-131q6 20 14 37q10 31 17 37h119z" />
<glyph unicode="&#x2122;" horiz-adv-x="1744" d="M571 885q0 -59 11.5 -71.5t40.5 -12.5h14q4 0 16.5 1t18.5 1v-45q-49 4 -87 6t-69 2q-33 0 -69.5 -2t-86.5 -6v45q6 0 18.5 -1t16.5 -1h15q29 0 40 12t11 72v424q0 33 -4 50t-13.5 25.5t-23.5 9.5t-35 1q-29 0 -47.5 -10.5t-28.5 -27t-14 -38t-6 -43.5l-2 -27l-49 6 q10 47 12 84t2 95q18 -2 52 -3t72 -2.5t75.5 -1.5h64.5h62.5t76.5 1.5t75 2.5t54 3q0 -51 2 -89t13 -90l-51 -6l-3 27q-4 45 -21 82t-77 37q-20 0 -34.5 -1t-23.5 -9.5t-13.5 -26t-4.5 -49.5v-424zM1464 1190q0 23 1 60.5t3 60.5h-8l-205 -533h-65l-166 436q-8 18 -19.5 52 t-15.5 51h-8v-443q0 -45 13.5 -59t47.5 -14h16.5t18.5 2v-43q-43 0 -64.5 3t-60.5 3q-35 0 -64.5 -1t-66.5 -5v43q10 0 17.5 -1t13.5 -1q39 0 55.5 13t16.5 60v447q0 45 -10.5 59.5t-45.5 14.5q-8 0 -17 -1t-20 -1v41q35 0 69 -2t69 -2q41 0 90 6q4 -18 11 -43t17 -47 l136 -353q8 -18 15 -36.5t13 -38.5l195 518q35 -4 70.5 -5t46.5 -1q35 0 52 1t58 3v-43q-12 2 -21.5 2h-19.5q-33 0 -47 -14.5t-14 -57.5v-436q0 -59 11 -71.5t40 -12.5h16h12.5t20.5 2v-45q-47 4 -85 6t-68 2q-33 0 -70 -2t-86 -6v45q12 -2 21.5 -2h13.5h16q27 0 39 12 t12 72v305z" />
<glyph unicode="&#x25fc;" horiz-adv-x="962" d="M0 963h963v-963h-963v963z" />
<glyph unicode="&#x2715;" d="M254 1079l299 -301l297 297l59 -61l-295 -295l299 -301l-65 -66l-301 299l-297 -297l-60 62l297 297l-301 299z" />
<glyph horiz-adv-x="833" d="M213 801h510l-14 -84h-510z" />
<glyph d="M1004 725l-15 -90h-893l15 90h893z" />
<glyph horiz-adv-x="1638" d="M1571 725l-15 -90h-1404l14 90h1405z" />
<glyph horiz-adv-x="833" d="M213 801h510l-14 -84h-510z" />
<glyph horiz-adv-x="913" d="M156 707q4 33 26.5 60.5t55.5 59.5l276 285l45 -33l-227 -372l98 -373l-53 -33l-174 285q-18 31 -32.5 57.5t-14.5 63.5zM475 707q4 33 26.5 60.5t55.5 59.5l277 285l45 -33l-228 -372l99 -373l-54 -33l-174 285q-18 31 -32.5 57.5t-14.5 63.5z" />
<glyph horiz-adv-x="913" d="M840 721q0 -37 -22.5 -67.5t-59.5 -67.5l-277 -285l-45 33l228 373l-99 372l53 33l175 -285q18 -29 32.5 -53t14.5 -53zM520 721q0 -37 -22.5 -67.5t-59.5 -67.5l-276 -285l-45 33l227 373l-98 372l53 33l174 -285q18 -29 32.5 -53t14.5 -53z" />
<glyph horiz-adv-x="595" d="M156 692q0 37 24.5 69t59.5 66l276 285l45 -33l-227 -372l96 -377l-59 -21l-166 277q-18 29 -33.5 53t-15.5 53z" />
<glyph horiz-adv-x="591" d="M520 729q-4 -43 -26.5 -72.5t-55.5 -62.5l-276 -285l-45 33l227 373l-96 377l59 20l166 -276q18 -31 32.5 -54.5t14.5 -52.5z" />
<glyph horiz-adv-x="620" d="M121 565q0 176 50 324.5t134 284t196.5 262.5t235.5 262l47 -39q-242 -262 -361.5 -576.5t-119.5 -679.5q0 -166 29.5 -334.5t118.5 -318.5l-60 -39q-133 229 -201.5 442t-68.5 412z" />
<glyph horiz-adv-x="620" d="M582 854q0 -176 -50.5 -326.5t-135.5 -287t-197.5 -265.5t-235.5 -264l-47 39q242 262 362.5 581.5t120.5 684.5q0 166 -29.5 329.5t-117.5 313.5l59 39q133 -229 202 -437t69 -407z" />
<glyph horiz-adv-x="643" d="M475 -127l-12 -78h-379l322 1819h378l-12 -78h-205l-297 -1663h205z" />
<glyph horiz-adv-x="651" d="M156 -127l297 1665h-203l12 78h385l-321 -1821h-383l12 78h201z" />
<glyph horiz-adv-x="636" d="M469 928q-16 -88 -54 -141.5t-122 -73.5l-2 -8q59 -16 82.5 -51.5t23.5 -90.5q0 -35 -6 -74l-76 -415q-6 -25 -6 -51q0 -27 6.5 -55.5t22.5 -53.5t45 -44.5t72 -25.5l-13 -51q-35 0 -86 11.5t-99 40t-83 75.5t-35 119q0 25 6 55q31 178 48.5 275.5t26.5 145.5t11 60.5 t2 22.5q0 33 -24.5 57.5t-102.5 30.5q-6 6 -6 14q0 20 15 31q49 4 79.5 15.5t49 34t30 57t19.5 84.5l76 452q14 90 61 138.5t106.5 71t122 26.5t107.5 4l-8 -53q-66 -2 -106 -17.5t-61.5 -38t-30.5 -51.5t-13 -59l-78 -467v0z" />
<glyph horiz-adv-x="624" d="M248 483q16 88 54 141.5t122 73.5l2 9q-59 16 -83 51t-24 90q0 33 7 74l75 424q6 25 7 51q0 27 -6.5 53.5t-23 50t-45 41t-71.5 23.5l8 49q35 0 85.5 -9.5t97.5 -36t80.5 -71.5t33.5 -117q0 -25 -6 -55q-20 -119 -34.5 -201t-24.5 -137t-15.5 -87t-8.5 -49t-4 -24.5 t-1 -13.5q0 -33 24.5 -57.5t102.5 -30.5q6 -6 6 -14q0 -20 -14 -31q-49 -4 -80 -15.5t-49.5 -34t-29.5 -57t-19 -84.5l-76 -454q-16 -90 -61.5 -138.5t-102.5 -71t-117.5 -25.5t-105.5 -3l8 56q66 2 104.5 16t60 36.5t31 50.5t15.5 58z" />
<glyph horiz-adv-x="606" d="M397 -322h-110v2048h110v-2048z" />
<glyph horiz-adv-x="589" d="M385 -215h-111v758h111v-758zM385 811h-111v758h111v-758z" />
<glyph d="M598 1184v-426h418v-86h-418v-426h-94v426h-420v86h420v426h94z" />
<glyph d="M1006 903v-82h-930v82h930zM1006 596v-82h-930v82h930z" />
<glyph horiz-adv-x="1769" d="M1006 438q-6 -8 -31 -32.5t-59.5 -51t-78.5 -47t-94 -20.5q-25 0 -61.5 6t-69 28.5t-56.5 69.5t-24 127q0 94 39 199.5t105.5 194.5t155 147.5t188.5 58.5q49 0 77.5 -9t48 -21.5t36 -21.5t41.5 -9q27 0 41 4t36 31l52 -11q-41 -111 -77 -219t-71 -221q-12 -43 -28.5 -95 t-16.5 -100q0 -41 19.5 -69.5t72.5 -28.5q70 0 140.5 49t126 134t90 197t34.5 237q0 123 -43 211t-114.5 146t-168.5 86t-204 28q-145 0 -295.5 -57.5t-275.5 -171t-204 -284.5t-79 -397q0 -137 41 -242.5t112.5 -176t168 -107.5t206.5 -37q102 0 224 29l-6 -66 q-133 -27 -254 -26q-154 0 -271 50t-195.5 136t-117.5 200.5t-39 243.5q0 166 65.5 339t191.5 315.5t311.5 233.5t424.5 91q164 0 286 -44t203 -118.5t120.5 -176t39.5 -216.5q0 -137 -47 -260t-123.5 -215t-175 -146t-202.5 -54q-92 0 -150.5 34.5t-58.5 100.5q0 14 2 22z M1040 1055q-51 0 -98 -29t-88 -76t-73.5 -107.5t-56.5 -123t-37 -122.5t-13 -105q0 -72 25.5 -105t72.5 -33q66 0 132.5 56.5t118.5 139.5t85 180t33 177q0 59 -22 103.5t-79 44.5z" />
<glyph d="M561 1184v-363h357v-86h-357v-362h-94v362h-358v86h358v363h94zM109 205v86h809v-86h-809z" />
<glyph d="M885 821h-807v82h889v-479h-82v397z" />
<glyph d="M438 426q0 47 32 78t79 31t77.5 -31t30.5 -78t-30.5 -79t-77.5 -32t-79 32t-32 79zM438 1001q0 47 32 78t79 31t77.5 -30.5t30.5 -78.5q0 -47 -30.5 -78.5t-77.5 -31.5t-79 31.5t-32 78.5zM1014 756v-82h-930v82h930z" />
<glyph horiz-adv-x="1193" d="M139 457q0 111 14.5 229.5t44 231t78 213t117 176t158.5 119.5t205 44q180 0 280.5 -131t100.5 -370q0 -111 -13.5 -228.5t-44 -229.5t-79 -211t-116 -174t-157.5 -119t-205 -44q-182 0 -282.5 130.5t-100.5 363.5zM360 717q-18 -104 -27 -189.5t-9 -160.5 q0 -164 46 -250t152 -86q154 0 246 179t147 507q10 66 23.5 160t13.5 192q0 66 -8 126t-30.5 106.5t-60.5 74t-95 27.5q-78 0 -139.5 -47t-109.5 -136.5t-85 -216t-64 -286.5z" />
<glyph horiz-adv-x="868" d="M580 244q-6 -37 -7 -68q0 -61 33 -88t117 -27h26.5t30.5 2l-12 -69q-78 6 -164 9t-160 3q-72 0 -154.5 -3t-162.5 -9l12 69q18 -2 34.5 -2h33.5q57 0 92 8.5t53.5 29t27.5 56t19 89.5l140 829q6 37 6 62q0 59 -20.5 75.5t-53.5 16.5q-31 0 -73 -12.5t-83 -29t-75.5 -32.5 t-51.5 -27l-26 80q86 29 159.5 53.5t141 53t134.5 66.5t138 94l58 -39q-14 -51 -23.5 -95.5t-21.5 -119.5z" />
<glyph horiz-adv-x="1105" d="M41 -10q4 78 15.5 133t33.5 106q59 135 140 221.5t168 149t173 112.5t153 110.5t108.5 144.5t41.5 215q0 98 -53 159.5t-159 61.5q-63 0 -105.5 -12.5t-67 -34t-35 -53t-10.5 -70.5q0 -16 3.5 -33.5t3.5 -34.5q0 -72 -39 -101.5t-86 -29.5q-45 0 -73 32t-28 83 q0 63 29 121.5t87 102.5t145 70.5t204 26.5q102 0 175 -26.5t119 -70.5t67.5 -100t21.5 -116q0 -127 -55 -211t-141 -146.5t-192.5 -117.5t-207 -125t-185.5 -167t-128 -243q8 4 29.5 7.5t46 4.5t49 1h37.5h342q90 0 136 23.5t66.5 57t26.5 73.5t16 73l76 -8 q-20 -63 -31.5 -111.5t-18.5 -92.5t-11 -88t-10 -97q-98 12 -200 14t-165 2h-180q-94 0 -175 -3t-157 -13z" />
<glyph horiz-adv-x="1118" d="M453 1243q2 -14 3 -27.5t1 -27.5q0 -59 -25.5 -106.5t-101.5 -47.5q-45 0 -75 31t-30 80q0 66 33 125t93.5 103t144.5 70.5t186 26.5q100 0 175 -27.5t123 -72.5t71.5 -100.5t23.5 -112.5q0 -86 -24.5 -150.5t-62.5 -108.5t-84 -72.5t-90 -44t-81 -21.5t-55 -6v-13 q29 0 82 -13t104 -48t89 -95.5t38 -156.5q0 -143 -52 -233.5t-128 -141.5t-162 -70.5t-153 -19.5q-100 0 -178 24.5t-132.5 64.5t-82 93.5t-27.5 108.5q0 25 4 54.5t16.5 54t38 42t68.5 17.5q53 0 77.5 -33t24.5 -67q0 -35 -5 -55.5t-11 -36t-11.5 -30t-5.5 -36.5 q0 -61 56.5 -96t146.5 -35q59 0 116.5 26.5t102.5 80t73 131t28 182.5q0 78 -25 128t-62.5 79.5t-87 41t-98.5 11.5h-26.5t-24.5 -2l12 77q12 0 23.5 -2t28.5 -2q170 0 258 105.5t88 277.5q0 49 -13.5 91t-39 75t-65.5 51.5t-95 18.5q-106 0 -160.5 -47t-54.5 -113z" />
<glyph horiz-adv-x="1153" d="M934 524q20 0 63 1t107 5l-23 -122q-59 4 -92 5t-53 1h-123l-33 -191q-4 -20 -6 -36.5t-2 -30.5q0 -57 29.5 -77t91.5 -20q18 0 38.5 1t43.5 3l-12 -69q-164 12 -310 12q-76 0 -149.5 -3t-153.5 -9l12 69q23 -2 41.5 -3t34.5 -1q78 0 117 33t55 131l31 191h-608l20 121 l559 606q47 51 80 86t63.5 68.5t66.5 75.5t91 106l86 -37q-18 -61 -27 -109.5t-16.5 -92.5t-13.5 -91t-16 -105l-92 -518h100zM135 516q27 4 82 6t135 2h307l62 363q10 61 24.5 144t55.5 200l-6 4l-662 -713z" />
<glyph horiz-adv-x="1116" d="M983 1065q2 16 2 30.5v28.5q0 82 -38 122t-152 40h-277q-37 0 -63.5 -6t-46 -24.5t-34 -51.5t-26.5 -84q-12 -53 -20.5 -98t-16.5 -87t-17 -82t-24 -79q43 49 120 89t210 40q92 0 168 -30.5t130 -88t85 -136.5t31 -173q0 -106 -36 -199.5t-101.5 -163t-160.5 -110.5 t-212 -41q-100 0 -178 24.5t-132.5 64.5t-83 92.5t-28.5 109.5q0 25 4 53.5t17.5 53t40 41t69.5 16.5q57 0 81.5 -35t24.5 -70t-5 -55t-12 -34.5t-12 -28t-5 -33.5q0 -61 54 -95t146 -34q86 0 148.5 44t103.5 112.5t60.5 152.5t19.5 164q0 145 -65.5 237.5t-186.5 92.5 q-115 0 -188.5 -55.5t-130.5 -137.5l-76 18q10 43 18.5 81t20.5 95.5t31.5 144.5t52.5 228q6 31 10 52.5t9 44t9.5 53.5t8.5 82q51 -4 113.5 -8.5t131.5 -4.5h256q47 0 101.5 1.5t142.5 11.5q-14 -66 -20 -144.5t-6 -156.5v-37.5t2 -36.5h-68z" />
<glyph horiz-adv-x="1169" d="M358 711q35 45 69 78.5t73 56t87 34t111 11.5q78 0 145.5 -27.5t117 -78t77 -124t27.5 -165.5q0 -123 -42 -222.5t-111.5 -168t-161 -105.5t-191.5 -37q-111 0 -190.5 39t-131 108.5t-75 165t-23.5 207.5q0 102 14.5 216t46 223.5t83 209t123 175t167 119.5t215.5 44 q96 0 162 -27.5t107 -67.5t59.5 -85t18.5 -82q0 -16 -2.5 -43.5t-15.5 -54.5t-39.5 -47.5t-76.5 -20.5q-47 0 -69.5 31t-22.5 66t6.5 54t14.5 34.5t14 31t6 41.5q0 47 -48 75t-109 28q-88 0 -150.5 -45t-108 -111.5t-75 -143.5t-49.5 -142q-20 -63 -31.5 -123t-30.5 -121z M870 492q0 66 -12 125t-37.5 105t-67.5 72.5t-102 26.5q-68 0 -126 -39t-102 -106.5t-68.5 -159.5t-24.5 -197q0 -137 59.5 -211.5t169.5 -74.5q84 0 143.5 46t96.5 115.5t54 149.5t17 148z" />
<glyph horiz-adv-x="976" d="M954 1288l-6 4q-16 -2 -33.5 -4t-42 -3t-57.5 -1h-82h-244q-68 0 -110.5 -15.5t-69 -45t-43 -74.5t-30.5 -102l-76 16q39 104 53 197.5t25 179.5q86 -10 145 -11.5t106 -1.5h213q35 0 87.5 1.5t106.5 3.5t102.5 4t74.5 4l45 -62q-100 -137 -179 -252.5t-141.5 -217 t-109.5 -191.5t-84 -172t-52 -158t-21.5 -140.5t-8.5 -116.5t-12 -89t-34.5 -57.5t-76.5 -20.5q-53 0 -81.5 30t-28.5 89q0 61 18.5 126.5t54 140.5t89 162t124.5 194z" />
<glyph horiz-adv-x="1138" d="M492 741q-111 59 -176.5 136t-65.5 200q0 70 25.5 140.5t81 127t144.5 91t216 34.5q100 0 174 -25.5t120 -68.5t68.5 -101t22.5 -122q0 -82 -31 -142.5t-81 -105.5t-112.5 -75.5t-125.5 -55.5q51 -27 98 -60.5t84 -77.5t58.5 -99.5t21.5 -122.5q0 -94 -35 -176 t-101.5 -143.5t-164 -96.5t-221.5 -35q-92 0 -167 24.5t-127.5 69.5t-81 105.5t-28.5 134.5q0 92 31 165t85 127t128 91.5t160 60.5zM680 811q39 20 86 41.5t88 59.5t69.5 96.5t28.5 152.5q0 115 -58 178.5t-179 63.5q-49 0 -98.5 -18.5t-89.5 -55.5t-64.5 -90t-24.5 -123 q0 -72 33 -123t74 -87t81 -58.5t54 -36.5zM242 274q6 -111 71.5 -177t178.5 -66q80 0 142 27.5t103 73.5t62.5 105.5t21.5 124.5q0 76 -25.5 129.5t-65.5 92.5t-86 64.5t-87 45.5q-57 -14 -113.5 -41.5t-101.5 -77t-72.5 -122.5t-27.5 -179z" />
<glyph horiz-adv-x="1159" d="M883 750q-53 -84 -136 -122t-182 -38q-78 0 -145.5 23.5t-116.5 70.5t-77.5 117.5t-28.5 163.5q0 125 41 220t110.5 158.5t158.5 95t185 31.5q113 0 191 -42t126 -113.5t69.5 -169.5t21.5 -211q0 -96 -12.5 -206t-40 -217.5t-72.5 -206.5t-111.5 -175t-158 -121 t-207.5 -45q-109 0 -183.5 32t-121 77t-67 95t-20.5 87q0 23 6.5 50.5t20.5 52t40 41t67 16.5q47 0 73.5 -33t26.5 -68t-6 -52t-12.5 -31.5t-12.5 -30t-6 -43.5q0 -53 53.5 -89t124.5 -36q88 0 156 50t118 142t83.5 224.5t56.5 295.5zM705 1403q-82 0 -141.5 -43 t-98.5 -109.5t-57.5 -146.5t-18.5 -154q0 -133 57.5 -209.5t151.5 -76.5q63 0 122.5 27.5t104.5 82.5t73 135t28 185q0 141 -62.5 225t-158.5 84z" />
</font>
</defs>
</svg>
